<?xml version="1.0" standalone="no"?>
<!DOCTYPE svg PUBLIC "-//W3C//DTD SVG 1.1//EN" "http://www.w3.org/Graphics/SVG/1.1/DTD/svg11.dtd" >
<svg xmlns="http://www.w3.org/2000/svg" xmlns:xlink="http://www.w3.org/1999/xlink" version="1.1">
<metadata>
Created by FontForge 20190801 at Wed Feb 22 10:42:34 2012
 By Jimmy Wärting
Copyright (c) 2004 by Process Type Foundry. All rights reserved.
</metadata>
<defs>
<font id="Klavika-Regular" horiz-adv-x="525" >
  <font-face 
    font-family="Klavika Regular"
    font-weight="400"
    font-stretch="normal"
    units-per-em="1000"
    panose-1="2 11 5 6 4 0 0 2 0 4"
    ascent="750"
    descent="-250"
    x-height="487"
    cap-height="666"
    bbox="-16 -259 1157 985"
    underline-thickness="50"
    underline-position="-100"
    stemh="73"
    stemv="84"
    unicode-range="U+0020-FB04"
  />
<missing-glyph horiz-adv-x="656" 
d="M95 0v666h466v-666h-466zM512 616h-340l340 -527v527zM144 576v-527h339z" />
    <glyph glyph-name="fi" unicode="fi" horiz-adv-x="597" 
d="M517 0h-84v417h-233v-417h-84v417h-86v70h86v90c0 86 48 129 138 129c32 0 60 -4 91 -13l-7 -65c-26 5 -52 8 -73 8c-52 0 -65 -18 -65 -67v-82h317v-487zM517 565h-84v121h84v-121z" />
    <glyph glyph-name="fl" unicode="fl" horiz-adv-x="597" 
d="M348 693l-7 -65c-25 5 -55 8 -76 8c-52 0 -65 -18 -65 -67v-82h134l-7 -70h-127v-417h-84v417h-86v70h86v90c0 86 48 129 138 129c32 0 61 -4 94 -13zM517 0h-84v686l84 12v-698z" />
    <glyph glyph-name="f_f" unicode="ff" horiz-adv-x="696" 
d="M696 692l-7 -65c-26 5 -60 9 -81 9c-52 0 -65 -18 -65 -67v-82h139l-6 -69h-133v-418h-84v418h-259v-418h-84v418h-86v69h86v90c0 86 48 129 138 129c38 0 77 -5 110 -15l-7 -65c-26 5 -62 10 -92 10c-52 0 -65 -18 -65 -67v-82h259v90c0 86 48 129 138 129
c32 0 66 -4 99 -14z" />
    <glyph glyph-name="f_f_i" unicode="ffi" horiz-adv-x="940" 
d="M860 0h-84v418h-233v-418h-84v418h-259v-418h-84v418h-86v69h86v90c0 86 48 129 138 129c38 0 77 -5 110 -15l-7 -65c-26 5 -62 10 -92 10c-52 0 -65 -18 -65 -67v-82h259v90c0 86 48 129 138 129c32 0 60 -4 91 -13l-7 -65c-26 5 -52 8 -73 8c-52 0 -65 -18 -65 -67v-82
h317v-487zM860 565h-84v121h84v-121z" />
    <glyph glyph-name="f_j" unicode="fj" horiz-adv-x="592" 
d="M200 487h317v-518c0 -69 -7 -78 -113 -171l-51 59c80 71 80 76 80 117v443h-233v-417h-84v417h-86v70h86v90c0 86 48 129 138 129c32 0 60 -4 91 -13l-7 -65c-26 5 -52 8 -73 8c-52 0 -65 -18 -65 -67v-82zM517 565h-84v121h84v-121z" />
    <glyph glyph-name="f_f_j" unicode="ffj" horiz-adv-x="935" 
d="M860 -31c0 -69 -7 -78 -113 -171l-51 59c80 71 80 76 80 117v444h-233v-418h-84v418h-259v-418h-84v418h-86v69h86v90c0 86 48 129 138 129c38 0 77 -5 110 -15l-7 -65c-26 5 -62 10 -92 10c-52 0 -65 -18 -65 -67v-82h259v90c0 86 48 129 138 129c32 0 60 -4 91 -13
l-7 -65c-26 5 -52 8 -73 8c-52 0 -65 -18 -65 -67v-82h317v-518zM860 565h-84v121h84v-121z" />
    <glyph glyph-name="f_f_l" unicode="ffl" horiz-adv-x="940" 
d="M691 693l-7 -65c-25 5 -55 8 -76 8c-52 0 -65 -18 -65 -67v-82h134l-7 -69h-127v-418h-84v418h-259v-418h-84v418h-86v69h86v90c0 86 48 129 138 129c38 0 77 -5 110 -15l-7 -65c-26 5 -62 10 -92 10c-52 0 -65 -18 -65 -67v-82h259v90c0 86 48 129 138 129
c32 0 61 -4 94 -13zM860 0h-84v686l84 12v-698z" />
    <glyph glyph-name=".notdef" horiz-adv-x="656" 
d="M95 0v666h466v-666h-466zM512 616h-340l340 -527v527zM144 576v-527h339z" />
    <glyph glyph-name="space" unicode=" " horiz-adv-x="215" 
 />
    <glyph glyph-name="exclam" unicode="!" horiz-adv-x="266" 
d="M159 190h-52l-16 170v326h84v-326zM90 0v115h86v-115h-86z" />
    <glyph glyph-name="quotedbl" unicode="&#x22;" horiz-adv-x="375" 
d="M139 441h-69v245h69v-245zM305 441h-69v245h69v-245z" />
    <glyph glyph-name="numbersign" unicode="#" horiz-adv-x="707" 
d="M636 173h-130l-8 -173h-68l8 173h-181l-11 -173h-68l11 173h-129l4 63h130l10 186h-132l3 63h133l9 161h68l-9 -161h179l9 161h68l-9 -161h129l-4 -63h-129l-10 -186h131zM272 422l-10 -186h179l10 186h-179z" />
    <glyph glyph-name="dollar" unicode="$" horiz-adv-x="518" 
d="M293 -113h-74v104c-51 3 -110 15 -159 33l11 68c59 -18 128 -28 179 -28c106 0 119 25 119 102c0 76 -5 87 -128 126c-150 48 -170 76 -170 192c0 112 39 164 169 171v104h74v-105c45 -2 91 -7 129 -17l-8 -71c-43 8 -115 16 -162 16c-92 0 -118 -13 -118 -100
c0 -72 9 -85 114 -119c164 -53 184 -78 184 -196c0 -117 -40 -165 -160 -175v-105z" />
    <glyph glyph-name="percent" unicode="%" horiz-adv-x="841" 
d="M581 651l-270 -661l-59 26l269 660zM344 448c0 -82 -35 -136 -147 -136s-147 54 -147 136v92c0 82 35 136 147 136s147 -54 147 -136v-92zM118 543v-98c0 -48 19 -73 79 -73s79 25 79 73v98c0 48 -19 73 -79 73s-79 -25 -79 -73zM786 126c0 -82 -35 -136 -147 -136
s-147 54 -147 136v92c0 82 35 136 147 136s147 -54 147 -136v-92zM560 221v-98c0 -48 19 -73 79 -73s79 25 79 73v98c0 48 -19 73 -79 73s-79 -25 -79 -73z" />
    <glyph glyph-name="ampersand" unicode="&#x26;" horiz-adv-x="616" 
d="M586 298h-98v-280c-68 -19 -137 -28 -204 -28c-152 0 -209 54 -209 160v61c0 65 30 112 88 128c-56 23 -74 66 -74 118v69c0 95 51 150 200 150c61 0 134 -8 183 -18l-8 -69c-50 8 -119 14 -174 14c-88 0 -117 -23 -117 -87v-67c0 -47 25 -79 90 -79h323v-72zM284 63
c44 0 82 3 124 12v223h-142c-75 0 -107 -26 -107 -91v-48c0 -69 28 -96 125 -96z" />
    <glyph glyph-name="quotesingle" unicode="'" horiz-adv-x="209" 
d="M139 441h-69v245h69v-245z" />
    <glyph glyph-name="parenleft" unicode="(" horiz-adv-x="304" 
d="M224 762l60 -40c-95 -148 -130 -272 -130 -418s35 -270 130 -418l-60 -40c-99 133 -154 282 -154 458s55 325 154 458z" />
    <glyph glyph-name="parenright" unicode=")" horiz-adv-x="304" 
d="M20 722l60 40c99 -133 154 -282 154 -458s-55 -325 -154 -458l-60 40c95 148 130 272 130 418s-35 270 -130 418z" />
    <glyph glyph-name="asterisk" unicode="*" horiz-adv-x="473" 
d="M115 383l78 120h-143v47h145l-79 122l38 25l82 -127l82 127l38 -25l-79 -122h146v-47h-144l78 -120l-39 -24l-82 127l-82 -127z" />
    <glyph glyph-name="plus" unicode="+" horiz-adv-x="526" 
d="M60 208v70h166v169h74v-169h166v-70h-166v-169h-74v169h-166z" />
    <glyph glyph-name="comma" unicode="," horiz-adv-x="254" 
d="M83 0v115h86v-115l-60 -120l-39 19l42 101h-29z" />
    <glyph glyph-name="hyphen" unicode="-" horiz-adv-x="370" 
d="M60 244v69h250v-69h-250z" />
    <glyph glyph-name="period" unicode="." horiz-adv-x="256" 
d="M85 0v115h86v-115h-86z" />
    <glyph glyph-name="slash" unicode="/" horiz-adv-x="446" 
d="M386 676l-247 -793h-79l246 793h80z" />
    <glyph glyph-name="zero" unicode="0" horiz-adv-x="552" 
d="M482 483v-320c0 -100 -51 -173 -206 -173s-206 73 -206 173v320c0 100 51 173 206 173s206 -73 206 -173zM398 474c0 73 -30 108 -122 108s-122 -35 -122 -108v-302c0 -73 30 -108 122 -108s122 35 122 108v302z" />
    <glyph glyph-name="one" unicode="1" horiz-adv-x="350" 
d="M176 550l-129 -72l-37 67l175 101h75v-646h-84v550z" />
    <glyph glyph-name="two" unicode="2" horiz-adv-x="486" 
d="M50 0v77c74 84 93 106 172 199c102 121 109 147 109 194v29c0 63 -17 82 -118 82c-47 0 -110 -11 -148 -22l-12 72c43 13 109 25 167 25c154 0 195 -54 195 -156v-22c0 -79 -14 -113 -114 -232c-72 -86 -82 -99 -147 -172h267v-74h-371z" />
    <glyph glyph-name="three" unicode="3" horiz-adv-x="487" 
d="M50 10l9 70c48 -11 97 -16 146 -16c94 0 128 22 128 86v50c0 65 -36 87 -101 87h-137v74h126c78 0 100 30 100 83v58c0 60 -28 80 -108 80c-45 0 -95 -6 -141 -15l-9 71c42 10 100 18 152 18c141 0 190 -49 190 -142v-59c0 -61 -14 -99 -76 -129c55 -16 88 -47 88 -119
v-65c0 -104 -62 -152 -212 -152c-48 0 -113 6 -155 20z" />
    <glyph glyph-name="four" unicode="4" horiz-adv-x="537" 
d="M507 159h-93v-159h-84v159h-308v83l279 404h113v-415h93v-72zM105 231h225v330z" />
    <glyph glyph-name="five" unicode="5" horiz-adv-x="496" 
d="M83 295v351h340v-74h-256v-205c42 -1 62 -1 107 -3c119 -5 157 -63 157 -150v-58c0 -106 -46 -166 -205 -166c-50 0 -117 6 -168 23l9 68c50 -12 110 -17 158 -17c100 0 122 26 122 97v44c0 60 -20 85 -103 87c-67 2 -111 2 -161 3z" />
    <glyph glyph-name="six" unicode="6" horiz-adv-x="512" 
d="M153 429v-82c33 12 89 23 133 23c127 0 171 -53 171 -159v-32c0 -117 -32 -189 -192 -189c-144 0 -195 60 -195 154v286c0 166 74 226 262 226c31 0 78 -4 110 -12l-9 -70c-24 5 -64 9 -88 9c-155 0 -192 -33 -192 -154zM278 297c-44 0 -92 -13 -125 -27v-114
c0 -71 36 -92 112 -92c86 0 109 26 109 92v55c0 61 -23 86 -96 86z" />
    <glyph glyph-name="seven" unicode="7" horiz-adv-x="440" 
d="M25 572v74h397v-71l-266 -575h-85l265 572h-311z" />
    <glyph glyph-name="eight" unicode="8" horiz-adv-x="544" 
d="M462 473c0 -63 -22 -104 -104 -143c91 -42 121 -84 121 -152v-29c0 -112 -60 -159 -207 -159c-148 0 -207 47 -207 159v29c0 68 29 110 118 152c-80 39 -101 80 -101 143v26c0 91 45 157 190 157c144 0 190 -66 190 -157v-26zM397 175c0 57 -25 76 -125 117
c-101 -41 -125 -60 -125 -117v-23c0 -68 32 -90 125 -90c92 0 125 22 125 90v23zM164 471c0 -51 22 -72 108 -107c86 35 108 56 108 107v32c0 52 -25 82 -108 82c-84 0 -108 -30 -108 -82v-32z" />
    <glyph glyph-name="nine" unicode="9" horiz-adv-x="512" 
d="M359 217v82c-33 -12 -89 -23 -133 -23c-127 0 -171 53 -171 159v32c0 117 35 189 192 189c144 0 195 -63 195 -157v-283c0 -166 -74 -226 -262 -226c-31 0 -78 4 -110 12l8 70c24 -5 65 -9 89 -9c155 0 192 33 192 154zM234 349c44 0 92 13 125 27v114
c0 71 -36 92 -112 92c-86 0 -109 -26 -109 -92v-55c0 -61 23 -86 96 -86z" />
    <glyph glyph-name="colon" unicode=":" horiz-adv-x="256" 
d="M85 306v115h86v-115h-86zM85 0v115h86v-115h-86z" />
    <glyph glyph-name="semicolon" unicode=";" horiz-adv-x="254" 
d="M83 0v115h86v-115l-60 -120l-39 19l42 101h-29zM83 306v115h86v-115h-86z" />
    <glyph glyph-name="less" unicode="&#x3c;" horiz-adv-x="558" 
d="M50 270l413 228l30 -55l-365 -199l365 -199l-30 -55l-413 228v52z" />
    <glyph glyph-name="equal" unicode="=" horiz-adv-x="509" 
d="M70 299v62h369v-62h-369zM70 121v62h369v-62h-369z" />
    <glyph glyph-name="greater" unicode="&#x3e;" horiz-adv-x="558" 
d="M95 498l413 -228v-52l-413 -228l-30 55l365 199l-365 199z" />
    <glyph glyph-name="question" unicode="?" horiz-adv-x="476" 
d="M200 224l-48 64c39 30 70 51 111 84c62 50 64 63 64 140c0 84 -12 109 -116 109c-39 0 -102 -5 -145 -15l-11 72c38 10 111 18 162 18c162 0 194 -58 194 -180c0 -108 -6 -134 -90 -200c-42 -33 -78 -59 -121 -92zM151 0v115h86v-115h-86z" />
    <glyph glyph-name="at" unicode="@" horiz-adv-x="744" 
d="M420 284l26 149c-19 6 -42 11 -64 11c-31 0 -48 -12 -53 -41l-19 -108c-5 -26 3 -34 33 -34c22 0 57 9 77 23zM251 289l20 115c12 66 47 90 120 90c37 0 83 -12 119 -28l-37 -210c8 -3 21 -6 39 -6c87 0 115 74 115 149c0 133 -86 220 -241 220
c-148 0 -262 -115 -262 -286s97 -286 293 -286c65 0 119 14 178 38l18 -50c-57 -31 -130 -45 -198 -45c-229 0 -355 138 -355 343c0 200 132 343 326 343c197 0 303 -111 303 -275c0 -114 -58 -202 -179 -202c-40 0 -70 12 -85 36c-33 -18 -66 -28 -103 -28
c-55 0 -80 32 -71 82z" />
    <glyph glyph-name="A" unicode="A" horiz-adv-x="622" 
d="M369 666l225 -666h-87l-55 160h-283l-54 -160h-87l225 666h116zM430 235l-119 369l-119 -369h238z" />
    <glyph glyph-name="B" unicode="B" horiz-adv-x="571" 
d="M356 0h-271v666h257c105 0 157 -47 157 -135v-77c0 -51 -17 -89 -76 -111c58 -10 98 -49 98 -120v-80c0 -93 -65 -143 -165 -143zM435 150v70c0 53 -30 82 -96 82h-168v-228h173c61 0 91 26 91 76zM413 454v75c0 43 -24 63 -76 63h-166v-216h152c65 0 90 30 90 78z" />
    <glyph glyph-name="C" unicode="C" horiz-adv-x="516" 
d="M156 475v-284c0 -93 36 -123 145 -123c40 0 105 5 156 14l9 -74c-48 -11 -118 -18 -168 -18c-163 0 -228 70 -228 196v294c0 126 65 196 228 196c50 0 120 -7 168 -18l-9 -74c-51 9 -116 14 -156 14c-109 0 -145 -30 -145 -123z" />
    <glyph glyph-name="D" unicode="D" horiz-adv-x="597" 
d="M85 666h233c163 0 214 -85 214 -191v-284c0 -106 -51 -191 -214 -191h-233v666zM171 589v-512h144c101 0 131 42 131 120v272c0 78 -30 120 -131 120h-144z" />
    <glyph glyph-name="E" unicode="E" horiz-adv-x="540" 
d="M85 0v666h392v-77h-306v-209h284v-77h-284v-226h307v-77h-393z" />
    <glyph glyph-name="F" unicode="F" horiz-adv-x="521" 
d="M171 0h-86v666h396v-77h-310v-222h289v-77h-289v-290z" />
    <glyph glyph-name="G" unicode="G" horiz-adv-x="578" 
d="M156 475v-284c0 -85 25 -123 139 -123c35 0 79 3 125 12v226h83v-287c-65 -19 -142 -29 -211 -29c-170 0 -222 73 -222 196v293c0 135 67 197 233 197c57 0 123 -7 185 -21l-10 -74c-64 11 -124 17 -179 17c-110 0 -143 -33 -143 -123z" />
    <glyph glyph-name="H" unicode="H" horiz-adv-x="637" 
d="M552 0h-86v302h-295v-302h-86v666h86v-287h295v287h86v-666z" />
    <glyph glyph-name="I" unicode="I" horiz-adv-x="266" 
d="M176 666v-666h-86v666h86z" />
    <glyph glyph-name="J" unicode="J" horiz-adv-x="256" 
d="M85 666h86v-669c0 -79 -11 -88 -126 -195l-54 61c92 88 94 91 94 137v666z" />
    <glyph glyph-name="K" unicode="K" horiz-adv-x="588" 
d="M171 666v-666h-86v666h86zM533 666l-244 -327l264 -339h-103l-258 339l240 327h101z" />
    <glyph glyph-name="L" unicode="L" horiz-adv-x="500" 
d="M171 666v-589h289v-77h-375v666h86z" />
    <glyph glyph-name="M" unicode="M" horiz-adv-x="798" 
d="M341 86l-170 454l-13 -540h-83l23 666h109l192 -515l192 515h109l23 -666h-83l-13 540l-170 -454h-116z" />
    <glyph glyph-name="N" unicode="N" horiz-adv-x="660" 
d="M457 0l-290 567v-567h-82v666h118l290 -570v570h82v-666h-118z" />
    <glyph glyph-name="O" unicode="O" horiz-adv-x="622" 
d="M552 474v-282c0 -111 -69 -202 -241 -202s-241 91 -241 202v282c0 111 69 202 241 202s241 -91 241 -202zM156 472v-278c0 -82 50 -128 155 -128s155 46 155 128v278c0 82 -50 128 -155 128s-155 -46 -155 -128z" />
    <glyph glyph-name="P" unicode="P" horiz-adv-x="557" 
d="M85 0v666h241c143 0 193 -62 193 -164v-99c0 -103 -50 -165 -193 -165h-155v-238h-86zM433 501c0 66 -28 88 -110 88h-152v-274h152c82 0 110 23 110 88v98z" />
    <glyph glyph-name="Q" unicode="Q" horiz-adv-x="622" 
d="M552 474v-282c0 -95 -51 -176 -174 -196l56 -127l-77 -35l-69 157c-155 8 -218 95 -218 201v282c0 111 69 202 241 202s241 -91 241 -202zM156 472v-278c0 -82 50 -128 155 -128s155 46 155 128v278c0 82 -50 128 -155 128s-155 -46 -155 -128z" />
    <glyph glyph-name="R" unicode="R" horiz-adv-x="632" 
d="M500 0l-166 241h-163v-241h-86v666h254c143 0 193 -62 193 -164v-96c0 -79 -29 -133 -106 -155l173 -251h-99zM446 501c0 66 -28 88 -110 88h-165v-272h165c82 0 110 23 110 88v96z" />
    <glyph glyph-name="S" unicode="S" horiz-adv-x="540" 
d="M475 172c0 -116 -34 -182 -217 -182c-64 0 -141 12 -198 35l14 70c61 -19 125 -29 186 -29c107 0 129 28 129 104c0 90 -1 98 -138 129c-161 36 -180 67 -180 205c0 116 48 172 213 172c58 0 127 -8 180 -22l-7 -73c-53 12 -116 19 -171 19c-109 0 -129 -22 -129 -99
c0 -92 0 -96 132 -129c177 -44 186 -70 186 -200z" />
    <glyph glyph-name="T" unicode="T" horiz-adv-x="524" 
d="M219 0v589h-199v77h484v-77h-199v-589h-86z" />
    <glyph glyph-name="U" unicode="U" horiz-adv-x="632" 
d="M466 666h86v-479c0 -109 -63 -197 -236 -197s-236 88 -236 197v479h86v-474c0 -82 45 -125 150 -125s150 43 150 125v474z" />
    <glyph glyph-name="V" unicode="V" horiz-adv-x="592" 
d="M238 0l-220 666h83l195 -591l195 591h83l-220 -666h-116z" />
    <glyph glyph-name="W" unicode="W" horiz-adv-x="908" 
d="M514 666l138 -584l152 584h84l-175 -666h-121l-138 595l-138 -595h-121l-175 666h84l152 -584l138 584h120z" />
    <glyph glyph-name="X" unicode="X" horiz-adv-x="589" 
d="M30 0l216 338l-209 328h92l165 -260l166 260h92l-210 -328l217 -338h-92l-173 270l-172 -270h-92z" />
    <glyph glyph-name="Y" unicode="Y" horiz-adv-x="548" 
d="M274 294l174 372h90l-221 -465v-201h-86v201l-221 465h90z" />
    <glyph glyph-name="Z" unicode="Z" horiz-adv-x="580" 
d="M508 592l-344 -518h351v-74h-445v74l343 518h-337v74h432v-74z" />
    <glyph glyph-name="bracketleft" unicode="[" horiz-adv-x="309" 
d="M289 -126h-194v916h194v-72h-110v-772h110v-72z" />
    <glyph glyph-name="backslash" unicode="\" horiz-adv-x="441" 
d="M307 -117l-247 793h80l246 -793h-79z" />
    <glyph glyph-name="bracketright" unicode="]" horiz-adv-x="309" 
d="M214 -126h-194v72h110v772h-110v72h194v-916z" />
    <glyph glyph-name="asciicircum" unicode="^" horiz-adv-x="460" 
d="M415 408l-60 -31l-125 236l-125 -236l-60 31l149 278h72z" />
    <glyph glyph-name="underscore" unicode="_" horiz-adv-x="444" 
d="M445 -125h-446v50h446v-50z" />
    <glyph glyph-name="grave" unicode="`" horiz-adv-x="313" 
d="M243 598l-34 -52c-51 27 -93 53 -139 87l36 56c35 -29 87 -62 137 -91z" />
    <glyph glyph-name="a" unicode="a" horiz-adv-x="493" 
d="M425 339v-339h-71l-5 36c-43 -30 -99 -46 -158 -46c-91 0 -129 54 -129 140c0 101 51 137 149 137h130v76c0 61 -27 82 -106 82c-47 0 -108 -8 -146 -16l-9 67c46 12 108 21 160 21c139 0 185 -54 185 -158zM341 102v95h-124c-52 0 -71 -16 -71 -65c0 -50 9 -70 69 -70
c42 0 89 16 126 40z" />
    <glyph glyph-name="b" unicode="b" horiz-adv-x="519" 
d="M461 345v-173c0 -111 -40 -182 -207 -182c-45 0 -118 6 -174 19v677l84 12v-235c34 18 92 34 154 34c101 0 143 -59 143 -152zM164 386v-315c33 -5 66 -7 96 -7c99 0 117 40 117 105v179c0 50 -22 75 -79 75c-43 0 -101 -21 -134 -37z" />
    <glyph glyph-name="c" unicode="c" horiz-adv-x="409" 
d="M244 -10c-156 0 -194 65 -194 177v153c0 112 42 177 194 177c43 0 91 -7 116 -15l-7 -70c-38 8 -73 11 -107 11c-84 0 -112 -24 -112 -100v-159c0 -76 28 -100 112 -100c34 0 69 3 107 11l8 -70c-25 -8 -74 -15 -117 -15z" />
    <glyph glyph-name="d" unicode="d" horiz-adv-x="523" 
d="M62 139v199c0 97 44 159 158 159c43 0 100 -7 139 -15v204l84 12v-698h-71l-7 44c-40 -32 -97 -54 -161 -54c-96 0 -142 51 -142 149zM359 122v286c-45 9 -100 15 -134 15c-56 0 -79 -26 -79 -85v-199c0 -50 16 -75 75 -75c48 0 102 26 138 58z" />
    <glyph glyph-name="e" unicode="e" horiz-adv-x="481" 
d="M139 170c0 -77 21 -108 116 -108c48 0 101 9 154 23l11 -67c-46 -17 -111 -28 -172 -28c-144 0 -193 69 -193 179v146c0 101 46 182 191 182c144 0 183 -83 183 -184v-102h-290v-41zM139 321v-40h209v40c0 68 -23 106 -102 106s-107 -38 -107 -106z" />
    <glyph glyph-name="f" unicode="f" horiz-adv-x="353" 
d="M353 692l-7 -65c-26 5 -60 9 -81 9c-52 0 -65 -18 -65 -67v-82h139l-7 -70h-132v-417h-84v417h-86v70h86v90c0 86 48 129 138 129c32 0 66 -4 99 -14z" />
    <glyph glyph-name="g" unicode="g" horiz-adv-x="490" 
d="M457 487v-49l-58 -11c18 -25 26 -59 27 -97v-22c0 -105 -64 -166 -191 -166c-18 0 -35 1 -50 3c-17 -14 -35 -31 -35 -52c0 -19 10 -26 32 -28c51 -5 77 -8 138 -14c88 -9 122 -43 122 -117c0 -106 -37 -141 -213 -141c-45 0 -122 8 -177 23l12 66
c51 -12 114 -20 163 -20c124 0 136 17 136 68c0 41 -15 48 -72 53c-54 5 -72 7 -129 12c-72 6 -95 44 -95 89c0 36 20 66 46 86c-46 26 -68 74 -68 138v22c0 106 51 167 190 167c25 0 59 -3 82 -10h140zM346 329c0 71 -30 99 -111 99s-111 -27 -111 -99v-21
c0 -74 31 -97 111 -97s111 33 111 97v21z" />
    <glyph glyph-name="h" unicode="h" horiz-adv-x="533" 
d="M458 0h-84v372c0 32 -16 45 -47 45c-36 0 -111 -23 -163 -50v-367h-84v686l84 12v-252c54 26 131 51 188 51c78 0 106 -49 106 -124v-373z" />
    <glyph glyph-name="i" unicode="i" horiz-adv-x="244" 
d="M164 0h-84v487h84v-487zM164 565h-84v121h84v-121z" />
    <glyph glyph-name="j" unicode="j" horiz-adv-x="239" 
d="M80 487h84v-518c0 -69 -7 -78 -113 -171l-51 59c80 71 80 76 80 117v513zM164 565h-84v121h84v-121z" />
    <glyph glyph-name="k" unicode="k" horiz-adv-x="484" 
d="M164 0h-84v686l84 12v-698zM357 487h97l-174 -241l182 -246h-99l-178 246z" />
    <glyph glyph-name="l" unicode="l" horiz-adv-x="244" 
d="M164 0h-84v686l84 12v-698z" />
    <glyph glyph-name="m" unicode="m" horiz-adv-x="827" 
d="M752 0h-84v372c0 32 -16 45 -47 45c-40 0 -111 -22 -163 -49v-368h-84v372c0 32 -16 45 -47 45c-36 0 -111 -22 -163 -49v-368h-84v487h68l8 -42c54 26 138 52 196 52c50 0 79 -19 93 -52c58 28 140 52 201 52c78 0 106 -49 106 -124v-373z" />
    <glyph glyph-name="n" unicode="n" horiz-adv-x="533" 
d="M458 0h-84v372c0 32 -16 45 -47 45c-36 0 -111 -22 -163 -49v-368h-84v487h68l8 -42c54 26 138 52 196 52c78 0 106 -49 106 -124v-373z" />
    <glyph glyph-name="o" unicode="o" horiz-adv-x="506" 
d="M451 173c0 -102 -56 -183 -198 -183s-198 81 -198 183v141c0 102 56 183 198 183s198 -81 198 -183v-141zM367 317c0 71 -38 107 -114 107s-114 -36 -114 -107v-147c0 -71 38 -107 114 -107s114 36 114 107v147z" />
    <glyph glyph-name="p" unicode="p" horiz-adv-x="523" 
d="M461 348v-199c0 -97 -44 -159 -158 -159c-43 0 -100 7 -139 15v-202l-84 -12v696h71l7 -44c40 32 97 54 161 54c96 0 142 -51 142 -149zM164 365v-286c45 -9 100 -15 134 -15c56 0 79 26 79 85v199c0 50 -16 75 -75 75c-48 0 -102 -26 -138 -58z" />
    <glyph glyph-name="q" unicode="q" horiz-adv-x="519" 
d="M58 142v173c0 111 40 182 207 182c45 0 118 -6 174 -19v-675l-84 -12v233c-34 -18 -92 -34 -154 -34c-101 0 -143 59 -143 152zM355 101v315c-33 5 -66 7 -96 7c-99 0 -117 -40 -117 -105v-179c0 -50 22 -75 79 -75c43 0 101 21 134 37z" />
    <glyph glyph-name="r" unicode="r" horiz-adv-x="308" 
d="M292 497l11 -77c-46 -22 -99 -56 -139 -84v-336h-84v487h73l5 -68c36 28 86 58 134 78z" />
    <glyph glyph-name="s" unicode="s" horiz-adv-x="439" 
d="M383 131c0 -95 -29 -141 -168 -141c-50 0 -116 11 -155 26l11 66c42 -12 97 -20 139 -20c77 0 90 14 90 66s-4 58 -102 82c-121 30 -132 55 -132 156c0 90 40 131 168 131c47 0 98 -6 138 -17l-6 -69c-41 8 -95 14 -135 14c-72 0 -82 -17 -82 -61c0 -54 1 -64 83 -84
c140 -35 151 -52 151 -149z" />
    <glyph glyph-name="t" unicode="t" horiz-adv-x="369" 
d="M323 73l11 -65c-30 -11 -66 -18 -102 -18c-82 0 -121 30 -121 111v316h-86v70h86v120l84 12v-132h138l-7 -70h-131v-302c0 -36 5 -54 50 -54c23 0 47 4 78 12z" />
    <glyph glyph-name="u" unicode="u" horiz-adv-x="533" 
d="M75 487h84v-372c0 -32 16 -45 47 -45c36 0 111 22 163 49v368h84v-487h-68l-8 42c-54 -26 -138 -52 -196 -52c-78 0 -106 49 -106 124v373z" />
    <glyph glyph-name="v" unicode="v" horiz-adv-x="450" 
d="M225 69l134 418h83l-161 -487h-112l-161 487h83z" />
    <glyph glyph-name="w" unicode="w" horiz-adv-x="696" 
d="M574 0h-108l-118 413l-118 -413h-108l-104 487h80l81 -404l118 404h102l118 -404l81 404h80z" />
    <glyph glyph-name="x" unicode="x" horiz-adv-x="448" 
d="M107 0h-89l160 245l-157 242h87l116 -179l116 179h87l-158 -242l161 -245h-88l-118 181z" />
    <glyph glyph-name="y" unicode="y" horiz-adv-x="448" 
d="M133 -197l68 197h-35l-158 487h83l133 -420l135 420h83l-161 -487l-69 -197h-79z" />
    <glyph glyph-name="z" unicode="z" horiz-adv-x="459" 
d="M65 419v68h336l-1 -68l-248 -351h252v-68h-344v68l248 351h-243z" />
    <glyph glyph-name="braceleft" unicode="{" horiz-adv-x="313" 
d="M78 290h-23v68h23c33 0 42 15 42 42v258c0 93 27 132 118 132h65v-71h-60c-28 0 -39 -11 -39 -40v-241c0 -30 5 -110 -67 -114c72 -4 67 -84 67 -114v-241c0 -29 11 -40 39 -40h60v-71h-65c-91 0 -118 39 -118 132v258c0 27 -9 42 -42 42z" />
    <glyph glyph-name="bar" unicode="|" horiz-adv-x="257" 
d="M157 790v-1000h-57v1000h57z" />
    <glyph glyph-name="braceright" unicode="}" horiz-adv-x="313" 
d="M258 290h-23c-33 0 -42 -15 -42 -42v-258c0 -93 -27 -132 -118 -132h-65v71h60c28 0 39 11 39 40v241c0 30 -5 110 67 114c-72 4 -67 84 -67 114v241c0 29 -11 40 -39 40h-60v71h65c91 0 118 -39 118 -132v-258c0 -27 9 -42 42 -42h23v-68z" />
    <glyph glyph-name="asciitilde" unicode="~" horiz-adv-x="500" 
d="M402 345l53 -24c-20 -60 -55 -118 -127 -118s-108 73 -156 73c-40 0 -55 -31 -74 -76l-53 26c27 70 61 117 128 117s106 -74 156 -74c44 0 58 38 73 76z" />
    <glyph glyph-name="uni00A0" unicode="&#xa0;" horiz-adv-x="215" 
 />
    <glyph glyph-name="exclamdown" unicode="&#xa1;" horiz-adv-x="266" 
d="M107 297h52l16 -170v-324h-84v324zM90 372v115h86v-115h-86z" />
    <glyph glyph-name="cent" unicode="&#xa2;" horiz-adv-x="424" 
d="M201 -10v91c-116 13 -146 75 -146 175v153c0 99 33 161 146 174v93h67v-90c34 -2 70 -7 95 -13l-5 -70c-39 7 -73 9 -107 9c-84 0 -112 -24 -112 -100v-159c0 -76 28 -100 112 -100c29 0 64 2 107 9l6 -70c-31 -8 -61 -12 -96 -13v-89h-67z" />
    <glyph glyph-name="sterling" unicode="&#xa3;" horiz-adv-x="533" 
d="M70 299v66h87c-28 46 -40 100 -40 139c0 105 53 152 191 152c51 0 114 -9 159 -21l-10 -69c-39 10 -107 18 -149 18c-81 0 -107 -19 -107 -85c0 -46 16 -88 43 -134h192l-3 -66h-171c5 -12 8 -31 8 -46c0 -60 -25 -118 -85 -180h283v-73h-385v73c63 50 103 112 103 180
c0 16 -3 33 -9 46h-107z" />
    <glyph glyph-name="currency" unicode="&#xa4;" horiz-adv-x="556" 
d="M486 539l-64 -64c12 -20 17 -44 17 -69v-141c0 -27 -5 -51 -17 -70l64 -64l-52 -52l-69 69c-23 -10 -52 -15 -87 -15c-36 0 -65 5 -87 14l-69 -68l-52 52l64 64c-12 19 -17 43 -17 70v141c0 26 5 49 17 69l-64 64l52 52l69 -69c22 10 51 15 87 15c35 0 64 -6 87 -15
l69 69zM192 392v-114c0 -54 17 -77 86 -77c67 0 86 23 86 77v114c0 54 -19 77 -86 77c-69 0 -86 -23 -86 -77z" />
    <glyph glyph-name="yen" unicode="&#xa5;" horiz-adv-x="550" 
d="M58 142v59h174l-45 93h-129v59h101l-139 293h90l165 -352l165 352h90l-140 -293h103v-59h-131l-44 -93h175v-59h-175v-142h-86v142h-174z" />
    <glyph glyph-name="brokenbar" unicode="&#xa6;" horiz-adv-x="257" 
d="M157 790v-417h-57v417h57zM157 -210h-57v417h57v-417z" />
    <glyph glyph-name="section" unicode="&#xa7;" horiz-adv-x="551" 
d="M266 22l-70 -22c-70 200 -126 413 -126 563c0 79 39 113 142 113c47 0 108 -11 148 -25l-11 -60c-48 11 -101 20 -139 20c-52 0 -63 -14 -63 -57c0 -140 56 -341 119 -532zM290 468l70 22c70 -200 126 -413 126 -563c0 -79 -39 -113 -142 -113c-47 0 -108 11 -148 25
l11 60c48 -11 101 -20 139 -20c52 0 63 14 63 57c0 140 -56 341 -119 532z" />
    <glyph glyph-name="dieresis" unicode="&#xa8;" horiz-adv-x="391" 
d="M70 561v83h78v-83h-78zM243 561v83h78v-83h-78z" />
    <glyph glyph-name="copyright" unicode="&#xa9;" horiz-adv-x="805" 
d="M60 333c0 190 136 343 342 343c208 0 343 -153 343 -343c0 -189 -135 -343 -343 -343c-206 0 -342 154 -342 343zM122 333c0 -158 108 -284 280 -284c173 0 281 126 281 284s-108 284 -281 284c-172 0 -280 -126 -280 -284zM413 159c-95 0 -130 34 -130 108v138
c0 74 35 108 130 108c31 0 68 -5 96 -13l-6 -53c-27 6 -60 10 -88 10c-61 0 -70 -13 -70 -58v-126c0 -45 9 -58 70 -58c28 0 61 4 88 10l6 -53c-28 -8 -65 -13 -96 -13z" />
    <glyph glyph-name="ordfeminine" unicode="&#xaa;" horiz-adv-x="379" 
d="M299 598v-209h-44l-3 22c-26 -18 -61 -28 -97 -28c-57 0 -80 33 -80 86c0 63 31 85 92 85h80v47c0 38 -16 51 -65 51c-29 0 -67 -6 -90 -11l-6 42c25 7 67 13 99 13c86 0 114 -33 114 -98zM247 452v59h-76c-32 0 -44 -10 -44 -40c0 -31 5 -44 42 -44c26 0 55 10 78 25z
" />
    <glyph glyph-name="guillemotleft" unicode="&#xab;" horiz-adv-x="484" 
d="M167 51l-127 193l127 193l58 -38l-102 -155l102 -155zM361 51l-127 193l127 193l58 -38l-102 -155l102 -155z" />
    <glyph glyph-name="logicalnot" unicode="&#xac;" horiz-adv-x="551" 
d="M60 229v70h406v-239h-74v169h-332z" />
    <glyph glyph-name="registered" unicode="&#xae;" horiz-adv-x="471" 
d="M55 515c0 100 70 181 181 181s180 -81 180 -181s-69 -181 -180 -181s-181 81 -181 181zM97 515c0 -77 47 -141 139 -141c91 0 138 64 138 141s-47 141 -138 141c-92 0 -139 -64 -139 -141zM283 436l-41 55h-34v-55h-28v166h65c37 0 52 -16 52 -44v-23
c0 -16 -5 -29 -24 -39l44 -60h-34zM268 556c0 16 -7 20 -24 20h-36v-59h36c18 0 24 7 24 19v20z" />
    <glyph glyph-name="macron" unicode="&#xaf;" horiz-adv-x="371" 
d="M65 556v59h241v-59h-241z" />
    <glyph glyph-name="degree" unicode="&#xb0;" horiz-adv-x="348" 
d="M288 542c0 -63 -40 -114 -114 -114s-114 51 -114 114s40 114 114 114s114 -51 114 -114zM237 542c0 38 -20 69 -63 69s-63 -31 -63 -69s20 -69 63 -69s63 31 63 69z" />
    <glyph glyph-name="plusminus" unicode="&#xb1;" horiz-adv-x="546" 
d="M476 66v-66h-406v66h406zM70 300v70h166v169h74v-169h166v-70h-166v-169h-74v169h-166z" />
    <glyph glyph-name="twosuperior" unicode="&#xb2;" horiz-adv-x="388" 
d="M70 406v52c33 39 43 50 99 118c69 84 71 92 71 119v15c0 37 -12 48 -64 48c-33 0 -69 -7 -93 -13l-10 57c27 9 72 17 108 17c90 0 126 -33 126 -103v-19c0 -46 -8 -61 -63 -131c-51 -64 -57 -71 -82 -101h146v-59h-238z" />
    <glyph glyph-name="threesuperior" unicode="&#xb3;" horiz-adv-x="386" 
d="M75 411l7 53c35 -6 67 -9 101 -9c53 0 63 15 63 48v33c0 30 -18 45 -56 45h-92v57h93c38 0 47 18 47 41v40c0 33 -16 43 -61 43c-31 0 -64 -2 -91 -7l-5 53c24 6 65 11 99 11c90 0 123 -28 123 -95v-42c0 -29 -8 -54 -43 -71c32 -10 51 -31 51 -74v-35
c0 -70 -28 -104 -131 -104c-35 0 -75 5 -105 13z" />
    <glyph glyph-name="acute" unicode="&#xb4;" horiz-adv-x="313" 
d="M104 546l-34 52c50 29 102 62 137 91l36 -56c-46 -34 -88 -60 -139 -87z" />
    <glyph glyph-name="mu" unicode="&#xb5;" horiz-adv-x="533" 
d="M75 -197v684h84v-377c1 -28 17 -40 47 -40c36 0 111 22 163 49v368h84v-487h-68l-8 42c-54 -26 -138 -52 -196 -52c-8 0 -15 1 -22 2v-189h-84z" />
    <glyph glyph-name="paragraph" unicode="&#xb6;" horiz-adv-x="514" 
d="M347 666h72v-705c0 -48 -4 -51 -127 -168l-44 50c96 91 99 96 99 121v702zM65 457c0 119 90 209 208 209v-417c-118 0 -208 90 -208 208z" />
    <glyph glyph-name="periodcentered" unicode="&#xb7;" horiz-adv-x="256" 
d="M85 265v115h86v-115h-86z" />
    <glyph glyph-name="cedilla" unicode="&#xb8;" horiz-adv-x="310" 
d="M245 -119c0 -45 -32 -78 -100 -78c-26 0 -57 6 -80 15l10 41c17 -5 43 -10 62 -10c38 0 54 12 54 31c0 21 -13 29 -42 29c-12 0 -20 -2 -30 -5l-29 13l21 96h48l-14 -69c9 2 19 3 27 3c44 0 73 -21 73 -66z" />
    <glyph glyph-name="onesuperior" unicode="&#xb9;" horiz-adv-x="333" 
d="M80 692l-25 51l119 68h54v-405h-67v327z" />
    <glyph glyph-name="ordmasculine" unicode="&#xba;" horiz-adv-x="394" 
d="M319 496c0 -63 -35 -113 -122 -113c-88 0 -122 50 -122 113v87c0 63 34 113 122 113c87 0 122 -50 122 -113v-87zM267 585c0 44 -23 66 -70 66s-71 -22 -71 -66v-91c0 -44 24 -66 71 -66s70 22 70 66v91z" />
    <glyph glyph-name="guillemotright" unicode="&#xbb;" horiz-adv-x="484" 
d="M444 244l-127 -193l-58 38l102 155l-102 155l58 38zM250 244l-127 -193l-58 38l102 155l-102 155l58 38z" />
    <glyph glyph-name="onequarter" unicode="&#xbc;" horiz-adv-x="835" 
d="M765 87h-59v-87h-64v87h-186v55l158 263h92v-263h59v-55zM526 142h116v203zM556 656l-277 -689l-56 23l278 689zM85 527l-25 51l119 68h54v-405h-67v327z" />
    <glyph glyph-name="onehalf" unicode="&#xbd;" horiz-adv-x="851" 
d="M555 656l-277 -689l-56 23l278 689zM85 527l-25 51l119 68h54v-405h-67v327zM533 0v52c33 39 43 50 99 118c69 84 71 92 71 119v15c0 37 -12 48 -64 48c-33 0 -69 -7 -93 -13l-10 57c27 9 72 17 108 17c90 0 126 -33 126 -103v-19c0 -46 -8 -61 -63 -131
c-51 -64 -57 -71 -82 -101h146v-59h-238z" />
    <glyph glyph-name="threequarters" unicode="&#xbe;" horiz-adv-x="870" 
d="M75 248l7 53c35 -6 67 -9 101 -9c53 0 63 15 63 48v33c0 30 -18 45 -56 45h-92v57h93c38 0 47 18 47 41v40c0 33 -16 43 -61 43c-31 0 -64 -2 -91 -7l-5 53c24 6 65 11 99 11c90 0 123 -28 123 -95v-42c0 -29 -8 -54 -43 -71c32 -10 51 -31 51 -74v-35
c0 -70 -28 -104 -131 -104c-35 0 -75 5 -105 13zM800 87h-59v-87h-64v87h-186v55l158 263h92v-263h59v-55zM561 142h116v203zM593 656l-277 -689l-56 23l278 689z" />
    <glyph glyph-name="questiondown" unicode="&#xbf;" horiz-adv-x="476" 
d="M276 265l48 -64c-39 -30 -70 -51 -111 -84c-62 -50 -64 -63 -64 -140c0 -84 12 -109 116 -109c39 0 102 5 145 15l11 -72c-38 -10 -111 -18 -162 -18c-162 0 -194 58 -194 180c0 108 6 134 90 200c42 33 78 59 121 92zM325 487v-115h-86v115h86z" />
    <glyph glyph-name="Agrave" unicode="&#xc0;" horiz-adv-x="622" 
d="M369 666l225 -666h-87l-55 160h-283l-54 -160h-87l225 666h116zM430 235l-119 369l-119 -369h238zM356 766l-34 -55c-46 23 -88 48 -129 79l38 58c41 -31 80 -56 125 -82z" />
    <glyph glyph-name="Aacute" unicode="&#xc1;" horiz-adv-x="622" 
d="M369 666l225 -666h-87l-55 160h-283l-54 -160h-87l225 666h116zM430 235l-119 369l-119 -369h238zM308 711l-34 55c45 26 84 51 125 82l38 -58c-41 -31 -83 -56 -129 -79z" />
    <glyph glyph-name="Acircumflex" unicode="&#xc2;" horiz-adv-x="622" 
d="M369 666l225 -666h-87l-55 160h-283l-54 -160h-87l225 666h116zM430 235l-119 369l-119 -369h238zM436 758l-26 -47c-38 18 -66 35 -99 56c-33 -21 -61 -38 -99 -56l-26 47c43 26 79 49 125 85c46 -36 82 -59 125 -85z" />
    <glyph glyph-name="Atilde" unicode="&#xc3;" horiz-adv-x="622" 
d="M369 666l225 -666h-87l-55 160h-283l-54 -160h-87l225 666h116zM430 235l-119 369l-119 -369h238zM314 740c-20 11 -34 19 -53 19c-22 0 -37 -16 -52 -33l-36 34c20 32 53 60 89 60c20 0 35 -6 57 -17c26 -13 40 -20 55 -20c19 0 32 9 45 30l41 -28
c-17 -37 -45 -63 -86 -63c-20 0 -35 5 -60 18z" />
    <glyph glyph-name="Adieresis" unicode="&#xc4;" horiz-adv-x="622" 
d="M369 666l225 -666h-87l-55 160h-283l-54 -160h-87l225 666h116zM430 235l-119 369l-119 -369h238zM183 724v78h80v-78h-80zM360 724v78h80v-78h-80z" />
    <glyph glyph-name="Aring" unicode="&#xc5;" horiz-adv-x="622" 
d="M369 666l225 -666h-87l-55 160h-283l-54 -160h-87l225 666h116zM430 235l-119 369l-119 -369h238zM381 765c0 -37 -24 -68 -70 -68s-69 31 -69 68c0 38 23 69 69 69s70 -31 70 -69zM341 765c0 20 -10 33 -30 33c-19 0 -30 -13 -30 -33c0 -19 11 -32 30 -32
c20 0 30 13 30 32z" />
    <glyph glyph-name="AE" unicode="&#xc6;" horiz-adv-x="839" 
d="M507 0l-55 160h-283l-54 -160h-87l225 666h520v-77h-378l70 -209h286v-77h-260l77 -226h206v-77h-267zM430 235l-119 369l-119 -369h238z" />
    <glyph glyph-name="Ccedilla" unicode="&#xc7;" horiz-adv-x="516" 
d="M396 -126c0 -45 -32 -78 -100 -78c-26 0 -57 6 -80 15l10 41c17 -5 43 -10 62 -10c38 0 54 12 54 31c0 21 -13 29 -42 29c-12 0 -20 -2 -30 -5l-29 13l18 82c-135 10 -189 78 -189 194v294c0 126 65 196 228 196c50 0 120 -7 168 -18l-9 -74c-51 9 -116 14 -156 14
c-109 0 -145 -30 -145 -123v-284c0 -93 36 -123 145 -123c40 0 105 5 156 14l9 -74c-45 -10 -110 -17 -159 -18l-11 -53c9 2 19 3 27 3c44 0 73 -21 73 -66z" />
    <glyph glyph-name="Egrave" unicode="&#xc8;" horiz-adv-x="540" 
d="M85 0v666h392v-77h-306v-209h284v-77h-284v-226h307v-77h-393zM337 766l-34 -55c-46 23 -88 48 -129 79l38 58c41 -31 80 -56 125 -82z" />
    <glyph glyph-name="Eacute" unicode="&#xc9;" horiz-adv-x="540" 
d="M85 0v666h392v-77h-306v-209h284v-77h-284v-226h307v-77h-393zM263 711l-34 55c45 26 84 51 125 82l38 -58c-41 -31 -83 -56 -129 -79z" />
    <glyph glyph-name="Ecircumflex" unicode="&#xca;" horiz-adv-x="540" 
d="M85 0v666h392v-77h-306v-209h284v-77h-284v-226h307v-77h-393zM415 758l-26 -47c-38 18 -66 35 -99 56c-33 -21 -61 -38 -99 -56l-26 47c43 26 79 49 125 85c46 -36 82 -59 125 -85z" />
    <glyph glyph-name="Edieresis" unicode="&#xcb;" horiz-adv-x="540" 
d="M85 0v666h392v-77h-306v-209h284v-77h-284v-226h307v-77h-393zM152 724v78h80v-78h-80zM329 724v78h80v-78h-80z" />
    <glyph glyph-name="Igrave" unicode="&#xcc;" horiz-adv-x="266" 
d="M176 666v-666h-86v666h86zM174 766l-34 -55c-46 23 -88 48 -129 79l38 58c41 -31 80 -56 125 -82z" />
    <glyph glyph-name="Iacute" unicode="&#xcd;" horiz-adv-x="266" 
d="M176 666v-666h-86v666h86zM130 711l-34 55c45 26 84 51 125 82l38 -58c-41 -31 -83 -56 -129 -79z" />
    <glyph glyph-name="Icircumflex" unicode="&#xce;" horiz-adv-x="266" 
d="M176 666v-666h-86v666h86zM258 758l-26 -47c-38 18 -66 35 -99 56c-33 -21 -61 -38 -99 -56l-26 47c43 26 79 49 125 85c46 -36 82 -59 125 -85z" />
    <glyph glyph-name="Idieresis" unicode="&#xcf;" horiz-adv-x="266" 
d="M176 666v-666h-86v666h86zM5 724v78h80v-78h-80zM182 724v78h80v-78h-80z" />
    <glyph glyph-name="Eth" unicode="&#xd0;" horiz-adv-x="631" 
d="M40 303v70h79v293h233c163 0 214 -85 214 -191v-284c0 -106 -51 -191 -214 -191h-233v303h-79zM205 589v-216h132v-70h-132v-226h144c101 0 131 42 131 120v272c0 78 -30 120 -131 120h-144z" />
    <glyph glyph-name="Ntilde" unicode="&#xd1;" horiz-adv-x="660" 
d="M457 0l-290 567v-567h-82v666h118l290 -570v570h82v-666h-118zM336 740c-20 11 -34 19 -53 19c-22 0 -37 -16 -52 -33l-36 34c20 32 53 60 89 60c20 0 35 -6 57 -17c26 -13 40 -20 55 -20c19 0 32 9 45 30l41 -28c-17 -37 -45 -63 -86 -63c-20 0 -35 5 -60 18z" />
    <glyph glyph-name="Ograve" unicode="&#xd2;" horiz-adv-x="622" 
d="M552 474v-282c0 -111 -69 -202 -241 -202s-241 91 -241 202v282c0 111 69 202 241 202s241 -91 241 -202zM156 472v-278c0 -82 50 -128 155 -128s155 46 155 128v278c0 82 -50 128 -155 128s-155 -46 -155 -128zM358 766l-34 -55c-46 23 -88 48 -129 79l38 58
c41 -31 80 -56 125 -82z" />
    <glyph glyph-name="Oacute" unicode="&#xd3;" horiz-adv-x="622" 
d="M552 474v-282c0 -111 -69 -202 -241 -202s-241 91 -241 202v282c0 111 69 202 241 202s241 -91 241 -202zM156 472v-278c0 -82 50 -128 155 -128s155 46 155 128v278c0 82 -50 128 -155 128s-155 -46 -155 -128zM299 711l-34 55c45 26 84 51 125 82l38 -58
c-41 -31 -83 -56 -129 -79z" />
    <glyph glyph-name="Ocircumflex" unicode="&#xd4;" horiz-adv-x="622" 
d="M552 474v-282c0 -111 -69 -202 -241 -202s-241 91 -241 202v282c0 111 69 202 241 202s241 -91 241 -202zM156 472v-278c0 -82 50 -128 155 -128s155 46 155 128v278c0 82 -50 128 -155 128s-155 -46 -155 -128zM436 758l-26 -47c-38 18 -66 35 -99 56
c-33 -21 -61 -38 -99 -56l-26 47c43 26 79 49 125 85c46 -36 82 -59 125 -85z" />
    <glyph glyph-name="Otilde" unicode="&#xd5;" horiz-adv-x="622" 
d="M552 474v-282c0 -111 -69 -202 -241 -202s-241 91 -241 202v282c0 111 69 202 241 202s241 -91 241 -202zM156 472v-278c0 -82 50 -128 155 -128s155 46 155 128v278c0 82 -50 128 -155 128s-155 -46 -155 -128zM309 740c-20 11 -34 19 -53 19c-22 0 -37 -16 -52 -33
l-36 34c20 32 53 60 89 60c20 0 35 -6 57 -17c26 -13 40 -20 55 -20c19 0 32 9 45 30l41 -28c-17 -37 -45 -63 -86 -63c-20 0 -35 5 -60 18z" />
    <glyph glyph-name="Odieresis" unicode="&#xd6;" horiz-adv-x="622" 
d="M552 474v-282c0 -111 -69 -202 -241 -202s-241 91 -241 202v282c0 111 69 202 241 202s241 -91 241 -202zM156 472v-278c0 -82 50 -128 155 -128s155 46 155 128v278c0 82 -50 128 -155 128s-155 -46 -155 -128zM183 724v78h80v-78h-80zM360 724v78h80v-78h-80z" />
    <glyph glyph-name="multiply" unicode="&#xd7;" horiz-adv-x="523" 
d="M403 433l50 -49l-141 -142l141 -141l-50 -50l-142 141l-141 -141l-50 50l141 141l-141 142l50 49l141 -140z" />
    <glyph glyph-name="Oslash" unicode="&#xd8;" horiz-adv-x="622" 
d="M70 -34l51 88c-35 36 -51 85 -51 138v282c0 111 69 202 241 202c63 0 112 -12 149 -33l48 83l44 -26l-51 -89c35 -36 51 -84 51 -137v-282c0 -111 -69 -202 -241 -202c-63 0 -112 12 -149 33l-48 -83zM156 472v-278c0 -23 4 -42 11 -59l253 438c-26 17 -62 27 -109 27
c-105 0 -155 -46 -155 -128zM466 472c0 22 -4 42 -12 59l-252 -438c25 -18 61 -27 109 -27c105 0 155 46 155 128v278z" />
    <glyph glyph-name="Ugrave" unicode="&#xd9;" horiz-adv-x="632" 
d="M466 666h86v-479c0 -109 -63 -197 -236 -197s-236 88 -236 197v479h86v-474c0 -82 45 -125 150 -125s150 43 150 125v474zM373 766l-34 -55c-46 23 -88 48 -129 79l38 58c41 -31 80 -56 125 -82z" />
    <glyph glyph-name="Uacute" unicode="&#xda;" horiz-adv-x="632" 
d="M466 666h86v-479c0 -109 -63 -197 -236 -197s-236 88 -236 197v479h86v-474c0 -82 45 -125 150 -125s150 43 150 125v474zM299 711l-34 55c45 26 84 51 125 82l38 -58c-41 -31 -83 -56 -129 -79z" />
    <glyph glyph-name="Ucircumflex" unicode="&#xdb;" horiz-adv-x="632" 
d="M466 666h86v-479c0 -109 -63 -197 -236 -197s-236 88 -236 197v479h86v-474c0 -82 45 -125 150 -125s150 43 150 125v474zM441 758l-26 -47c-38 18 -66 35 -99 56c-33 -21 -61 -38 -99 -56l-26 47c43 26 79 49 125 85c46 -36 82 -59 125 -85z" />
    <glyph glyph-name="Udieresis" unicode="&#xdc;" horiz-adv-x="632" 
d="M466 666h86v-479c0 -109 -63 -197 -236 -197s-236 88 -236 197v479h86v-474c0 -82 45 -125 150 -125s150 43 150 125v474zM188 724v78h80v-78h-80zM365 724v78h80v-78h-80z" />
    <glyph glyph-name="Yacute" unicode="&#xdd;" horiz-adv-x="548" 
d="M274 294l174 372h90l-221 -465v-201h-86v201l-221 465h90zM269 711l-34 55c45 26 84 51 125 82l38 -58c-41 -31 -83 -56 -129 -79z" />
    <glyph glyph-name="Thorn" unicode="&#xde;" horiz-adv-x="554" 
d="M85 0v666h86v-115h155c143 0 193 -62 193 -164v-99c0 -103 -50 -165 -193 -165h-155v-123h-86zM433 386c0 66 -28 88 -110 88h-152v-274h152c82 0 110 23 110 88v98z" />
    <glyph glyph-name="germandbls" unicode="&#xdf;" horiz-adv-x="594" 
d="M303 332c0 34 10 60 32 98c38 66 42 86 42 122c0 50 -30 83 -101 83c-70 0 -107 -28 -107 -112v-523h-84v523c0 115 68 183 191 183c128 0 185 -69 185 -154c0 -37 -10 -77 -40 -130c-27 -48 -34 -65 -34 -89c0 -16 2 -32 68 -79c81 -59 89 -71 89 -137
c0 -81 -25 -127 -147 -127c-29 0 -77 5 -113 17l10 65c29 -7 73 -11 96 -11c60 0 72 17 72 52c0 42 -3 47 -78 99c-72 49 -81 76 -81 120z" />
    <glyph glyph-name="agrave" unicode="&#xe0;" horiz-adv-x="493" 
d="M425 339v-339h-71l-5 36c-43 -30 -99 -46 -158 -46c-91 0 -129 54 -129 140c0 101 51 137 149 137h130v76c0 61 -27 82 -106 82c-47 0 -108 -8 -146 -16l-9 67c46 12 108 21 160 21c139 0 185 -54 185 -158zM341 102v95h-124c-52 0 -71 -16 -71 -65c0 -50 9 -70 69 -70
c42 0 89 16 126 40zM316 598l-34 -52c-51 27 -93 53 -139 87l36 56c35 -29 87 -62 137 -91z" />
    <glyph glyph-name="aacute" unicode="&#xe1;" horiz-adv-x="493" 
d="M425 339v-339h-71l-5 36c-43 -30 -99 -46 -158 -46c-91 0 -129 54 -129 140c0 101 51 137 149 137h130v76c0 61 -27 82 -106 82c-47 0 -108 -8 -146 -16l-9 67c46 12 108 21 160 21c139 0 185 -54 185 -158zM341 102v95h-124c-52 0 -71 -16 -71 -65c0 -50 9 -70 69 -70
c42 0 89 16 126 40zM215 546l-34 52c50 29 102 62 137 91l36 -56c-46 -34 -88 -60 -139 -87z" />
    <glyph glyph-name="acircumflex" unicode="&#xe2;" horiz-adv-x="493" 
d="M425 339v-339h-71l-5 36c-43 -30 -99 -46 -158 -46c-91 0 -129 54 -129 140c0 101 51 137 149 137h130v76c0 61 -27 82 -106 82c-47 0 -108 -8 -146 -16l-9 67c46 12 108 21 160 21c139 0 185 -54 185 -158zM341 102v95h-124c-52 0 -71 -16 -71 -65c0 -50 9 -70 69 -70
c42 0 89 16 126 40zM381 586l-30 -47c-46 25 -70 40 -103 67c-33 -27 -57 -42 -103 -67l-30 47c47 28 84 54 133 94c49 -40 86 -66 133 -94z" />
    <glyph glyph-name="atilde" unicode="&#xe3;" horiz-adv-x="493" 
d="M425 339v-339h-71l-5 36c-43 -30 -99 -46 -158 -46c-91 0 -129 54 -129 140c0 101 51 137 149 137h130v76c0 61 -27 82 -106 82c-47 0 -108 -8 -146 -16l-9 67c46 12 108 21 160 21c139 0 185 -54 185 -158zM341 102v95h-124c-52 0 -71 -16 -71 -65c0 -50 9 -70 69 -70
c42 0 89 16 126 40zM255 568c-20 11 -34 19 -53 19c-22 0 -37 -16 -52 -33l-36 34c20 32 53 60 89 60c20 0 35 -6 57 -17c26 -13 40 -20 55 -20c19 0 32 9 45 30l41 -28c-17 -37 -45 -63 -86 -63c-20 0 -35 5 -60 18z" />
    <glyph glyph-name="adieresis" unicode="&#xe4;" horiz-adv-x="493" 
d="M425 339v-339h-71l-5 36c-43 -30 -99 -46 -158 -46c-91 0 -129 54 -129 140c0 101 51 137 149 137h130v76c0 61 -27 82 -106 82c-47 0 -108 -8 -146 -16l-9 67c46 12 108 21 160 21c139 0 185 -54 185 -158zM341 102v95h-124c-52 0 -71 -16 -71 -65c0 -50 9 -70 69 -70
c42 0 89 16 126 40zM130 561v83h78v-83h-78zM303 561v83h78v-83h-78z" />
    <glyph glyph-name="aring" unicode="&#xe5;" horiz-adv-x="493" 
d="M425 339v-339h-71l-5 36c-43 -30 -99 -46 -158 -46c-91 0 -129 54 -129 140c0 101 51 137 149 137h130v76c0 61 -27 82 -106 82c-47 0 -108 -8 -146 -16l-9 67c46 12 108 21 160 21c139 0 185 -54 185 -158zM341 102v95h-124c-52 0 -71 -16 -71 -65c0 -50 9 -70 69 -70
c42 0 89 16 126 40zM322 611c0 -40 -25 -73 -74 -73s-74 33 -74 73s25 73 74 73s74 -33 74 -73zM281 611c0 21 -12 36 -33 36s-33 -15 -33 -36s12 -36 33 -36s33 15 33 36z" />
    <glyph glyph-name="ae" unicode="&#xe6;" horiz-adv-x="767" 
d="M425 159c2 -69 25 -97 116 -97c48 0 101 9 154 23l11 -67c-46 -17 -111 -28 -172 -28c-79 0 -129 20 -158 57c-48 -35 -110 -57 -180 -57c-104 0 -134 54 -134 140c0 101 51 137 149 137h130v76c0 61 -27 82 -106 82c-47 0 -108 -8 -146 -16l-9 67c46 12 108 21 160 21
c74 0 114 -16 148 -49c34 32 77 49 144 49c144 0 183 -83 183 -184v-102h-290v-52zM425 321v-40h209v40c0 68 -23 106 -102 106s-107 -38 -107 -106zM215 62c47 0 87 12 134 38c-5 20 -8 43 -8 69v28h-124c-52 0 -71 -16 -71 -65c0 -50 9 -70 69 -70z" />
    <glyph glyph-name="ccedilla" unicode="&#xe7;" horiz-adv-x="409" 
d="M244 -10l-11 -53c9 2 19 3 27 3c44 0 73 -21 73 -66s-32 -78 -100 -78c-26 0 -57 6 -80 15l10 41c17 -5 43 -10 62 -10c38 0 54 12 54 31c0 21 -13 29 -42 29c-12 0 -20 -2 -30 -5l-29 13l18 83c-116 12 -146 74 -146 174v153c0 112 42 177 194 177c43 0 91 -7 116 -15
l-7 -70c-38 8 -73 11 -107 11c-84 0 -112 -24 -112 -100v-159c0 -76 28 -100 112 -100c34 0 69 3 107 11l8 -70c-25 -8 -74 -15 -117 -15z" />
    <glyph glyph-name="egrave" unicode="&#xe8;" horiz-adv-x="481" 
d="M139 170c0 -77 21 -108 116 -108c48 0 101 9 154 23l11 -67c-46 -17 -111 -28 -172 -28c-144 0 -193 69 -193 179v146c0 101 46 182 191 182c144 0 183 -83 183 -184v-102h-290v-41zM139 321v-40h209v40c0 68 -23 106 -102 106s-107 -38 -107 -106zM309 598l-34 -52
c-51 27 -93 53 -139 87l36 56c35 -29 87 -62 137 -91z" />
    <glyph glyph-name="eacute" unicode="&#xe9;" horiz-adv-x="481" 
d="M139 170c0 -77 21 -108 116 -108c48 0 101 9 154 23l11 -67c-46 -17 -111 -28 -172 -28c-144 0 -193 69 -193 179v146c0 101 46 182 191 182c144 0 183 -83 183 -184v-102h-290v-41zM139 321v-40h209v40c0 68 -23 106 -102 106s-107 -38 -107 -106zM217 546l-34 52
c50 29 102 62 137 91l36 -56c-46 -34 -88 -60 -139 -87z" />
    <glyph glyph-name="ecircumflex" unicode="&#xea;" horiz-adv-x="481" 
d="M139 170c0 -77 21 -108 116 -108c48 0 101 9 154 23l11 -67c-46 -17 -111 -28 -172 -28c-144 0 -193 69 -193 179v146c0 101 46 182 191 182c144 0 183 -83 183 -184v-102h-290v-41zM139 321v-40h209v40c0 68 -23 106 -102 106s-107 -38 -107 -106zM386 586l-30 -47
c-46 25 -70 40 -103 67c-33 -27 -57 -42 -103 -67l-30 47c47 28 84 54 133 94c49 -40 86 -66 133 -94z" />
    <glyph glyph-name="edieresis" unicode="&#xeb;" horiz-adv-x="481" 
d="M139 170c0 -77 21 -108 116 -108c48 0 101 9 154 23l11 -67c-46 -17 -111 -28 -172 -28c-144 0 -193 69 -193 179v146c0 101 46 182 191 182c144 0 183 -83 183 -184v-102h-290v-41zM139 321v-40h209v40c0 68 -23 106 -102 106s-107 -38 -107 -106zM126 561v83h78v-83
h-78zM299 561v83h78v-83h-78z" />
    <glyph glyph-name="igrave" unicode="&#xec;" horiz-adv-x="244" 
d="M164 0h-84v487h84v-487zM175 598l-34 -52c-51 27 -93 53 -139 87l36 56c35 -29 87 -62 137 -91z" />
    <glyph glyph-name="iacute" unicode="&#xed;" horiz-adv-x="244" 
d="M164 0h-84v487h84v-487zM115 546l-34 52c50 29 102 62 137 91l36 -56c-46 -34 -88 -60 -139 -87z" />
    <glyph glyph-name="icircumflex" unicode="&#xee;" horiz-adv-x="244" 
d="M164 0h-84v487h84v-487zM255 586l-30 -47c-46 25 -70 40 -103 67c-33 -27 -57 -42 -103 -67l-30 47c47 28 84 54 133 94c49 -40 86 -66 133 -94z" />
    <glyph glyph-name="idieresis" unicode="&#xef;" horiz-adv-x="244" 
d="M164 0h-84v487h84v-487zM-3 561v83h78v-83h-78zM170 561v83h78v-83h-78z" />
    <glyph glyph-name="eth" unicode="&#xf0;" horiz-adv-x="518" 
d="M175 542l72 52c-30 16 -65 29 -103 42l21 65c51 -15 99 -35 144 -62l66 47l29 -38l-53 -38c61 -51 102 -123 102 -241v-205c0 -100 -52 -174 -194 -174c-148 0 -194 74 -194 174v112c0 123 39 186 177 186c41 0 91 -12 127 -33c-5 59 -33 103 -79 137l-86 -62zM259 63
c99 0 110 45 110 114v174c-37 26 -79 39 -120 39c-71 0 -100 -32 -100 -102v-111c0 -69 11 -114 110 -114z" />
    <glyph glyph-name="ntilde" unicode="&#xf1;" horiz-adv-x="533" 
d="M458 0h-84v372c0 32 -16 45 -47 45c-36 0 -111 -22 -163 -49v-368h-84v487h68l8 -42c54 26 138 52 196 52c78 0 106 -49 106 -124v-373zM269 568c-20 11 -34 19 -53 19c-22 0 -37 -16 -52 -33l-36 34c20 32 53 60 89 60c20 0 35 -6 57 -17c26 -13 40 -20 55 -20
c19 0 32 9 45 30l41 -28c-17 -37 -45 -63 -86 -63c-20 0 -35 5 -60 18z" />
    <glyph glyph-name="ograve" unicode="&#xf2;" horiz-adv-x="506" 
d="M451 173c0 -102 -56 -183 -198 -183s-198 81 -198 183v141c0 102 56 183 198 183s198 -81 198 -183v-141zM367 317c0 71 -38 107 -114 107s-114 -36 -114 -107v-147c0 -71 38 -107 114 -107s114 36 114 107v147zM300 598l-34 -52c-51 27 -93 53 -139 87l36 56
c35 -29 87 -62 137 -91z" />
    <glyph glyph-name="oacute" unicode="&#xf3;" horiz-adv-x="506" 
d="M451 173c0 -102 -56 -183 -198 -183s-198 81 -198 183v141c0 102 56 183 198 183s198 -81 198 -183v-141zM367 317c0 71 -38 107 -114 107s-114 -36 -114 -107v-147c0 -71 38 -107 114 -107s114 36 114 107v147zM224 546l-34 52c50 29 102 62 137 91l36 -56
c-46 -34 -88 -60 -139 -87z" />
    <glyph glyph-name="ocircumflex" unicode="&#xf4;" horiz-adv-x="506" 
d="M451 173c0 -102 -56 -183 -198 -183s-198 81 -198 183v141c0 102 56 183 198 183s198 -81 198 -183v-141zM367 317c0 71 -38 107 -114 107s-114 -36 -114 -107v-147c0 -71 38 -107 114 -107s114 36 114 107v147zM386 586l-30 -47c-46 25 -70 40 -103 67
c-33 -27 -57 -42 -103 -67l-30 47c47 28 84 54 133 94c49 -40 86 -66 133 -94z" />
    <glyph glyph-name="otilde" unicode="&#xf5;" horiz-adv-x="506" 
d="M451 173c0 -102 -56 -183 -198 -183s-198 81 -198 183v141c0 102 56 183 198 183s198 -81 198 -183v-141zM367 317c0 71 -38 107 -114 107s-114 -36 -114 -107v-147c0 -71 38 -107 114 -107s114 36 114 107v147zM256 568c-20 11 -34 19 -53 19c-22 0 -37 -16 -52 -33
l-36 34c20 32 53 60 89 60c20 0 35 -6 57 -17c26 -13 40 -20 55 -20c19 0 32 9 45 30l41 -28c-17 -37 -45 -63 -86 -63c-20 0 -35 5 -60 18z" />
    <glyph glyph-name="odieresis" unicode="&#xf6;" horiz-adv-x="506" 
d="M451 173c0 -102 -56 -183 -198 -183s-198 81 -198 183v141c0 102 56 183 198 183s198 -81 198 -183v-141zM367 317c0 71 -38 107 -114 107s-114 -36 -114 -107v-147c0 -71 38 -107 114 -107s114 36 114 107v147zM128 561v83h78v-83h-78zM301 561v83h78v-83h-78z" />
    <glyph glyph-name="divide" unicode="&#xf7;" horiz-adv-x="538" 
d="M473 277v-68h-408v68h408zM227 31v94h84v-94h-84zM227 361v94h84v-94h-84z" />
    <glyph glyph-name="oslash" unicode="&#xf8;" horiz-adv-x="506" 
d="M55 -27l45 71c-32 33 -45 78 -45 129v141c0 102 56 183 198 183c49 0 88 -10 118 -27l43 67l37 -23l-45 -71c31 -33 45 -79 45 -129v-141c0 -102 -56 -183 -198 -183c-50 0 -89 10 -119 27l-42 -67zM367 317c0 20 -3 36 -9 51l-182 -286c19 -13 44 -19 77 -19
c76 0 114 36 114 107v147zM139 170c0 -20 2 -37 8 -51l182 285c-18 13 -44 20 -76 20c-76 0 -114 -36 -114 -107v-147z" />
    <glyph glyph-name="ugrave" unicode="&#xf9;" horiz-adv-x="533" 
d="M75 487h84v-372c0 -32 16 -45 47 -45c36 0 111 22 163 49v368h84v-487h-68l-8 42c-54 -26 -138 -52 -196 -52c-78 0 -106 49 -106 124v373zM328 598l-34 -52c-51 27 -93 53 -139 87l36 56c35 -29 87 -62 137 -91z" />
    <glyph glyph-name="uacute" unicode="&#xfa;" horiz-adv-x="533" 
d="M75 487h84v-372c0 -32 16 -45 47 -45c36 0 111 22 163 49v368h84v-487h-68l-8 42c-54 -26 -138 -52 -196 -52c-78 0 -106 49 -106 124v373zM235 546l-34 52c50 29 102 62 137 91l36 -56c-46 -34 -88 -60 -139 -87z" />
    <glyph glyph-name="ucircumflex" unicode="&#xfb;" horiz-adv-x="533" 
d="M75 487h84v-372c0 -32 16 -45 47 -45c36 0 111 22 163 49v368h84v-487h-68l-8 42c-54 -26 -138 -52 -196 -52c-78 0 -106 49 -106 124v373zM399 586l-30 -47c-46 25 -70 40 -103 67c-33 -27 -57 -42 -103 -67l-30 47c47 28 84 54 133 94c49 -40 86 -66 133 -94z" />
    <glyph glyph-name="udieresis" unicode="&#xfc;" horiz-adv-x="533" 
d="M75 487h84v-372c0 -32 16 -45 47 -45c36 0 111 22 163 49v368h84v-487h-68l-8 42c-54 -26 -138 -52 -196 -52c-78 0 -106 49 -106 124v373zM143 561v83h78v-83h-78zM316 561v83h78v-83h-78z" />
    <glyph glyph-name="yacute" unicode="&#xfd;" horiz-adv-x="448" 
d="M133 -197l68 197h-35l-158 487h83l133 -420l135 420h83l-161 -487l-69 -197h-79zM196 546l-34 52c50 29 102 62 137 91l36 -56c-46 -34 -88 -60 -139 -87z" />
    <glyph glyph-name="thorn" unicode="&#xfe;" horiz-adv-x="523" 
d="M461 348v-199c0 -97 -44 -159 -158 -159c-43 0 -100 7 -139 15v-202l-84 -12v895l84 12v-251c39 30 94 50 155 50c96 0 142 -51 142 -149zM164 365v-286c45 -9 100 -15 134 -15c56 0 79 26 79 85v199c0 50 -16 75 -75 75c-48 0 -102 -26 -138 -58z" />
    <glyph glyph-name="ydieresis" unicode="&#xff;" horiz-adv-x="448" 
d="M133 -197l68 197h-35l-158 487h83l133 -420l135 420h83l-161 -487l-69 -197h-79zM103 561v83h78v-83h-78zM276 561v83h78v-83h-78z" />
    <glyph glyph-name="Amacron" unicode="&#x100;" horiz-adv-x="622" 
d="M369 666l225 -666h-87l-55 160h-283l-54 -160h-87l225 666h116zM430 235l-119 369l-119 -369h238zM191 735v59h241v-59h-241z" />
    <glyph glyph-name="amacron" unicode="&#x101;" horiz-adv-x="493" 
d="M425 339v-339h-71l-5 36c-43 -30 -99 -46 -158 -46c-91 0 -129 54 -129 140c0 101 51 137 149 137h130v76c0 61 -27 82 -106 82c-47 0 -108 -8 -146 -16l-9 67c46 12 108 21 160 21c139 0 185 -54 185 -158zM341 102v95h-124c-52 0 -71 -16 -71 -65c0 -50 9 -70 69 -70
c42 0 89 16 126 40zM137 556v59h241v-59h-241z" />
    <glyph glyph-name="Abreve" unicode="&#x102;" horiz-adv-x="622" 
d="M369 666l225 -666h-87l-55 160h-283l-54 -160h-87l225 666h116zM430 235l-119 369l-119 -369h238zM395 826l43 -30c-18 -40 -58 -75 -127 -75s-109 35 -127 75l43 30c19 -33 45 -50 84 -50s65 17 84 50z" />
    <glyph glyph-name="abreve" unicode="&#x103;" horiz-adv-x="493" 
d="M425 339v-339h-71l-5 36c-43 -30 -99 -46 -158 -46c-91 0 -129 54 -129 140c0 101 51 137 149 137h130v76c0 61 -27 82 -106 82c-47 0 -108 -8 -146 -16l-9 67c46 12 108 21 160 21c139 0 185 -54 185 -158zM341 102v95h-124c-52 0 -71 -16 -71 -65c0 -50 9 -70 69 -70
c42 0 89 16 126 40zM341 652l43 -30c-17 -40 -54 -85 -128 -85s-111 45 -128 85l43 30c16 -30 39 -59 85 -59s69 29 85 59z" />
    <glyph glyph-name="Aogonek" unicode="&#x104;" horiz-adv-x="622" 
d="M594 -194c-16 -9 -37 -13 -61 -13c-64 0 -106 30 -106 90c0 53 40 91 80 117l-55 160h-283l-54 -160h-87l225 666h116l225 -666c-59 -37 -97 -68 -97 -113c0 -24 14 -39 47 -39c16 0 26 2 37 6zM430 235l-119 369l-119 -369h238z" />
    <glyph glyph-name="aogonek" unicode="&#x105;" horiz-adv-x="493" 
d="M425 -194c-16 -9 -37 -13 -61 -13c-64 0 -106 30 -106 90c0 57 52 93 96 117l-5 36c-43 -30 -99 -46 -158 -46c-91 0 -129 54 -129 140c0 101 51 137 149 137h130v76c0 61 -27 82 -106 82c-47 0 -108 -8 -146 -16l-9 67c46 12 108 21 160 21c139 0 185 -54 185 -158v-339
c-59 -37 -99 -68 -99 -113c0 -24 16 -39 49 -39c16 0 26 2 37 6zM341 102v95h-124c-52 0 -71 -16 -71 -65c0 -50 9 -70 69 -70c42 0 89 16 126 40z" />
    <glyph glyph-name="Cacute" unicode="&#x106;" horiz-adv-x="516" 
d="M156 475v-284c0 -93 36 -123 145 -123c40 0 105 5 156 14l9 -74c-48 -11 -118 -18 -168 -18c-163 0 -228 70 -228 196v294c0 126 65 196 228 196c50 0 120 -7 168 -18l-9 -74c-51 9 -116 14 -156 14c-109 0 -145 -30 -145 -123zM261 711l-34 55c45 26 84 51 125 82
l38 -58c-41 -31 -83 -56 -129 -79z" />
    <glyph glyph-name="cacute" unicode="&#x107;" horiz-adv-x="409" 
d="M244 -10c-156 0 -194 65 -194 177v153c0 112 42 177 194 177c43 0 91 -7 116 -15l-7 -70c-38 8 -73 11 -107 11c-84 0 -112 -24 -112 -100v-159c0 -76 28 -100 112 -100c34 0 69 3 107 11l8 -70c-25 -8 -74 -15 -117 -15zM184 546l-34 52c50 29 102 62 137 91l36 -56
c-46 -34 -88 -60 -139 -87z" />
    <glyph glyph-name="Ccircumflex" unicode="&#x108;" horiz-adv-x="516" 
d="M156 475v-284c0 -93 36 -123 145 -123c40 0 105 5 156 14l9 -74c-48 -11 -118 -18 -168 -18c-163 0 -228 70 -228 196v294c0 126 65 196 228 196c50 0 120 -7 168 -18l-9 -74c-51 9 -116 14 -156 14c-109 0 -145 -30 -145 -123zM431 758l-26 -47c-38 18 -66 35 -99 56
c-33 -21 -61 -38 -99 -56l-26 47c43 26 79 49 125 85c46 -36 82 -59 125 -85z" />
    <glyph glyph-name="ccircumflex" unicode="&#x109;" horiz-adv-x="409" 
d="M244 -10c-156 0 -194 65 -194 177v153c0 112 42 177 194 177c43 0 91 -7 116 -15l-7 -70c-38 8 -73 11 -107 11c-84 0 -112 -24 -112 -100v-159c0 -76 28 -100 112 -100c34 0 69 3 107 11l8 -70c-25 -8 -74 -15 -117 -15zM367 586l-30 -47c-46 25 -70 40 -103 67
c-33 -27 -57 -42 -103 -67l-30 47c47 28 84 54 133 94c49 -40 86 -66 133 -94z" />
    <glyph glyph-name="Cdotaccent" unicode="&#x10a;" horiz-adv-x="516" 
d="M156 475v-284c0 -93 36 -123 145 -123c40 0 105 5 156 14l9 -74c-48 -11 -118 -18 -168 -18c-163 0 -228 70 -228 196v294c0 126 65 196 228 196c50 0 120 -7 168 -18l-9 -74c-51 9 -116 14 -156 14c-109 0 -145 -30 -145 -123zM343 725h-84v121h84v-121z" />
    <glyph glyph-name="cdotaccent" unicode="&#x10b;" horiz-adv-x="409" 
d="M244 -10c-156 0 -194 65 -194 177v153c0 112 42 177 194 177c43 0 91 -7 116 -15l-7 -70c-38 8 -73 11 -107 11c-84 0 -112 -24 -112 -100v-159c0 -76 28 -100 112 -100c34 0 69 3 107 11l8 -70c-25 -8 -74 -15 -117 -15zM265 565h-84v121h84v-121z" />
    <glyph glyph-name="Ccaron" unicode="&#x10c;" horiz-adv-x="516" 
d="M156 475v-284c0 -93 36 -123 145 -123c40 0 105 5 156 14l9 -74c-48 -11 -118 -18 -168 -18c-163 0 -228 70 -228 196v294c0 126 65 196 228 196c50 0 120 -7 168 -18l-9 -74c-51 9 -116 14 -156 14c-109 0 -145 -30 -145 -123zM400 842l26 -47c-43 -26 -79 -49 -125 -85
c-46 36 -82 59 -125 85l26 47c38 -18 66 -35 99 -56c33 21 61 38 99 56z" />
    <glyph glyph-name="ccaron" unicode="&#x10d;" horiz-adv-x="409" 
d="M244 -10c-156 0 -194 65 -194 177v153c0 112 42 177 194 177c43 0 91 -7 116 -15l-7 -70c-38 8 -73 11 -107 11c-84 0 -112 -24 -112 -100v-159c0 -76 28 -100 112 -100c34 0 69 3 107 11l8 -70c-25 -8 -74 -15 -117 -15zM334 674l30 -47c-47 -28 -84 -54 -133 -94
c-49 40 -86 66 -133 94l30 47c46 -25 70 -40 103 -67c33 27 57 42 103 67z" />
    <glyph glyph-name="Dcaron" unicode="&#x10e;" horiz-adv-x="597" 
d="M85 666h233c163 0 214 -85 214 -191v-284c0 -106 -51 -191 -214 -191h-233v666zM171 589v-512h144c101 0 131 42 131 120v272c0 78 -30 120 -131 120h-144zM397 842l26 -47c-43 -26 -79 -49 -125 -85c-46 36 -82 59 -125 85l26 47c38 -18 66 -35 99 -56
c33 21 61 38 99 56z" />
    <glyph glyph-name="dcaron" unicode="&#x10f;" horiz-adv-x="616" 
d="M62 139v199c0 97 44 159 158 159c43 0 100 -7 139 -15v204l84 12v-698h-71l-7 44c-40 -32 -97 -54 -161 -54c-96 0 -142 51 -142 149zM359 122v286c-45 9 -100 15 -134 15c-56 0 -79 -26 -79 -85v-199c0 -50 16 -75 75 -75c48 0 102 26 138 58zM539 573v113h84v-113
l-55 -108l-38 18l37 90h-28z" />
    <glyph glyph-name="Dcroat" unicode="&#x110;" horiz-adv-x="631" 
d="M40 303v70h79v293h233c163 0 214 -85 214 -191v-284c0 -106 -51 -191 -214 -191h-233v303h-79zM205 589v-216h132v-70h-132v-226h144c101 0 131 42 131 120v272c0 78 -30 120 -131 120h-144z" />
    <glyph glyph-name="dcroat" unicode="&#x111;" horiz-adv-x="528" 
d="M253 556v55h106v75l84 12v-87h73v-55h-73v-556h-71l-7 44c-40 -32 -97 -54 -161 -54c-96 0 -142 51 -142 149v199c0 97 44 159 158 159c43 0 100 -7 139 -15v74h-106zM359 122v286c-45 9 -100 15 -134 15c-56 0 -79 -26 -79 -85v-199c0 -50 16 -75 75 -75
c48 0 102 26 138 58z" />
    <glyph glyph-name="Emacron" unicode="&#x112;" horiz-adv-x="540" 
d="M85 0v666h392v-77h-306v-209h284v-77h-284v-226h307v-77h-393zM169 735v59h241v-59h-241z" />
    <glyph glyph-name="emacron" unicode="&#x113;" horiz-adv-x="481" 
d="M139 170c0 -77 21 -108 116 -108c48 0 101 9 154 23l11 -67c-46 -17 -111 -28 -172 -28c-144 0 -193 69 -193 179v146c0 101 46 182 191 182c144 0 183 -83 183 -184v-102h-290v-41zM139 321v-40h209v40c0 68 -23 106 -102 106s-107 -38 -107 -106zM129 556v59h241v-59
h-241z" />
    <glyph glyph-name="Ebreve" unicode="&#x114;" horiz-adv-x="540" 
d="M85 0v666h392v-77h-306v-209h284v-77h-284v-226h307v-77h-393zM382 826l43 -30c-18 -40 -58 -75 -127 -75s-109 35 -127 75l43 30c19 -33 45 -50 84 -50s65 17 84 50z" />
    <glyph glyph-name="ebreve" unicode="&#x115;" horiz-adv-x="481" 
d="M139 170c0 -77 21 -108 116 -108c48 0 101 9 154 23l11 -67c-46 -17 -111 -28 -172 -28c-144 0 -193 69 -193 179v146c0 101 46 182 191 182c144 0 183 -83 183 -184v-102h-290v-41zM139 321v-40h209v40c0 68 -23 106 -102 106s-107 -38 -107 -106zM339 652l43 -30
c-17 -40 -54 -85 -128 -85s-111 45 -128 85l43 30c16 -30 39 -59 85 -59s69 29 85 59z" />
    <glyph glyph-name="Edotaccent" unicode="&#x116;" horiz-adv-x="540" 
d="M85 0v666h392v-77h-306v-209h284v-77h-284v-226h307v-77h-393zM340 725h-84v121h84v-121z" />
    <glyph glyph-name="edotaccent" unicode="&#x117;" horiz-adv-x="481" 
d="M139 170c0 -77 21 -108 116 -108c48 0 101 9 154 23l11 -67c-46 -17 -111 -28 -172 -28c-144 0 -193 69 -193 179v146c0 101 46 182 191 182c144 0 183 -83 183 -184v-102h-290v-41zM139 321v-40h209v40c0 68 -23 106 -102 106s-107 -38 -107 -106zM289 565h-84v121h84
v-121z" />
    <glyph glyph-name="Eogonek" unicode="&#x118;" horiz-adv-x="540" 
d="M85 0v666h392v-77h-306v-209h284v-77h-284v-226h307v-77h-57c-57 -39 -97 -72 -97 -113c0 -24 14 -39 47 -39c16 0 26 2 37 6l13 -48c-16 -9 -37 -13 -61 -13c-64 0 -106 30 -106 90c0 53 47 91 100 117h-269z" />
    <glyph glyph-name="eogonek" unicode="&#x119;" horiz-adv-x="481" 
d="M372 -194c-16 -9 -37 -13 -61 -13c-69 0 -106 34 -106 84c0 51 45 91 94 116c-17 -2 -34 -3 -51 -3c-144 0 -193 69 -193 179v146c0 101 46 182 191 182c144 0 183 -83 183 -184v-102h-290v-41c0 -77 21 -108 116 -108c48 0 101 9 154 23l11 -67
c-92 -42 -145 -88 -145 -135c0 -24 14 -35 47 -35c16 0 26 2 37 6zM139 321v-40h209v40c0 68 -23 106 -102 106s-107 -38 -107 -106z" />
    <glyph glyph-name="Ecaron" unicode="&#x11a;" horiz-adv-x="540" 
d="M85 0v666h392v-77h-306v-209h284v-77h-284v-226h307v-77h-393zM396 842l26 -47c-43 -26 -79 -49 -125 -85c-46 36 -82 59 -125 85l26 47c38 -18 66 -35 99 -56c33 21 61 38 99 56z" />
    <glyph glyph-name="ecaron" unicode="&#x11b;" horiz-adv-x="481" 
d="M139 170c0 -77 21 -108 116 -108c48 0 101 9 154 23l11 -67c-46 -17 -111 -28 -172 -28c-144 0 -193 69 -193 179v146c0 101 46 182 191 182c144 0 183 -83 183 -184v-102h-290v-41zM139 321v-40h209v40c0 68 -23 106 -102 106s-107 -38 -107 -106zM353 674l30 -47
c-47 -28 -84 -54 -133 -94c-49 40 -86 66 -133 94l30 47c46 -25 70 -40 103 -67c33 27 57 42 103 67z" />
    <glyph glyph-name="Gcircumflex" unicode="&#x11c;" horiz-adv-x="578" 
d="M156 475v-284c0 -85 25 -123 139 -123c35 0 79 3 125 12v226h83v-287c-65 -19 -142 -29 -211 -29c-170 0 -222 73 -222 196v293c0 135 67 197 233 197c57 0 123 -7 185 -21l-10 -74c-64 11 -124 17 -179 17c-110 0 -143 -33 -143 -123zM432 758l-26 -47
c-38 18 -66 35 -99 56c-33 -21 -61 -38 -99 -56l-26 47c43 26 79 49 125 85c46 -36 82 -59 125 -85z" />
    <glyph glyph-name="gcircumflex" unicode="&#x11d;" horiz-adv-x="490" 
d="M457 487v-49l-58 -11c18 -25 26 -59 27 -97v-22c0 -105 -64 -166 -191 -166c-18 0 -35 1 -50 3c-17 -14 -35 -31 -35 -52c0 -19 10 -26 32 -28c51 -5 77 -8 138 -14c88 -9 122 -43 122 -117c0 -106 -37 -141 -213 -141c-45 0 -122 8 -177 23l12 66
c51 -12 114 -20 163 -20c124 0 136 17 136 68c0 41 -15 48 -72 53c-54 5 -72 7 -129 12c-72 6 -95 44 -95 89c0 36 20 66 46 86c-46 26 -68 74 -68 138v22c0 106 51 167 190 167c25 0 59 -3 82 -10h140zM346 329c0 71 -30 99 -111 99s-111 -27 -111 -99v-21
c0 -74 31 -97 111 -97s111 33 111 97v21zM378 586l-30 -47c-46 25 -70 40 -103 67c-33 -27 -57 -42 -103 -67l-30 47c47 28 84 54 133 94c49 -40 86 -66 133 -94z" />
    <glyph glyph-name="Gbreve" unicode="&#x11e;" horiz-adv-x="578" 
d="M156 475v-284c0 -85 25 -123 139 -123c35 0 79 3 125 12v226h83v-287c-65 -19 -142 -29 -211 -29c-170 0 -222 73 -222 196v293c0 135 67 197 233 197c57 0 123 -7 185 -21l-10 -74c-64 11 -124 17 -179 17c-110 0 -143 -33 -143 -123zM393 826l43 -30
c-18 -40 -58 -75 -127 -75s-109 35 -127 75l43 30c19 -33 45 -50 84 -50s65 17 84 50z" />
    <glyph glyph-name="gbreve" unicode="&#x11f;" horiz-adv-x="490" 
d="M457 487v-49l-58 -11c18 -25 26 -59 27 -97v-22c0 -105 -64 -166 -191 -166c-18 0 -35 1 -50 3c-17 -14 -35 -31 -35 -52c0 -19 10 -26 32 -28c51 -5 77 -8 138 -14c88 -9 122 -43 122 -117c0 -106 -37 -141 -213 -141c-45 0 -122 8 -177 23l12 66
c51 -12 114 -20 163 -20c124 0 136 17 136 68c0 41 -15 48 -72 53c-54 5 -72 7 -129 12c-72 6 -95 44 -95 89c0 36 20 66 46 86c-46 26 -68 74 -68 138v22c0 106 51 167 190 167c25 0 59 -3 82 -10h140zM346 329c0 71 -30 99 -111 99s-111 -27 -111 -99v-21
c0 -74 31 -97 111 -97s111 33 111 97v21zM325 652l43 -30c-17 -40 -54 -85 -128 -85s-111 45 -128 85l43 30c16 -30 39 -59 85 -59s69 29 85 59z" />
    <glyph glyph-name="Gdotaccent" unicode="&#x120;" horiz-adv-x="578" 
d="M156 475v-284c0 -85 25 -123 139 -123c35 0 79 3 125 12v226h83v-287c-65 -19 -142 -29 -211 -29c-170 0 -222 73 -222 196v293c0 135 67 197 233 197c57 0 123 -7 185 -21l-10 -74c-64 11 -124 17 -179 17c-110 0 -143 -33 -143 -123zM342 725h-84v121h84v-121z" />
    <glyph glyph-name="gdotaccent" unicode="&#x121;" horiz-adv-x="490" 
d="M457 487v-49l-58 -11c18 -25 26 -59 27 -97v-22c0 -105 -64 -166 -191 -166c-18 0 -35 1 -50 3c-17 -14 -35 -31 -35 -52c0 -19 10 -26 32 -28c51 -5 77 -8 138 -14c88 -9 122 -43 122 -117c0 -106 -37 -141 -213 -141c-45 0 -122 8 -177 23l12 66
c51 -12 114 -20 163 -20c124 0 136 17 136 68c0 41 -15 48 -72 53c-54 5 -72 7 -129 12c-72 6 -95 44 -95 89c0 36 20 66 46 86c-46 26 -68 74 -68 138v22c0 106 51 167 190 167c25 0 59 -3 82 -10h140zM346 329c0 71 -30 99 -111 99s-111 -27 -111 -99v-21
c0 -74 31 -97 111 -97s111 33 111 97v21zM277 565h-84v121h84v-121z" />
    <glyph glyph-name="Gcommaaccent" unicode="&#x122;" horiz-adv-x="578" 
d="M156 475v-284c0 -85 25 -123 139 -123c35 0 79 3 125 12v226h83v-287c-65 -19 -142 -29 -211 -29c-170 0 -222 73 -222 196v293c0 135 67 197 233 197c57 0 123 -7 185 -21l-10 -74c-64 11 -124 17 -179 17c-110 0 -143 -33 -143 -123zM263 -158v107h84v-107l-49 -101
l-39 17l33 84h-29z" />
    <glyph glyph-name="gcommaaccent" unicode="&#x123;" horiz-adv-x="490" 
d="M275 650v-107h-84v107l49 101l39 -17l-33 -84h29zM457 487v-49l-58 -11c18 -25 26 -59 27 -97v-22c0 -105 -64 -166 -191 -166c-18 0 -35 1 -50 3c-17 -14 -35 -31 -35 -52c0 -19 10 -26 32 -28c51 -5 77 -8 138 -14c88 -9 122 -43 122 -117c0 -106 -37 -141 -213 -141
c-45 0 -122 8 -177 23l12 66c51 -12 114 -20 163 -20c124 0 136 17 136 68c0 41 -15 48 -72 53c-54 5 -72 7 -129 12c-72 6 -95 44 -95 89c0 36 20 66 46 86c-46 26 -68 74 -68 138v22c0 106 51 167 190 167c25 0 59 -3 82 -10h140zM346 329c0 71 -30 99 -111 99
s-111 -27 -111 -99v-21c0 -74 31 -97 111 -97s111 33 111 97v21z" />
    <glyph glyph-name="Hcircumflex" unicode="&#x124;" horiz-adv-x="637" 
d="M552 0h-86v302h-295v-302h-86v666h86v-287h295v287h86v-666zM443 758l-26 -47c-38 18 -66 35 -99 56c-33 -21 -61 -38 -99 -56l-26 47c43 26 79 49 125 85c46 -36 82 -59 125 -85z" />
    <glyph glyph-name="hcircumflex" unicode="&#x125;" horiz-adv-x="533" 
d="M458 0h-84v372c0 32 -16 45 -47 45c-36 0 -111 -23 -163 -50v-367h-84v686l84 12v-252c54 26 131 51 188 51c78 0 106 -49 106 -124v-373zM254 788l-26 -47c-38 18 -66 35 -99 56c-33 -21 -61 -38 -99 -56l-26 47c43 26 79 49 125 85c46 -36 82 -59 125 -85z" />
    <glyph glyph-name="Hbar" unicode="&#x126;" horiz-adv-x="647" 
d="M13 508v57h77v101h86v-101h295v101h86v-101h77v-57h-77v-508h-86v302h-295v-302h-86v508h-77zM176 379h295v129h-295v-129z" />
    <glyph glyph-name="hbar" unicode="&#x127;" horiz-adv-x="533" 
d="M23 552v54h57v80l84 12v-92h121v-54h-121v-106c54 26 131 51 188 51c78 0 106 -49 106 -124v-373h-84v372c0 32 -16 45 -47 45c-36 0 -111 -23 -163 -50v-367h-84v552h-57z" />
    <glyph glyph-name="Itilde" unicode="&#x128;" horiz-adv-x="266" 
d="M176 666v-666h-86v666h86zM138 740c-20 11 -34 19 -53 19c-22 0 -37 -16 -52 -33l-36 34c20 32 53 60 89 60c20 0 35 -6 57 -17c26 -13 40 -20 55 -20c19 0 32 9 45 30l41 -28c-17 -37 -45 -63 -86 -63c-20 0 -35 5 -60 18z" />
    <glyph glyph-name="itilde" unicode="&#x129;" horiz-adv-x="244" 
d="M164 0h-84v487h84v-487zM125 568c-20 11 -34 19 -53 19c-22 0 -37 -16 -52 -33l-36 34c20 32 53 60 89 60c20 0 35 -6 57 -17c26 -13 40 -20 55 -20c19 0 32 9 45 30l41 -28c-17 -37 -45 -63 -86 -63c-20 0 -35 5 -60 18z" />
    <glyph glyph-name="Imacron" unicode="&#x12a;" horiz-adv-x="266" 
d="M176 666v-666h-86v666h86zM13 735v59h241v-59h-241z" />
    <glyph glyph-name="imacron" unicode="&#x12b;" horiz-adv-x="244" 
d="M164 0h-84v487h84v-487zM2 556v59h241v-59h-241z" />
    <glyph glyph-name="Ibreve" unicode="&#x12c;" horiz-adv-x="266" 
d="M176 666v-666h-86v666h86zM217 826l43 -30c-18 -40 -58 -75 -127 -75s-109 35 -127 75l43 30c19 -33 45 -50 84 -50s65 17 84 50z" />
    <glyph glyph-name="ibreve" unicode="&#x12d;" horiz-adv-x="244" 
d="M164 0h-84v487h84v-487zM207 652l43 -30c-17 -40 -54 -85 -128 -85s-111 45 -128 85l43 30c16 -30 39 -59 85 -59s69 29 85 59z" />
    <glyph glyph-name="Iogonek" unicode="&#x12e;" horiz-adv-x="266" 
d="M196 -194c-16 -9 -37 -13 -61 -13c-64 0 -106 30 -106 90c0 42 21 79 61 117v666h86v-666c-58 -41 -77 -82 -77 -113c0 -24 11 -39 44 -39c16 0 29 2 40 6z" />
    <glyph glyph-name="iogonek" unicode="&#x12f;" horiz-adv-x="244" 
d="M184 -194c-16 -9 -37 -13 -61 -13c-64 0 -106 30 -106 90c0 42 23 82 63 117v487h84v-487c-55 -41 -77 -82 -77 -113c0 -24 11 -39 44 -39c16 0 29 2 40 6zM164 565h-84v121h84v-121z" />
    <glyph glyph-name="Idotaccent" unicode="&#x130;" horiz-adv-x="266" 
d="M176 666v-666h-86v666h86zM175 725h-84v121h84v-121z" />
    <glyph glyph-name="dotlessi" unicode="&#x131;" horiz-adv-x="244" 
d="M164 0h-84v487h84v-487z" />
    <glyph glyph-name="IJ" unicode="&#x132;" horiz-adv-x="522" 
d="M176 666v-666h-86v666h86zM351 666h86v-669c0 -79 -11 -88 -126 -195l-54 61c92 88 94 91 94 137v666z" />
    <glyph glyph-name="ij" unicode="&#x133;" horiz-adv-x="483" 
d="M164 0h-84v487h84v-487zM164 565h-84v121h84v-121zM324 487h84v-518c0 -69 -7 -78 -113 -171l-51 59c80 71 80 76 80 117v513zM408 565h-84v121h84v-121z" />
    <glyph glyph-name="Jcircumflex" unicode="&#x134;" horiz-adv-x="256" 
d="M85 666h86v-669c0 -79 -11 -88 -126 -195l-54 61c92 88 94 91 94 137v666zM256 758l-26 -47c-38 18 -66 35 -99 56c-33 -21 -61 -38 -99 -56l-26 47c43 26 79 49 125 85c46 -36 82 -59 125 -85z" />
    <glyph glyph-name="jcircumflex" unicode="&#x135;" horiz-adv-x="239" 
d="M80 487h84v-518c0 -69 -7 -78 -113 -171l-51 59c80 71 80 76 80 117v513zM258 586l-30 -47c-46 25 -70 40 -103 67c-33 -27 -57 -42 -103 -67l-30 47c47 28 84 54 133 94c49 -40 86 -66 133 -94z" />
    <glyph glyph-name="Kcommaaccent" unicode="&#x136;" horiz-adv-x="588" 
d="M171 666v-666h-86v666h86zM533 666l-244 -327l264 -339h-103l-258 339l240 327h101zM255 -158v107h84v-107l-49 -101l-39 17l33 84h-29z" />
    <glyph glyph-name="kcommaaccent" unicode="&#x137;" horiz-adv-x="484" 
d="M164 0h-84v686l84 12v-698zM357 487h97l-174 -241l182 -246h-99l-178 246zM213 -158v107h84v-107l-49 -101l-39 17l33 84h-29z" />
    <glyph glyph-name="kgreenlandic" unicode="&#x138;" horiz-adv-x="484" 
d="M164 0h-84v487h84v-487zM357 487h97l-174 -241l182 -246h-99l-178 246z" />
    <glyph glyph-name="Lacute" unicode="&#x139;" horiz-adv-x="500" 
d="M171 666v-589h289v-77h-375v666h86zM133 711l-34 55c45 26 84 51 125 82l38 -58c-41 -31 -83 -56 -129 -79z" />
    <glyph glyph-name="lacute" unicode="&#x13a;" horiz-adv-x="244" 
d="M164 0h-84v686l84 12v-698zM108 751l-34 55c45 26 84 51 125 82l38 -58c-41 -31 -83 -56 -129 -79z" />
    <glyph glyph-name="Lcommaaccent" unicode="&#x13b;" horiz-adv-x="500" 
d="M171 666v-589h289v-77h-375v666h86zM248 -158v107h84v-107l-49 -101l-39 17l33 84h-29z" />
    <glyph glyph-name="lcommaaccent" unicode="&#x13c;" horiz-adv-x="244" 
d="M164 0h-84v686l84 12v-698zM80 -158v107h84v-107l-49 -101l-39 17l33 84h-29z" />
    <glyph glyph-name="Lcaron" unicode="&#x13d;" horiz-adv-x="500" 
d="M171 666v-589h289v-77h-375v666h86zM324 573v113h84v-113l-55 -108l-38 18l37 90h-28z" />
    <glyph glyph-name="lcaron" unicode="&#x13e;" horiz-adv-x="339" 
d="M164 0h-84v686l84 12v-698zM260 573v113h84v-113l-55 -108l-38 18l37 90h-28z" />
    <glyph glyph-name="Ldot" unicode="&#x13f;" horiz-adv-x="500" 
d="M171 666v-589h289v-77h-375v666h86zM301 311v115h86v-115h-86z" />
    <glyph glyph-name="ldot" unicode="&#x140;" horiz-adv-x="348" 
d="M164 0h-84v686l84 12v-698zM247 225v115h86v-115h-86z" />
    <glyph glyph-name="Lslash" unicode="&#x141;" horiz-adv-x="534" 
d="M30 303l89 44v319h86v-277l144 71l28 -57l-172 -85v-241h289v-77h-375v276l-61 -30z" />
    <glyph glyph-name="lslash" unicode="&#x142;" horiz-adv-x="364" 
d="M55 304l87 42v340l84 12v-311l80 40l28 -57l-108 -53v-317h-84v276l-59 -29z" />
    <glyph glyph-name="Nacute" unicode="&#x143;" horiz-adv-x="660" 
d="M457 0l-290 567v-567h-82v666h118l290 -570v570h82v-666h-118zM318 711l-34 55c45 26 84 51 125 82l38 -58c-41 -31 -83 -56 -129 -79z" />
    <glyph glyph-name="nacute" unicode="&#x144;" horiz-adv-x="533" 
d="M458 0h-84v372c0 32 -16 45 -47 45c-36 0 -111 -22 -163 -49v-368h-84v487h68l8 -42c54 26 138 52 196 52c78 0 106 -49 106 -124v-373zM229 546l-34 52c50 29 102 62 137 91l36 -56c-46 -34 -88 -60 -139 -87z" />
    <glyph glyph-name="Ncommaaccent" unicode="&#x145;" horiz-adv-x="660" 
d="M457 0l-290 567v-567h-82v666h118l290 -570v570h82v-666h-118zM276 -158v107h84v-107l-49 -101l-39 17l33 84h-29z" />
    <glyph glyph-name="ncommaaccent" unicode="&#x146;" horiz-adv-x="533" 
d="M458 0h-84v372c0 32 -16 45 -47 45c-36 0 -111 -22 -163 -49v-368h-84v487h68l8 -42c54 26 138 52 196 52c78 0 106 -49 106 -124v-373zM236 -158v107h84v-107l-49 -101l-39 17l33 84h-29z" />
    <glyph glyph-name="Ncaron" unicode="&#x147;" horiz-adv-x="660" 
d="M457 0l-290 567v-567h-82v666h118l290 -570v570h82v-666h-118zM444 842l26 -47c-43 -26 -79 -49 -125 -85c-46 36 -82 59 -125 85l26 47c38 -18 66 -35 99 -56c33 21 61 38 99 56z" />
    <glyph glyph-name="ncaron" unicode="&#x148;" horiz-adv-x="533" 
d="M458 0h-84v372c0 32 -16 45 -47 45c-36 0 -111 -22 -163 -49v-368h-84v487h68l8 -42c54 26 138 52 196 52c78 0 106 -49 106 -124v-373zM381 674l30 -47c-47 -28 -84 -54 -133 -94c-49 40 -86 66 -133 94l30 47c46 -25 70 -40 103 -67c33 27 57 42 103 67z" />
    <glyph glyph-name="Eng" unicode="&#x14a;" horiz-adv-x="660" 
d="M457 0l-290 567v-567h-82v666h118l290 -570v570h82v-697c0 -69 -7 -78 -113 -171l-51 59c80 71 80 76 80 117v26h-34z" />
    <glyph glyph-name="eng" unicode="&#x14b;" horiz-adv-x="533" 
d="M374 372c0 32 -16 45 -47 45c-36 0 -111 -22 -163 -49v-368h-84v487h68l8 -42c54 26 138 52 196 52c78 0 106 -49 106 -124v-404c0 -69 -7 -78 -113 -171l-51 59c80 71 80 76 80 117v398z" />
    <glyph glyph-name="Omacron" unicode="&#x14c;" horiz-adv-x="622" 
d="M552 474v-282c0 -111 -69 -202 -241 -202s-241 91 -241 202v282c0 111 69 202 241 202s241 -91 241 -202zM156 472v-278c0 -82 50 -128 155 -128s155 46 155 128v278c0 82 -50 128 -155 128s-155 -46 -155 -128zM191 735v59h241v-59h-241z" />
    <glyph glyph-name="omacron" unicode="&#x14d;" horiz-adv-x="506" 
d="M451 173c0 -102 -56 -183 -198 -183s-198 81 -198 183v141c0 102 56 183 198 183s198 -81 198 -183v-141zM367 317c0 71 -38 107 -114 107s-114 -36 -114 -107v-147c0 -71 38 -107 114 -107s114 36 114 107v147zM133 556v59h241v-59h-241z" />
    <glyph glyph-name="Obreve" unicode="&#x14e;" horiz-adv-x="622" 
d="M552 474v-282c0 -111 -69 -202 -241 -202s-241 91 -241 202v282c0 111 69 202 241 202s241 -91 241 -202zM156 472v-278c0 -82 50 -128 155 -128s155 46 155 128v278c0 82 -50 128 -155 128s-155 -46 -155 -128zM395 826l43 -30c-18 -40 -58 -75 -127 -75
s-109 35 -127 75l43 30c19 -33 45 -50 84 -50s65 17 84 50z" />
    <glyph glyph-name="obreve" unicode="&#x14f;" horiz-adv-x="506" 
d="M451 173c0 -102 -56 -183 -198 -183s-198 81 -198 183v141c0 102 56 183 198 183s198 -81 198 -183v-141zM367 317c0 71 -38 107 -114 107s-114 -36 -114 -107v-147c0 -71 38 -107 114 -107s114 36 114 107v147zM338 652l43 -30c-17 -40 -54 -85 -128 -85
s-111 45 -128 85l43 30c16 -30 39 -59 85 -59s69 29 85 59z" />
    <glyph glyph-name="Ohungarumlaut" unicode="&#x150;" horiz-adv-x="622" 
d="M552 474v-282c0 -111 -69 -202 -241 -202s-241 91 -241 202v282c0 111 69 202 241 202s241 -91 241 -202zM156 472v-278c0 -82 50 -128 155 -128s155 46 155 128v278c0 82 -50 128 -155 128s-155 -46 -155 -128zM232 708l-38 45c39 32 63 53 99 90l43 -48
c-33 -33 -63 -58 -104 -87zM390 708l-38 45c39 32 63 53 99 90l43 -48c-33 -33 -63 -58 -104 -87z" />
    <glyph glyph-name="ohungarumlaut" unicode="&#x151;" horiz-adv-x="506" 
d="M451 173c0 -102 -56 -183 -198 -183s-198 81 -198 183v141c0 102 56 183 198 183s198 -81 198 -183v-141zM367 317c0 71 -38 107 -114 107s-114 -36 -114 -107v-147c0 -71 38 -107 114 -107s114 36 114 107v147zM177 532l-36 46c41 33 68 56 108 98l43 -47
c-37 -40 -71 -65 -115 -97zM334 532l-36 46c41 33 68 56 108 98l43 -47c-37 -40 -71 -65 -115 -97z" />
    <glyph glyph-name="OE" unicode="&#x152;" horiz-adv-x="910" 
d="M845 0h-534c-172 0 -241 91 -241 202v262c0 111 69 202 241 202h533v-77h-306v-209h284v-77h-284v-226h307v-77zM452 590h-141c-105 0 -155 -46 -155 -128v-258c0 -82 50 -128 155 -128h141v514z" />
    <glyph glyph-name="oe" unicode="&#x153;" horiz-adv-x="793" 
d="M451 165c0 -73 23 -103 116 -103c48 0 101 9 154 23l11 -67c-46 -17 -111 -28 -172 -28c-76 0 -125 19 -155 53c-32 -33 -82 -53 -152 -53c-142 0 -198 81 -198 183v141c0 102 56 183 198 183c72 0 122 -21 154 -55c29 34 77 55 151 55c144 0 183 -83 183 -184v-102h-290
v-46zM367 317c0 71 -38 107 -114 107s-114 -36 -114 -107v-147c0 -71 38 -107 114 -107c74 0 114 34 114 101v153zM451 321v-40h209v40c0 68 -23 106 -102 106s-107 -38 -107 -106z" />
    <glyph glyph-name="Racute" unicode="&#x154;" horiz-adv-x="632" 
d="M500 0l-166 241h-163v-241h-86v666h254c143 0 193 -62 193 -164v-96c0 -79 -29 -133 -106 -155l173 -251h-99zM446 501c0 66 -28 88 -110 88h-165v-272h165c82 0 110 23 110 88v96zM280 711l-34 55c45 26 84 51 125 82l38 -58c-41 -31 -83 -56 -129 -79z" />
    <glyph glyph-name="racute" unicode="&#x155;" horiz-adv-x="308" 
d="M292 497l11 -77c-46 -22 -99 -56 -139 -84v-336h-84v487h73l5 -68c36 28 86 58 134 78zM135 546l-34 52c50 29 102 62 137 91l36 -56c-46 -34 -88 -60 -139 -87z" />
    <glyph glyph-name="Rcommaaccent" unicode="&#x156;" horiz-adv-x="632" 
d="M500 0l-166 241h-163v-241h-86v666h254c143 0 193 -62 193 -164v-96c0 -79 -29 -133 -106 -155l173 -251h-99zM446 501c0 66 -28 88 -110 88h-165v-272h165c82 0 110 23 110 88v96zM288 -158v107h84v-107l-49 -101l-39 17l33 84h-29z" />
    <glyph glyph-name="rcommaaccent" unicode="&#x157;" horiz-adv-x="308" 
d="M292 497l11 -77c-46 -22 -99 -56 -139 -84v-336h-84v487h73l5 -68c36 28 86 58 134 78zM79 -158v107h84v-107l-49 -101l-39 17l33 84h-29z" />
    <glyph glyph-name="Rcaron" unicode="&#x158;" horiz-adv-x="632" 
d="M500 0l-166 241h-163v-241h-86v666h254c143 0 193 -62 193 -164v-96c0 -79 -29 -133 -106 -155l173 -251h-99zM446 501c0 66 -28 88 -110 88h-165v-272h165c82 0 110 23 110 88v96zM404 842l26 -47c-43 -26 -79 -49 -125 -85c-46 36 -82 59 -125 85l26 47
c38 -18 66 -35 99 -56c33 21 61 38 99 56z" />
    <glyph glyph-name="rcaron" unicode="&#x159;" horiz-adv-x="308" 
d="M292 497l11 -77c-46 -22 -99 -56 -139 -84v-336h-84v487h73l5 -68c36 28 86 58 134 78zM286 674l30 -47c-47 -28 -84 -54 -133 -94c-49 40 -86 66 -133 94l30 47c46 -25 70 -40 103 -67c33 27 57 42 103 67z" />
    <glyph glyph-name="Sacute" unicode="&#x15a;" horiz-adv-x="540" 
d="M475 172c0 -116 -34 -182 -217 -182c-64 0 -141 12 -198 35l14 70c61 -19 125 -29 186 -29c107 0 129 28 129 104c0 90 -1 98 -138 129c-161 36 -180 67 -180 205c0 116 48 172 213 172c58 0 127 -8 180 -22l-7 -73c-53 12 -116 19 -171 19c-109 0 -129 -22 -129 -99
c0 -92 0 -96 132 -129c177 -44 186 -70 186 -200zM261 711l-34 55c45 26 84 51 125 82l38 -58c-41 -31 -83 -56 -129 -79z" />
    <glyph glyph-name="sacute" unicode="&#x15b;" horiz-adv-x="439" 
d="M383 131c0 -95 -29 -141 -168 -141c-50 0 -116 11 -155 26l11 66c42 -12 97 -20 139 -20c77 0 90 14 90 66s-4 58 -102 82c-121 30 -132 55 -132 156c0 90 40 131 168 131c47 0 98 -6 138 -17l-6 -69c-41 8 -95 14 -135 14c-72 0 -82 -17 -82 -61c0 -54 1 -64 83 -84
c140 -35 151 -52 151 -149zM193 546l-34 52c50 29 102 62 137 91l36 -56c-46 -34 -88 -60 -139 -87z" />
    <glyph glyph-name="Scircumflex" unicode="&#x15c;" horiz-adv-x="540" 
d="M475 172c0 -116 -34 -182 -217 -182c-64 0 -141 12 -198 35l14 70c61 -19 125 -29 186 -29c107 0 129 28 129 104c0 90 -1 98 -138 129c-161 36 -180 67 -180 205c0 116 48 172 213 172c58 0 127 -8 180 -22l-7 -73c-53 12 -116 19 -171 19c-109 0 -129 -22 -129 -99
c0 -92 0 -96 132 -129c177 -44 186 -70 186 -200zM411 758l-26 -47c-38 18 -66 35 -99 56c-33 -21 -61 -38 -99 -56l-26 47c43 26 79 49 125 85c46 -36 82 -59 125 -85z" />
    <glyph glyph-name="scircumflex" unicode="&#x15d;" horiz-adv-x="439" 
d="M383 131c0 -95 -29 -141 -168 -141c-50 0 -116 11 -155 26l11 66c42 -12 97 -20 139 -20c77 0 90 14 90 66s-4 58 -102 82c-121 30 -132 55 -132 156c0 90 40 131 168 131c47 0 98 -6 138 -17l-6 -69c-41 8 -95 14 -135 14c-72 0 -82 -17 -82 -61c0 -54 1 -64 83 -84
c140 -35 151 -52 151 -149zM368 586l-30 -47c-46 25 -70 40 -103 67c-33 -27 -57 -42 -103 -67l-30 47c47 28 84 54 133 94c49 -40 86 -66 133 -94z" />
    <glyph glyph-name="Scedilla" unicode="&#x15e;" horiz-adv-x="540" 
d="M373 -119c0 -45 -32 -78 -100 -78c-26 0 -57 6 -80 15l10 41c17 -5 43 -10 62 -10c38 0 54 12 54 31c0 21 -13 29 -42 29c-12 0 -20 -2 -30 -5l-29 13l16 74c-59 2 -124 14 -174 34l14 70c61 -19 125 -29 186 -29c107 0 129 28 129 104c0 90 -1 98 -138 129
c-161 36 -180 67 -180 205c0 116 48 172 213 172c58 0 127 -8 180 -22l-7 -73c-53 12 -116 19 -171 19c-109 0 -129 -22 -129 -99c0 -92 0 -96 132 -129c177 -44 186 -70 186 -200c0 -111 -31 -175 -193 -181l-9 -47c9 2 19 3 27 3c44 0 73 -21 73 -66z" />
    <glyph glyph-name="Scedilla" unicode="&#xf6c1;" horiz-adv-x="540" 
d="M373 -119c0 -45 -32 -78 -100 -78c-26 0 -57 6 -80 15l10 41c17 -5 43 -10 62 -10c38 0 54 12 54 31c0 21 -13 29 -42 29c-12 0 -20 -2 -30 -5l-29 13l16 74c-59 2 -124 14 -174 34l14 70c61 -19 125 -29 186 -29c107 0 129 28 129 104c0 90 -1 98 -138 129
c-161 36 -180 67 -180 205c0 116 48 172 213 172c58 0 127 -8 180 -22l-7 -73c-53 12 -116 19 -171 19c-109 0 -129 -22 -129 -99c0 -92 0 -96 132 -129c177 -44 186 -70 186 -200c0 -111 -31 -175 -193 -181l-9 -47c9 2 19 3 27 3c44 0 73 -21 73 -66z" />
    <glyph glyph-name="scedilla" unicode="&#x15f;" horiz-adv-x="439" 
d="M319 -119c0 -45 -32 -78 -100 -78c-26 0 -57 6 -80 15l10 41c17 -5 43 -10 62 -10c38 0 54 12 54 31c0 21 -13 29 -42 29c-12 0 -20 -2 -30 -5l-29 13l16 75c-43 3 -90 12 -120 24l11 66c42 -12 97 -20 139 -20c77 0 90 14 90 66s-4 58 -102 82c-121 30 -132 55 -132 156
c0 90 40 131 168 131c47 0 98 -6 138 -17l-6 -69c-41 8 -95 14 -135 14c-72 0 -82 -17 -82 -61c0 -54 1 -64 83 -84c140 -35 151 -52 151 -149c0 -92 -28 -138 -155 -141l-9 -46c9 2 19 3 27 3c44 0 73 -21 73 -66z" />
    <glyph glyph-name="scedilla" unicode="&#xf6c2;" horiz-adv-x="439" 
d="M319 -119c0 -45 -32 -78 -100 -78c-26 0 -57 6 -80 15l10 41c17 -5 43 -10 62 -10c38 0 54 12 54 31c0 21 -13 29 -42 29c-12 0 -20 -2 -30 -5l-29 13l16 75c-43 3 -90 12 -120 24l11 66c42 -12 97 -20 139 -20c77 0 90 14 90 66s-4 58 -102 82c-121 30 -132 55 -132 156
c0 90 40 131 168 131c47 0 98 -6 138 -17l-6 -69c-41 8 -95 14 -135 14c-72 0 -82 -17 -82 -61c0 -54 1 -64 83 -84c140 -35 151 -52 151 -149c0 -92 -28 -138 -155 -141l-9 -46c9 2 19 3 27 3c44 0 73 -21 73 -66z" />
    <glyph glyph-name="Scaron" unicode="&#x160;" horiz-adv-x="540" 
d="M475 172c0 -116 -34 -182 -217 -182c-64 0 -141 12 -198 35l14 70c61 -19 125 -29 186 -29c107 0 129 28 129 104c0 90 -1 98 -138 129c-161 36 -180 67 -180 205c0 116 48 172 213 172c58 0 127 -8 180 -22l-7 -73c-53 12 -116 19 -171 19c-109 0 -129 -22 -129 -99
c0 -92 0 -96 132 -129c177 -44 186 -70 186 -200zM383 842l26 -47c-43 -26 -79 -49 -125 -85c-46 36 -82 59 -125 85l26 47c38 -18 66 -35 99 -56c33 21 61 38 99 56z" />
    <glyph glyph-name="scaron" unicode="&#x161;" horiz-adv-x="439" 
d="M383 131c0 -95 -29 -141 -168 -141c-50 0 -116 11 -155 26l11 66c42 -12 97 -20 139 -20c77 0 90 14 90 66s-4 58 -102 82c-121 30 -132 55 -132 156c0 90 40 131 168 131c47 0 98 -6 138 -17l-6 -69c-41 8 -95 14 -135 14c-72 0 -82 -17 -82 -61c0 -54 1 -64 83 -84
c140 -35 151 -52 151 -149zM328 674l30 -47c-47 -28 -84 -54 -133 -94c-49 40 -86 66 -133 94l30 47c46 -25 70 -40 103 -67c33 27 57 42 103 67z" />
    <glyph glyph-name="Tcommaaccent" unicode="&#x162;" horiz-adv-x="524" 
d="M219 0v589h-199v77h484v-77h-199v-589h-86zM219 -158v107h84v-107l-49 -101l-39 17l33 84h-29z" />
    <glyph glyph-name="Tcommaaccent" unicode="&#x21a;" horiz-adv-x="524" 
d="M219 0v589h-199v77h484v-77h-199v-589h-86zM219 -158v107h84v-107l-49 -101l-39 17l33 84h-29z" />
    <glyph glyph-name="tcommaaccent" unicode="&#x163;" horiz-adv-x="369" 
d="M323 73l11 -65c-30 -11 -66 -18 -102 -18c-82 0 -121 30 -121 111v316h-86v70h86v120l84 12v-132h138l-7 -70h-131v-302c0 -36 5 -54 50 -54c23 0 47 4 78 12zM175 -158v107h84v-107l-49 -101l-39 17l33 84h-29z" />
    <glyph glyph-name="tcommaaccent" unicode="&#x21b;" horiz-adv-x="369" 
d="M323 73l11 -65c-30 -11 -66 -18 -102 -18c-82 0 -121 30 -121 111v316h-86v70h86v120l84 12v-132h138l-7 -70h-131v-302c0 -36 5 -54 50 -54c23 0 47 4 78 12zM175 -158v107h84v-107l-49 -101l-39 17l33 84h-29z" />
    <glyph glyph-name="Tcaron" unicode="&#x164;" horiz-adv-x="524" 
d="M219 0v589h-199v77h484v-77h-199v-589h-86zM361 842l26 -47c-43 -26 -79 -49 -125 -85c-46 36 -82 59 -125 85l26 47c38 -18 66 -35 99 -56c33 21 61 38 99 56z" />
    <glyph glyph-name="tcaron" unicode="&#x165;" horiz-adv-x="379" 
d="M323 73l11 -65c-30 -11 -66 -18 -102 -18c-82 0 -121 30 -121 111v316h-86v70h86v120l84 12v-132h138l-7 -70h-131v-302c0 -36 5 -54 50 -54c23 0 47 4 78 12zM310 606v90h84v-90l-45 -82l-36 21l30 61h-33z" />
    <glyph glyph-name="Tbar" unicode="&#x166;" horiz-adv-x="524" 
d="M55 298v60h164v231h-199v77h484v-77h-199v-231h164v-60h-164v-298h-86v298h-164z" />
    <glyph glyph-name="tbar" unicode="&#x167;" horiz-adv-x="369" 
d="M25 223v60h86v134h-86v70h86v120l84 12v-132h138l-7 -70h-131v-134h125v-60h-125v-108c0 -36 5 -54 50 -54c23 0 47 4 78 12l11 -65c-30 -11 -66 -18 -102 -18c-82 0 -121 30 -121 111v122h-86z" />
    <glyph glyph-name="Utilde" unicode="&#x168;" horiz-adv-x="632" 
d="M466 666h86v-479c0 -109 -63 -197 -236 -197s-236 88 -236 197v479h86v-474c0 -82 45 -125 150 -125s150 43 150 125v474zM322 740c-20 11 -34 19 -53 19c-22 0 -37 -16 -52 -33l-36 34c20 32 53 60 89 60c20 0 35 -6 57 -17c26 -13 40 -20 55 -20c19 0 32 9 45 30
l41 -28c-17 -37 -45 -63 -86 -63c-20 0 -35 5 -60 18z" />
    <glyph glyph-name="utilde" unicode="&#x169;" horiz-adv-x="533" 
d="M75 487h84v-372c0 -32 16 -45 47 -45c36 0 111 22 163 49v368h84v-487h-68l-8 42c-54 -26 -138 -52 -196 -52c-78 0 -106 49 -106 124v373zM275 568c-20 11 -34 19 -53 19c-22 0 -37 -16 -52 -33l-36 34c20 32 53 60 89 60c20 0 35 -6 57 -17c26 -13 40 -20 55 -20
c19 0 32 9 45 30l41 -28c-17 -37 -45 -63 -86 -63c-20 0 -35 5 -60 18z" />
    <glyph glyph-name="Umacron" unicode="&#x16a;" horiz-adv-x="632" 
d="M466 666h86v-479c0 -109 -63 -197 -236 -197s-236 88 -236 197v479h86v-474c0 -82 45 -125 150 -125s150 43 150 125v474zM198 735v59h241v-59h-241z" />
    <glyph glyph-name="umacron" unicode="&#x16b;" horiz-adv-x="533" 
d="M75 487h84v-372c0 -32 16 -45 47 -45c36 0 111 22 163 49v368h84v-487h-68l-8 42c-54 -26 -138 -52 -196 -52c-78 0 -106 49 -106 124v373zM154 556v59h241v-59h-241z" />
    <glyph glyph-name="Ubreve" unicode="&#x16c;" horiz-adv-x="632" 
d="M466 666h86v-479c0 -109 -63 -197 -236 -197s-236 88 -236 197v479h86v-474c0 -82 45 -125 150 -125s150 43 150 125v474zM400 826l43 -30c-18 -40 -58 -75 -127 -75s-109 35 -127 75l43 30c19 -33 45 -50 84 -50s65 17 84 50z" />
    <glyph glyph-name="ubreve" unicode="&#x16d;" horiz-adv-x="533" 
d="M75 487h84v-372c0 -32 16 -45 47 -45c36 0 111 22 163 49v368h84v-487h-68l-8 42c-54 -26 -138 -52 -196 -52c-78 0 -106 49 -106 124v373zM359 652l43 -30c-17 -40 -54 -85 -128 -85s-111 45 -128 85l43 30c16 -30 39 -59 85 -59s69 29 85 59z" />
    <glyph glyph-name="Uring" unicode="&#x16e;" horiz-adv-x="632" 
d="M466 666h86v-479c0 -109 -63 -197 -236 -197s-236 88 -236 197v479h86v-474c0 -82 45 -125 150 -125s150 43 150 125v474zM386 765c0 -37 -24 -68 -70 -68s-69 31 -69 68c0 38 23 69 69 69s70 -31 70 -69zM346 765c0 20 -10 33 -30 33c-19 0 -30 -13 -30 -33
c0 -19 11 -32 30 -32c20 0 30 13 30 32z" />
    <glyph glyph-name="uring" unicode="&#x16f;" horiz-adv-x="533" 
d="M75 487h84v-372c0 -32 16 -45 47 -45c36 0 111 22 163 49v368h84v-487h-68l-8 42c-54 -26 -138 -52 -196 -52c-78 0 -106 49 -106 124v373zM348 609c0 -40 -25 -73 -74 -73s-74 33 -74 73s25 73 74 73s74 -33 74 -73zM307 609c0 21 -12 36 -33 36s-33 -15 -33 -36
s12 -36 33 -36s33 15 33 36z" />
    <glyph glyph-name="Uhungarumlaut" unicode="&#x170;" horiz-adv-x="632" 
d="M466 666h86v-479c0 -109 -63 -197 -236 -197s-236 88 -236 197v479h86v-474c0 -82 45 -125 150 -125s150 43 150 125v474zM231 708l-38 45c39 32 63 53 99 90l43 -48c-33 -33 -63 -58 -104 -87zM389 708l-38 45c39 32 63 53 99 90l43 -48c-33 -33 -63 -58 -104 -87z" />
    <glyph glyph-name="uhungarumlaut" unicode="&#x171;" horiz-adv-x="533" 
d="M75 487h84v-372c0 -32 16 -45 47 -45c36 0 111 22 163 49v368h84v-487h-68l-8 42c-54 -26 -138 -52 -196 -52c-78 0 -106 49 -106 124v373zM180 532l-36 46c41 33 68 56 108 98l43 -47c-37 -40 -71 -65 -115 -97zM337 532l-36 46c41 33 68 56 108 98l43 -47
c-37 -40 -71 -65 -115 -97z" />
    <glyph glyph-name="Uogonek" unicode="&#x172;" horiz-adv-x="632" 
d="M427 -194c-16 -9 -37 -13 -61 -13c-64 0 -106 24 -106 84c0 46 36 83 89 114c-10 -1 -22 -1 -33 -1c-173 0 -236 88 -236 197v479h86v-474c0 -82 45 -125 150 -125s150 43 150 125v474h86v-479c0 -72 -28 -135 -96 -169c-79 -44 -126 -87 -126 -131c0 -24 14 -39 47 -39
c16 0 26 2 37 6z" />
    <glyph glyph-name="uogonek" unicode="&#x173;" horiz-adv-x="533" 
d="M75 487h84v-372c0 -32 16 -45 47 -45c36 0 111 22 163 49v368h84v-487c-59 -37 -99 -68 -99 -113c0 -24 16 -39 49 -39c16 0 26 2 37 6l13 -48c-16 -9 -37 -13 -61 -13c-64 0 -106 26 -106 86s56 99 99 121l-8 42c-54 -26 -138 -52 -196 -52c-78 0 -106 49 -106 124v373z
" />
    <glyph glyph-name="Wcircumflex" unicode="&#x174;" horiz-adv-x="908" 
d="M514 666l138 -584l152 584h84l-175 -666h-121l-138 595l-138 -595h-121l-175 666h84l152 -584l138 584h120zM579 758l-26 -47c-38 18 -66 35 -99 56c-33 -21 -61 -38 -99 -56l-26 47c43 26 79 49 125 85c46 -36 82 -59 125 -85z" />
    <glyph glyph-name="wcircumflex" unicode="&#x175;" horiz-adv-x="696" 
d="M574 0h-108l-118 413l-118 -413h-108l-104 487h80l81 -404l118 404h102l118 -404l81 404h80zM481 586l-30 -47c-46 25 -70 40 -103 67c-33 -27 -57 -42 -103 -67l-30 47c47 28 84 54 133 94c49 -40 86 -66 133 -94z" />
    <glyph glyph-name="Ycircumflex" unicode="&#x176;" horiz-adv-x="548" 
d="M274 294l174 372h90l-221 -465v-201h-86v201l-221 465h90zM399 758l-26 -47c-38 18 -66 35 -99 56c-33 -21 -61 -38 -99 -56l-26 47c43 26 79 49 125 85c46 -36 82 -59 125 -85z" />
    <glyph glyph-name="ycircumflex" unicode="&#x177;" horiz-adv-x="448" 
d="M133 -197l68 197h-35l-158 487h83l133 -420l135 420h83l-161 -487l-69 -197h-79zM365 586l-30 -47c-46 25 -70 40 -103 67c-33 -27 -57 -42 -103 -67l-30 47c47 28 84 54 133 94c49 -40 86 -66 133 -94z" />
    <glyph glyph-name="Ydieresis" unicode="&#x178;" horiz-adv-x="548" 
d="M274 294l174 372h90l-221 -465v-201h-86v201l-221 465h90zM146 724v78h80v-78h-80zM323 724v78h80v-78h-80z" />
    <glyph glyph-name="Zacute" unicode="&#x179;" horiz-adv-x="580" 
d="M508 592l-344 -518h351v-74h-445v74l343 518h-337v74h432v-74zM275 711l-34 55c45 26 84 51 125 82l38 -58c-41 -31 -83 -56 -129 -79z" />
    <glyph glyph-name="zacute" unicode="&#x17a;" horiz-adv-x="459" 
d="M65 419v68h336l-1 -68l-248 -351h252v-68h-344v68l248 351h-243zM205 546l-34 52c50 29 102 62 137 91l36 -56c-46 -34 -88 -60 -139 -87z" />
    <glyph glyph-name="Zdotaccent" unicode="&#x17b;" horiz-adv-x="580" 
d="M508 592l-344 -518h351v-74h-445v74l343 518h-337v74h432v-74zM339 725h-84v121h84v-121z" />
    <glyph glyph-name="zdotaccent" unicode="&#x17c;" horiz-adv-x="459" 
d="M65 419v68h336l-1 -68l-248 -351h252v-68h-344v68l248 351h-243zM277 565h-84v121h84v-121z" />
    <glyph glyph-name="Zcaron" unicode="&#x17d;" horiz-adv-x="580" 
d="M508 592l-344 -518h351v-74h-445v74l343 518h-337v74h432v-74zM397 842l26 -47c-43 -26 -79 -49 -125 -85c-46 36 -82 59 -125 85l26 47c38 -18 66 -35 99 -56c33 21 61 38 99 56z" />
    <glyph glyph-name="zcaron" unicode="&#x17e;" horiz-adv-x="459" 
d="M65 419v68h336l-1 -68l-248 -351h252v-68h-344v68l248 351h-243zM347 674l30 -47c-47 -28 -84 -54 -133 -94c-49 40 -86 66 -133 94l30 47c46 -25 70 -40 103 -67c33 27 57 42 103 67z" />
    <glyph glyph-name="florin" unicode="&#x192;" horiz-adv-x="495" 
d="M193 357h-92l7 70h91l14 155c8 89 57 123 148 123c32 0 66 -5 94 -14l-11 -66c-23 5 -59 9 -78 9c-52 0 -67 -15 -71 -63l-12 -144h132l-6 -70h-133l-36 -425c-8 -86 -33 -129 -138 -129c-29 0 -62 7 -82 12l10 67c18 -4 44 -8 63 -8c54 0 60 21 63 57z" />
    <glyph glyph-name="Aringacute" unicode="&#x1fa;" horiz-adv-x="622" 
d="M369 666l225 -666h-87l-55 160h-283l-54 -160h-87l225 666h116zM430 235l-119 369l-119 -369h238zM385 767c0 -40 -25 -73 -74 -73s-74 33 -74 73s25 73 74 73s74 -33 74 -73zM344 767c0 21 -12 36 -33 36s-33 -15 -33 -36s12 -36 33 -36s33 15 33 36zM310 871l-30 48
c33 20 67 41 101 66l34 -51c-33 -23 -73 -46 -105 -63z" />
    <glyph glyph-name="aringacute" unicode="&#x1fb;" horiz-adv-x="493" 
d="M425 339v-339h-71l-5 36c-43 -30 -99 -46 -158 -46c-91 0 -129 54 -129 140c0 101 51 137 149 137h130v76c0 61 -27 82 -106 82c-47 0 -108 -8 -146 -16l-9 67c46 12 108 21 160 21c139 0 185 -54 185 -158zM341 102v95h-124c-52 0 -71 -16 -71 -65c0 -50 9 -70 69 -70
c42 0 89 16 126 40zM334 607c0 -40 -25 -73 -74 -73s-74 33 -74 73s25 73 74 73s74 -33 74 -73zM293 607c0 21 -12 36 -33 36s-33 -15 -33 -36s12 -36 33 -36s33 15 33 36zM254 707l-30 48c33 20 67 41 101 66l34 -51c-33 -23 -73 -46 -105 -63z" />
    <glyph glyph-name="AEacute" unicode="&#x1fc;" horiz-adv-x="839" 
d="M507 0l-55 160h-283l-54 -160h-87l225 666h520v-77h-378l70 -209h286v-77h-260l77 -226h206v-77h-267zM430 235l-119 369l-119 -369h238zM350 711l-34 55c45 26 84 51 125 82l38 -58c-41 -31 -83 -56 -129 -79z" />
    <glyph glyph-name="aeacute" unicode="&#x1fd;" horiz-adv-x="767" 
d="M425 159c2 -69 25 -97 116 -97c48 0 101 9 154 23l11 -67c-46 -17 -111 -28 -172 -28c-79 0 -129 20 -158 57c-48 -35 -110 -57 -180 -57c-104 0 -134 54 -134 140c0 101 51 137 149 137h130v76c0 61 -27 82 -106 82c-47 0 -108 -8 -146 -16l-9 67c46 12 108 21 160 21
c74 0 114 -16 148 -49c34 32 77 49 144 49c144 0 183 -83 183 -184v-102h-290v-52zM425 321v-40h209v40c0 68 -23 106 -102 106s-107 -38 -107 -106zM215 62c47 0 87 12 134 38c-5 20 -8 43 -8 69v28h-124c-52 0 -71 -16 -71 -65c0 -50 9 -70 69 -70zM389 546l-34 52
c50 29 102 62 137 91l36 -56c-46 -34 -88 -60 -139 -87z" />
    <glyph glyph-name="Oslashacute" unicode="&#x1fe;" horiz-adv-x="622" 
d="M70 -34l51 88c-35 36 -51 85 -51 138v282c0 111 69 202 241 202c63 0 112 -12 149 -33l48 83l44 -26l-51 -89c35 -36 51 -84 51 -137v-282c0 -111 -69 -202 -241 -202c-63 0 -112 12 -149 33l-48 -83zM156 472v-278c0 -23 4 -42 11 -59l253 438c-26 17 -62 27 -109 27
c-105 0 -155 -46 -155 -128zM466 472c0 22 -4 42 -12 59l-252 -438c25 -18 61 -27 109 -27c105 0 155 46 155 128v278zM290 711l-34 55c45 26 84 51 125 82l38 -58c-41 -31 -83 -56 -129 -79z" />
    <glyph glyph-name="oslashacute" unicode="&#x1ff;" horiz-adv-x="506" 
d="M55 -27l45 71c-32 33 -45 78 -45 129v141c0 102 56 183 198 183c49 0 88 -10 118 -27l43 67l37 -23l-45 -71c31 -33 45 -79 45 -129v-141c0 -102 -56 -183 -198 -183c-50 0 -89 10 -119 27l-42 -67zM367 317c0 20 -3 36 -9 51l-182 -286c19 -13 44 -19 77 -19
c76 0 114 36 114 107v147zM139 170c0 -20 2 -37 8 -51l182 285c-18 13 -44 20 -76 20c-76 0 -114 -36 -114 -107v-147zM235 546l-34 52c50 29 102 62 137 91l36 -56c-46 -34 -88 -60 -139 -87z" />
    <glyph glyph-name="Scommaaccent" unicode="&#x218;" horiz-adv-x="540" 
d="M475 172c0 -116 -34 -182 -217 -182c-64 0 -141 12 -198 35l14 70c61 -19 125 -29 186 -29c107 0 129 28 129 104c0 90 -1 98 -138 129c-161 36 -180 67 -180 205c0 116 48 172 213 172c58 0 127 -8 180 -22l-7 -73c-53 12 -116 19 -171 19c-109 0 -129 -22 -129 -99
c0 -92 0 -96 132 -129c177 -44 186 -70 186 -200zM222 -158v107h84v-107l-49 -101l-39 17l33 84h-29z" />
    <glyph glyph-name="scommaaccent" unicode="&#x219;" horiz-adv-x="439" 
d="M383 131c0 -95 -29 -141 -168 -141c-50 0 -116 11 -155 26l11 66c42 -12 97 -20 139 -20c77 0 90 14 90 66s-4 58 -102 82c-121 30 -132 55 -132 156c0 90 40 131 168 131c47 0 98 -6 138 -17l-6 -69c-41 8 -95 14 -135 14c-72 0 -82 -17 -82 -61c0 -54 1 -64 83 -84
c140 -35 151 -52 151 -149zM183 -158v107h84v-107l-49 -101l-39 17l33 84h-29z" />
    <glyph glyph-name="circumflex" unicode="&#x2c6;" horiz-adv-x="396" 
d="M331 586l-30 -47c-46 25 -70 40 -103 67c-33 -27 -57 -42 -103 -67l-30 47c47 28 84 54 133 94c49 -40 86 -66 133 -94z" />
    <glyph glyph-name="caron" unicode="&#x2c7;" horiz-adv-x="396" 
d="M301 674l30 -47c-47 -28 -84 -54 -133 -94c-49 40 -86 66 -133 94l30 47c46 -25 70 -40 103 -67c33 27 57 42 103 67z" />
    <glyph glyph-name="breve" unicode="&#x2d8;" horiz-adv-x="386" 
d="M278 652l43 -30c-17 -40 -54 -85 -128 -85s-111 45 -128 85l43 30c16 -30 39 -59 85 -59s69 29 85 59z" />
    <glyph glyph-name="dotaccent" unicode="&#x2d9;" horiz-adv-x="214" 
d="M149 565h-84v121h84v-121z" />
    <glyph glyph-name="ring" unicode="&#x2da;" horiz-adv-x="278" 
d="M213 609c0 -40 -25 -73 -74 -73s-74 33 -74 73s25 73 74 73s74 -33 74 -73zM172 609c0 21 -12 36 -33 36s-33 -15 -33 -36s12 -36 33 -36s33 15 33 36z" />
    <glyph glyph-name="ogonek" unicode="&#x2db;" horiz-adv-x="297" 
d="M232 -194c-16 -9 -37 -13 -61 -13c-64 0 -106 30 -106 90c0 53 40 91 80 117h87c-59 -37 -97 -68 -97 -113c0 -24 14 -39 47 -39c16 0 26 2 37 6z" />
    <glyph glyph-name="tilde" unicode="&#x2dc;" horiz-adv-x="417" 
d="M206 568c-20 11 -34 19 -53 19c-22 0 -37 -16 -52 -33l-36 34c20 32 53 60 89 60c20 0 35 -6 57 -17c26 -13 40 -20 55 -20c19 0 32 9 45 30l41 -28c-17 -37 -45 -63 -86 -63c-20 0 -35 5 -60 18z" />
    <glyph glyph-name="hungarumlaut" unicode="&#x2dd;" horiz-adv-x="438" 
d="M101 532l-36 46c41 33 68 56 108 98l43 -47c-37 -40 -71 -65 -115 -97zM258 532l-36 46c41 33 68 56 108 98l43 -47c-37 -40 -71 -65 -115 -97z" />
    <glyph glyph-name="uni03A9" unicode="&#x3a9;" horiz-adv-x="686" 
d="M606 69v-69h-189v69c63 32 81 80 81 140v265c0 82 -50 128 -155 128s-155 -46 -155 -128v-265c0 -60 18 -108 81 -140v-69h-189v69h84c-49 35 -62 79 -62 133v272c0 111 69 202 241 202s241 -91 241 -202v-272c0 -54 -13 -98 -62 -133h84z" />
    <glyph glyph-name="pi" unicode="&#x3c0;" horiz-adv-x="687" 
d="M622 415h-119v-307c0 -37 11 -50 48 -50c20 0 35 3 55 9l13 -62c-23 -9 -48 -15 -79 -15c-83 0 -119 38 -119 115v310h-174v-415h-82v415h-120v72h577v-72z" />
    <glyph glyph-name="Wgrave" unicode="&#x1e80;" horiz-adv-x="908" 
d="M514 666l138 -584l152 584h84l-175 -666h-121l-138 595l-138 -595h-121l-175 666h84l152 -584l138 584h120zM497 766l-34 -55c-46 23 -88 48 -129 79l38 58c41 -31 80 -56 125 -82z" />
    <glyph glyph-name="wgrave" unicode="&#x1e81;" horiz-adv-x="696" 
d="M574 0h-108l-118 413l-118 -413h-108l-104 487h80l81 -404l118 404h102l118 -404l81 404h80zM391 598l-34 -52c-51 27 -93 53 -139 87l36 56c35 -29 87 -62 137 -91z" />
    <glyph glyph-name="Wacute" unicode="&#x1e82;" horiz-adv-x="908" 
d="M514 666l138 -584l152 584h84l-175 -666h-121l-138 595l-138 -595h-121l-175 666h84l152 -584l138 584h120zM454 711l-34 55c45 26 84 51 125 82l38 -58c-41 -31 -83 -56 -129 -79z" />
    <glyph glyph-name="wacute" unicode="&#x1e83;" horiz-adv-x="696" 
d="M574 0h-108l-118 413l-118 -413h-108l-104 487h80l81 -404l118 404h102l118 -404l81 404h80zM338 546l-34 52c50 29 102 62 137 91l36 -56c-46 -34 -88 -60 -139 -87z" />
    <glyph glyph-name="Wdieresis" unicode="&#x1e84;" horiz-adv-x="908" 
d="M514 666l138 -584l152 584h84l-175 -666h-121l-138 595l-138 -595h-121l-175 666h84l152 -584l138 584h120zM326 724v78h80v-78h-80zM503 724v78h80v-78h-80z" />
    <glyph glyph-name="wdieresis" unicode="&#x1e85;" horiz-adv-x="696" 
d="M574 0h-108l-118 413l-118 -413h-108l-104 487h80l81 -404l118 404h102l118 -404l81 404h80zM222 561v83h78v-83h-78zM395 561v83h78v-83h-78z" />
    <glyph glyph-name="Ygrave" unicode="&#x1ef2;" horiz-adv-x="548" 
d="M274 294l174 372h90l-221 -465v-201h-86v201l-221 465h90zM323 766l-34 -55c-46 23 -88 48 -129 79l38 58c41 -31 80 -56 125 -82z" />
    <glyph glyph-name="ygrave" unicode="&#x1ef3;" horiz-adv-x="448" 
d="M133 -197l68 197h-35l-158 487h83l133 -420l135 420h83l-161 -487l-69 -197h-79zM267 598l-34 -52c-51 27 -93 53 -139 87l36 56c35 -29 87 -62 137 -91z" />
    <glyph glyph-name="endash" unicode="&#x2013;" horiz-adv-x="486" 
d="M60 244v69h366v-69h-366z" />
    <glyph glyph-name="emdash" unicode="&#x2014;" horiz-adv-x="612" 
d="M60 244v69h492v-69h-492z" />
    <glyph glyph-name="quoteleft" unicode="&#x2018;" horiz-adv-x="254" 
d="M171 580v-115h-86v115l60 120l39 -19l-42 -101h29z" />
    <glyph glyph-name="quoteright" unicode="&#x2019;" horiz-adv-x="239" 
d="M88 571v115h86v-115l-60 -120l-39 19l42 101h-29z" />
    <glyph glyph-name="quotesinglbase" unicode="&#x201a;" horiz-adv-x="254" 
d="M83 0v115h86v-115l-60 -120l-39 19l42 101h-29z" />
    <glyph glyph-name="quotedblleft" unicode="&#x201c;" horiz-adv-x="433" 
d="M350 580v-115h-86v115l60 120l39 -19l-42 -101h29zM171 580v-115h-86v115l60 120l39 -19l-42 -101h29z" />
    <glyph glyph-name="quotedblright" unicode="&#x201d;" horiz-adv-x="433" 
d="M83 571v115h86v-115l-60 -120l-39 19l42 101h-29zM262 571v115h86v-115l-60 -120l-39 19l42 101h-29z" />
    <glyph glyph-name="quotedblbase" unicode="&#x201e;" horiz-adv-x="433" 
d="M83 0v115h86v-115l-60 -120l-39 19l42 101h-29zM262 0v115h86v-115l-60 -120l-39 19l42 101h-29z" />
    <glyph glyph-name="dagger" unicode="&#x2020;" horiz-adv-x="485" 
d="M50 424v65h157v177h72v-177h156v-65h-156v-494h-72v494h-157z" />
    <glyph glyph-name="daggerdbl" unicode="&#x2021;" horiz-adv-x="485" 
d="M50 107v65h157v252h-157v65h157v177h72v-177h156v-65h-156v-252h156v-65h-156v-177h-72v177h-157z" />
    <glyph glyph-name="bullet" unicode="&#x2022;" horiz-adv-x="373" 
d="M65 323c0 67 54 121 121 121s122 -54 122 -121s-55 -121 -122 -121s-121 54 -121 121z" />
    <glyph glyph-name="ellipsis" unicode="&#x2026;" horiz-adv-x="768" 
d="M85 0v115h86v-115h-86zM341 0v115h86v-115h-86zM597 0v115h86v-115h-86z" />
    <glyph glyph-name="perthousand" unicode="&#x2030;" horiz-adv-x="1212" 
d="M581 651l-270 -661l-59 26l269 660zM344 448c0 -82 -35 -136 -147 -136s-147 54 -147 136v92c0 82 35 136 147 136s147 -54 147 -136v-92zM118 543v-98c0 -48 19 -73 79 -73s79 25 79 73v98c0 48 -19 73 -79 73s-79 -25 -79 -73zM786 126c0 -82 -35 -136 -147 -136
s-147 54 -147 136v92c0 82 35 136 147 136s147 -54 147 -136v-92zM560 221v-98c0 -48 19 -73 79 -73s79 25 79 73v98c0 48 -19 73 -79 73s-79 -25 -79 -73zM1157 126c0 -82 -35 -136 -147 -136s-147 54 -147 136v92c0 82 35 136 147 136s147 -54 147 -136v-92zM931 221v-98
c0 -48 19 -73 79 -73s79 25 79 73v98c0 48 -19 73 -79 73s-79 -25 -79 -73z" />
    <glyph glyph-name="guilsinglleft" unicode="&#x2039;" horiz-adv-x="290" 
d="M167 51l-127 193l127 193l58 -38l-102 -155l102 -155z" />
    <glyph glyph-name="guilsinglright" unicode="&#x203a;" horiz-adv-x="290" 
d="M250 244l-127 -193l-58 38l102 155l-102 155l58 38z" />
    <glyph glyph-name="fraction" unicode="&#x2044;" horiz-adv-x="343" 
d="M338 656l-277 -689l-56 23l278 689z" />
    <glyph glyph-name="Euro" unicode="&#x20ac;" horiz-adv-x="543" 
d="M35 386v55h87v19c0 126 65 196 228 196c50 0 100 -6 148 -17l-9 -72c-52 9 -96 13 -136 13c-109 0 -147 -30 -147 -123v-16h219v-55h-219v-109h219v-55h-219v-33c0 -93 38 -123 147 -123c40 0 85 3 136 12l9 -72c-48 -11 -98 -16 -148 -16c-163 0 -228 70 -228 196v36
h-87v55h87v109h-87z" />
    <glyph glyph-name="uni2113" unicode="&#x2113;" horiz-adv-x="459" 
d="M281 -10c-150 0 -166 91 -166 187v17c-22 -12 -45 -24 -69 -37l-33 60c32 19 64 37 101 58v250c0 100 35 181 155 181c98 0 147 -62 147 -142c0 -134 -73 -225 -219 -320v-91c0 -67 25 -93 87 -93c44 0 80 8 126 29l20 -65c-47 -22 -92 -34 -149 -34zM197 544v-215
c80 62 140 126 140 232c0 47 -26 74 -68 74c-49 0 -72 -29 -72 -91z" />
    <glyph glyph-name="uni2116" unicode="&#x2116;" horiz-adv-x="960" 
d="M415 0l-250 559v-559h-80v666h110l250 -565v565h80v-666h-110zM633 184v57h277v-57h-277zM920 434c0 -81 -42 -137 -149 -137s-148 56 -148 137v105c0 81 41 137 148 137s149 -56 149 -137v-105zM852 541c0 49 -23 76 -81 76s-80 -27 -80 -76v-109c0 -49 22 -76 80 -76
s81 27 81 76v109z" />
    <glyph glyph-name="trademark" unicode="&#x2122;" horiz-adv-x="511" 
d="M110 461v171h-60v34h157v-34h-60v-171h-37zM351 519l55 147h44l6 -205h-37l-3 137l-42 -112h-46l-42 112l-3 -137h-37l6 205h44z" />
    <glyph glyph-name="estimated" unicode="&#x212e;" horiz-adv-x="804" 
d="M759 301h-572v-201c54 -47 127 -76 215 -76c120 0 203 42 291 130l24 -24c-78 -80 -170 -140 -315 -140c-202 0 -357 152 -357 333c0 183 163 333 357 333s357 -150 357 -333v-22zM402 622c-84 0 -159 -31 -215 -80v-209h430v209c-56 49 -131 80 -215 80z" />
    <glyph glyph-name="partialdiff" unicode="&#x2202;" horiz-adv-x="569" 
d="M416 393l6 33c23 133 -18 196 -144 196c-45 0 -85 -14 -121 -32l-24 65c40 23 105 41 159 41c173 0 240 -111 209 -293l-43 -246c-19 -105 -55 -167 -221 -167c-155 0 -190 63 -173 163l19 109c18 102 53 165 201 165c40 0 89 -10 132 -34zM285 354
c-84 0 -106 -21 -118 -87l-20 -114c-13 -74 8 -90 102 -90c82 0 112 17 125 92l29 164c-36 22 -78 35 -118 35z" />
    <glyph glyph-name="Delta" unicode="&#x2206;" horiz-adv-x="702" 
d="M395 666l257 -666h-602l257 666h88zM351 583l-188 -514h375z" />
    <glyph glyph-name="product" unicode="&#x220f;" horiz-adv-x="807" 
d="M752 590h-140v-690h-84v690h-249v-690h-84v690h-140v76h697v-76z" />
    <glyph glyph-name="summation" unicode="&#x2211;" horiz-adv-x="546" 
d="M76 -100v76l230 307l-231 307v76h391v-76h-289l231 -307l-231 -307h294v-76h-395z" />
    <glyph glyph-name="minus" unicode="&#x2212;" horiz-adv-x="438" 
d="M60 244v69h318v-69h-318z" />
    <glyph glyph-name="radical" unicode="&#x221a;" horiz-adv-x="676" 
d="M325 0h-94l-166 474l73 23l137 -397l169 630h217v-69h-153z" />
    <glyph glyph-name="infinity" unicode="&#x221e;" horiz-adv-x="884" 
d="M824 276c0 -109 -71 -170 -177 -170c-94 0 -153 61 -205 124c-52 -63 -111 -124 -205 -124c-106 0 -177 61 -177 170s70 172 177 172c94 0 153 -62 205 -125c52 63 111 125 205 125c107 0 177 -63 177 -172zM134 276c0 -68 43 -101 103 -101c69 0 112 48 155 101
c-40 52 -86 104 -155 104c-57 0 -103 -36 -103 -104zM750 276c0 68 -46 104 -103 104c-69 0 -115 -52 -155 -104c43 -53 86 -101 155 -101c60 0 103 33 103 101z" />
    <glyph glyph-name="integral" unicode="&#x222b;" horiz-adv-x="385" 
d="M221 -97c0 -74 -34 -110 -110 -110c-30 0 -58 6 -81 16l11 62c19 -6 32 -8 55 -8c34 0 41 14 41 39v664c0 74 40 110 110 110c31 0 65 -8 88 -18l-13 -65c-18 6 -42 11 -61 11c-29 0 -40 -12 -40 -42v-659z" />
    <glyph glyph-name="approxequal" unicode="&#x2248;" horiz-adv-x="519" 
d="M267 125c-24 14 -50 26 -83 26s-52 -11 -77 -29l-32 52c26 23 73 47 114 47c28 0 54 -9 78 -22c29 -16 50 -26 83 -26s52 11 77 29l32 -52c-26 -23 -73 -47 -114 -47c-28 0 -52 7 -78 22zM267 284c-24 14 -50 26 -83 26s-52 -11 -77 -29l-32 52c26 23 73 47 114 47
c28 0 54 -9 78 -22c29 -16 50 -26 83 -26s52 11 77 29l32 -52c-26 -23 -73 -47 -114 -47c-28 0 -52 7 -78 22z" />
    <glyph glyph-name="notequal" unicode="&#x2260;" horiz-adv-x="509" 
d="M70 306v62h218l63 120l52 -27l-49 -93h85v-62h-117l-61 -116h178v-62h-210l-62 -119l-52 27l48 92h-93v62h125l61 116h-186z" />
    <glyph glyph-name="lessequal" unicode="&#x2264;" horiz-adv-x="540" 
d="M70 0v65h400v-65h-400zM452 469l-286 -137l286 -140l-29 -58l-339 170v55l339 168z" />
    <glyph glyph-name="greaterequal" unicode="&#x2265;" horiz-adv-x="540" 
d="M470 65v-65h-400v65h400zM374 332l-286 137l29 58l339 -168v-55l-339 -170l-29 58z" />
    <glyph glyph-name="lozenge" unicode="&#x25ca;" horiz-adv-x="572" 
d="M35 333l226 333h50l226 -333l-226 -333h-50zM286 589l-172 -256l172 -256l172 256z" />
    <glyph glyph-name="apple" unicode="&#xf8ff;" horiz-adv-x="866" 
d="M776 333h-333v-333h-333v666h666v-333z" />
    <glyph glyph-name="Acute" horiz-adv-x="303" 
d="M104 711l-34 55c45 26 84 51 125 82l38 -58c-41 -31 -83 -56 -129 -79z" />
    <glyph glyph-name="Breve" horiz-adv-x="384" 
d="M276 826l43 -30c-18 -40 -58 -75 -127 -75s-109 35 -127 75l43 30c19 -33 45 -50 84 -50s65 17 84 50z" />
    <glyph glyph-name="Caron" horiz-adv-x="380" 
d="M289 842l26 -47c-43 -26 -79 -49 -125 -85c-46 36 -82 59 -125 85l26 47c38 -18 66 -35 99 -56c33 21 61 38 99 56z" />
    <glyph glyph-name="Cedilla" horiz-adv-x="310" 
d="M245 -119c0 -45 -32 -78 -100 -78c-26 0 -57 6 -80 15l10 41c17 -5 43 -10 62 -10c38 0 54 12 54 31c0 21 -13 29 -42 29c-12 0 -20 -2 -30 -5l-29 13l21 96h48l-14 -69c9 2 19 3 27 3c44 0 73 -21 73 -66z" />
    <glyph glyph-name="Circumflex" horiz-adv-x="380" 
d="M315 758l-26 -47c-38 18 -66 35 -99 56c-33 -21 -61 -38 -99 -56l-26 47c43 26 79 49 125 85c46 -36 82 -59 125 -85z" />
    <glyph glyph-name="commaaccent" horiz-adv-x="327" 
d="M127 -158v107h84v-107l-49 -101l-39 17l33 84h-29z" />
    <glyph glyph-name="Dieresis" horiz-adv-x="397" 
d="M70 724v78h80v-78h-80zM247 724v78h80v-78h-80z" />
    <glyph glyph-name="Dotaccent" horiz-adv-x="214" 
d="M149 725h-84v121h84v-121z" />
    <glyph glyph-name="Grave" horiz-adv-x="303" 
d="M233 766l-34 -55c-46 23 -88 48 -129 79l38 58c41 -31 80 -56 125 -82z" />
    <glyph glyph-name="Hungarumlaut" horiz-adv-x="430" 
d="M103 708l-38 45c39 32 63 53 99 90l43 -48c-33 -33 -63 -58 -104 -87zM261 708l-38 45c39 32 63 53 99 90l43 -48c-33 -33 -63 -58 -104 -87z" />
    <glyph glyph-name="Macron" horiz-adv-x="371" 
d="M65 735v59h241v-59h-241z" />
    <glyph glyph-name="Ogonek" horiz-adv-x="297" 
d="M232 -194c-16 -9 -37 -13 -61 -13c-64 0 -106 30 -106 90c0 53 40 91 80 117h87c-59 -37 -97 -68 -97 -113c0 -24 14 -39 47 -39c16 0 26 2 37 6z" />
    <glyph glyph-name="Ring" horiz-adv-x="269" 
d="M204 765c0 -37 -24 -68 -70 -68s-69 31 -69 68c0 38 23 69 69 69s70 -31 70 -69zM164 765c0 20 -10 33 -30 33c-19 0 -30 -13 -30 -33c0 -19 11 -32 30 -32c20 0 30 13 30 32z" />
    <glyph glyph-name="Tilde" horiz-adv-x="417" 
d="M206 740c-20 11 -34 19 -53 19c-22 0 -37 -16 -52 -33l-36 34c20 32 53 60 89 60c20 0 35 -6 57 -17c26 -13 40 -20 55 -20c19 0 32 9 45 30l41 -28c-17 -37 -45 -63 -86 -63c-20 0 -35 5 -60 18z" />
    <glyph glyph-name="ampersand.salt" horiz-adv-x="664" 
d="M285 200v68h192c57 0 93 11 137 36l30 -57c-34 -26 -86 -44 -143 -46v-42c0 -104 -57 -169 -217 -169c-149 0 -209 63 -209 177v157c0 120 65 173 213 173c48 0 119 -8 158 -18l-6 -69c-54 9 -112 14 -152 14c-92 0 -129 -25 -129 -100v-160c0 -74 38 -102 125 -102
c98 0 137 25 137 97v41h-136z" />
    <glyph glyph-name="g.salt" horiz-adv-x="519" 
d="M58 158v157c0 111 40 182 207 182c45 0 118 -6 174 -19v-514c0 -95 -49 -171 -188 -171c-58 0 -122 11 -171 26l11 68c60 -15 111 -21 155 -21c81 0 109 34 109 97v77c-34 -18 -92 -34 -154 -34c-101 0 -143 59 -143 152zM355 117v299c-33 5 -66 7 -96 7
c-99 0 -117 -40 -117 -105v-163c0 -50 22 -75 79 -75c43 0 101 21 134 37z" />
    <glyph glyph-name="gcircumflex.salt" horiz-adv-x="519" 
d="M399 586l-30 -47c-46 25 -70 40 -103 67c-33 -27 -57 -42 -103 -67l-30 47c47 28 84 54 133 94c49 -40 86 -66 133 -94zM58 158v157c0 111 40 182 207 182c45 0 118 -6 174 -19v-514c0 -95 -49 -171 -188 -171c-58 0 -122 11 -171 26l11 68c60 -15 111 -21 155 -21
c81 0 109 34 109 97v77c-34 -18 -92 -34 -154 -34c-101 0 -143 59 -143 152zM355 117v299c-33 5 -66 7 -96 7c-99 0 -117 -40 -117 -105v-163c0 -50 22 -75 79 -75c43 0 101 21 134 37z" />
    <glyph glyph-name="gbreve.salt" horiz-adv-x="519" 
d="M348 652l43 -30c-17 -40 -54 -85 -128 -85s-111 45 -128 85l43 30c16 -30 39 -59 85 -59s69 29 85 59zM58 158v157c0 111 40 182 207 182c45 0 118 -6 174 -19v-514c0 -95 -49 -171 -188 -171c-58 0 -122 11 -171 26l11 68c60 -15 111 -21 155 -21c81 0 109 34 109 97v77
c-34 -18 -92 -34 -154 -34c-101 0 -143 59 -143 152zM355 117v299c-33 5 -66 7 -96 7c-99 0 -117 -40 -117 -105v-163c0 -50 22 -75 79 -75c43 0 101 21 134 37z" />
    <glyph glyph-name="gdotaccent.salt" horiz-adv-x="519" 
d="M309 565h-84v121h84v-121zM58 158v157c0 111 40 182 207 182c45 0 118 -6 174 -19v-514c0 -95 -49 -171 -188 -171c-58 0 -122 11 -171 26l11 68c60 -15 111 -21 155 -21c81 0 109 34 109 97v77c-34 -18 -92 -34 -154 -34c-101 0 -143 59 -143 152zM355 117v299
c-33 5 -66 7 -96 7c-99 0 -117 -40 -117 -105v-163c0 -50 22 -75 79 -75c43 0 101 21 134 37z" />
    <glyph glyph-name="gcommaaccent.salt" horiz-adv-x="519" 
d="M307 650v-107h-84v107l49 101l39 -17l-33 -84h29zM58 158v157c0 111 40 182 207 182c45 0 118 -6 174 -19v-514c0 -95 -49 -171 -188 -171c-58 0 -122 11 -171 26l11 68c60 -15 111 -21 155 -21c81 0 109 34 109 97v77c-34 -18 -92 -34 -154 -34c-101 0 -143 59 -143 152
zM355 117v299c-33 5 -66 7 -96 7c-99 0 -117 -40 -117 -105v-163c0 -50 22 -75 79 -75c43 0 101 21 134 37z" />
    <glyph glyph-name="i.turk" horiz-adv-x="244" 
d="M164 0h-84v487h84v-487zM164 565h-84v121h84v-121z" />
    <glyph glyph-name="minus.onum" horiz-adv-x="438" 
d="M60 244v69h318v-69h-318z" />
    <glyph glyph-name="multiply.onum" horiz-adv-x="523" 
d="M403 433l50 -49l-141 -142l141 -141l-50 -50l-142 141l-141 -141l-50 50l141 141l-141 142l50 49l141 -140z" />
    <glyph glyph-name="numbersign.onum" horiz-adv-x="631" 
d="M376 0l7 119h-162l-7 -119h-67l7 119h-104l3 62h105l9 151h-105l4 62h105l7 116h67l-7 -116h162l7 116h67l-7 -116h109l-4 -62h-109l-9 -151h109l-4 -62h-109l-7 -119h-67zM234 332l-9 -151h162l9 151h-162z" />
    <glyph glyph-name="dollar.onum" horiz-adv-x="476" 
d="M194 -105v97c-44 3 -93 12 -134 27l11 66c50 -14 109 -23 160 -23c89 0 99 17 99 73s0 68 -105 84c-146 22 -158 55 -158 162c0 95 38 132 144 138v96h74v-96c41 -2 79 -7 122 -19l-8 -69c-46 11 -111 17 -149 17c-84 0 -99 -7 -99 -68c0 -64 0 -70 100 -87
c144 -25 163 -48 163 -153c0 -90 -23 -141 -146 -149v-96h-74z" />
    <glyph glyph-name="percent.onum" horiz-adv-x="738" 
d="M229 16l230 504l56 -25l-231 -505zM310 408v-65c0 -73 -38 -112 -130 -112s-130 39 -130 112v65c0 73 38 112 130 112s130 -39 130 -112zM114 410v-69c0 -37 18 -54 66 -54s66 17 66 54v69c0 37 -18 54 -66 54s-66 -17 -66 -54zM693 167v-65c0 -73 -38 -112 -130 -112
s-130 39 -130 112v65c0 73 38 112 130 112s130 -39 130 -112zM497 169v-69c0 -37 18 -54 66 -54s66 17 66 54v69c0 37 -18 54 -66 54s-66 -17 -66 -54z" />
    <glyph glyph-name="plus.onum" horiz-adv-x="526" 
d="M60 208v70h166v169h74v-169h166v-70h-166v-169h-74v169h-166z" />
    <glyph glyph-name="zero.onum" horiz-adv-x="544" 
d="M479 347v-184c0 -100 -56 -173 -207 -173s-207 73 -207 173v184c0 100 56 173 207 173s207 -73 207 -173zM395 339c0 72 -28 107 -123 107s-123 -35 -123 -107v-168c0 -72 28 -107 123 -107s123 35 123 107v168z" />
    <glyph glyph-name="one.onum" horiz-adv-x="346" 
d="M177 415l-130 -73l-37 67l175 101h76v-510h-84v415z" />
    <glyph glyph-name="two.onum" horiz-adv-x="493" 
d="M60 0v66c80 70 104 91 168 146c96 82 104 101 104 141v8c0 63 -17 85 -115 85c-44 0 -105 -12 -141 -22l-14 69c42 14 112 27 162 27c155 0 192 -54 192 -152v-10c0 -65 -11 -94 -109 -181c-53 -47 -67 -60 -121 -105h242v-72h-368z" />
    <glyph glyph-name="three.onum" horiz-adv-x="469" 
d="M52 -131l8 70c44 -7 83 -11 132 -11c94 0 128 22 128 86v47c0 65 -43 90 -115 90h-126v74h115c90 0 114 38 114 91v50c0 60 -28 80 -108 80c-45 0 -93 -4 -132 -11l-9 71c38 9 91 14 143 14c141 0 190 -49 190 -142v-59c0 -61 -20 -99 -84 -128c57 -15 96 -52 96 -124
v-61c0 -104 -62 -152 -212 -152c-48 0 -98 5 -140 15z" />
    <glyph glyph-name="four.onum" horiz-adv-x="562" 
d="M532 43h-102v-169h-83v169h-307v80l279 387h111v-398h102v-69zM123 112h224v313z" />
    <glyph glyph-name="five.onum" horiz-adv-x="485" 
d="M84 159v351h338v-74h-254v-208c36 -2 47 -2 110 -6c105 -7 152 -62 152 -148v-56c0 -106 -48 -164 -206 -164c-49 0 -103 5 -159 20l9 69c47 -10 102 -15 150 -15c96 0 122 24 122 95v35c0 62 -15 87 -98 92s-95 6 -164 9z" />
    <glyph glyph-name="six.onum" horiz-adv-x="527" 
d="M163 429v-85c33 12 89 23 133 23c127 0 171 -53 171 -159v-29c0 -117 -32 -189 -192 -189c-144 0 -195 60 -195 154v286c0 166 74 226 262 226c31 0 78 -4 110 -12l-9 -70c-24 5 -64 9 -88 9c-155 0 -192 -33 -192 -154zM288 294c-44 0 -92 -13 -125 -27v-111
c0 -71 36 -92 112 -92c86 0 109 26 109 92v52c0 61 -23 86 -96 86z" />
    <glyph glyph-name="seven.onum" horiz-adv-x="452" 
d="M30 435v75h390v-71l-276 -575l-69 33l259 538h-304z" />
    <glyph glyph-name="eight.onum" horiz-adv-x="554" 
d="M467 473c0 -63 -22 -104 -104 -143c91 -42 121 -84 121 -152v-29c0 -112 -60 -159 -207 -159c-148 0 -207 47 -207 159v29c0 68 29 110 118 152c-80 39 -101 80 -101 143v26c0 91 45 157 190 157c144 0 190 -66 190 -157v-26zM402 175c0 57 -25 76 -125 117
c-101 -41 -125 -60 -125 -117v-23c0 -68 32 -90 125 -90c92 0 125 22 125 90v23zM169 471c0 -51 22 -72 108 -107c86 35 108 56 108 107v32c0 52 -25 82 -108 82c-84 0 -108 -30 -108 -82v-32z" />
    <glyph glyph-name="nine.onum" horiz-adv-x="522" 
d="M364 81v85c-33 -12 -89 -23 -133 -23c-127 0 -171 53 -171 159v29c0 117 35 189 192 189c144 0 195 -63 195 -157v-283c0 -166 -74 -226 -262 -226c-31 0 -78 4 -110 12l8 70c24 -5 65 -9 89 -9c155 0 192 33 192 154zM239 216c44 0 92 13 125 27v111
c0 71 -36 92 -112 92c-86 0 -109 -26 -109 -92v-52c0 -61 23 -86 96 -86z" />
    <glyph glyph-name="less.onum" horiz-adv-x="558" 
d="M50 270l413 228l30 -55l-365 -199l365 -199l-30 -55l-413 228v52z" />
    <glyph glyph-name="equal.onum" horiz-adv-x="509" 
d="M70 299v62h369v-62h-369zM70 121v62h369v-62h-369z" />
    <glyph glyph-name="greater.onum" horiz-adv-x="558" 
d="M95 498l413 -228v-52l-413 -228l-30 55l365 199l-365 199z" />
    <glyph glyph-name="cent.onum" horiz-adv-x="481" 
d="M232 35c-114 10 -157 61 -157 156v135c0 95 43 146 157 156v110h75v-108c39 -2 70 -6 104 -15l-7 -69c-45 8 -86 11 -126 11c-88 0 -120 -20 -120 -90v-125c0 -70 32 -90 120 -90c40 0 81 3 126 11l7 -69c-34 -9 -65 -13 -104 -15v-108h-75v110z" />
    <glyph glyph-name="sterling.onum" horiz-adv-x="513" 
d="M65 224v63h78c-22 40 -31 76 -31 110c0 81 47 123 177 123c47 0 110 -8 155 -22l-9 -65c-42 10 -105 16 -149 16c-59 0 -90 -10 -90 -55c0 -44 16 -76 34 -107h192l-3 -63h-164c6 -18 8 -32 8 -47c0 -34 -17 -71 -64 -107h254v-70h-360v67c51 29 88 69 88 118
c0 12 -3 23 -10 39h-106z" />
    <glyph glyph-name="section.onum" 
d="M255 23l-64 -33c-85 129 -126 264 -126 415c0 81 44 115 135 115c47 0 111 -11 155 -25l-11 -60c-46 10 -107 20 -139 20c-49 0 -63 -14 -63 -57c0 -140 40 -255 113 -375zM273 335l64 33c85 -129 126 -264 126 -415c0 -81 -43 -115 -135 -115c-47 0 -111 11 -155 25
l12 60c45 -10 106 -20 138 -20c49 0 64 14 64 57c0 140 -40 256 -114 375z" />
    <glyph glyph-name="yen.onum" horiz-adv-x="512" 
d="M60 214v55h93l-128 241h87l144 -281l144 281h87l-128 -241h93v-55h-122l-31 -58v-20h153v-53h-153v-83h-85v83h-154v53h154v20l-31 58h-123z" />
    <glyph glyph-name="florin.onum" horiz-adv-x="464" 
d="M163 196h-88l7 70h87l12 131c7 87 57 123 146 123c32 0 67 -5 97 -15l-13 -66c-24 6 -55 10 -77 10c-47 0 -65 -14 -69 -62l-11 -121h132l-9 -70h-129l-24 -277c-7 -80 -44 -116 -127 -116c-23 0 -61 6 -85 14l12 65c17 -4 39 -8 57 -8c48 0 55 15 59 60z" />
    <glyph glyph-name="endash.onum" horiz-adv-x="486" 
d="M60 244v69h366v-69h-366z" />
    <glyph glyph-name="divide.onum" horiz-adv-x="538" 
d="M473 277v-68h-408v68h408zM227 31v94h84v-94h-84zM227 361v94h84v-94h-84z" />
    <glyph glyph-name="Euro.onum" horiz-adv-x="521" 
d="M50 295v47h72v20c0 106 54 158 202 158c35 0 92 -4 137 -15l-7 -71c-45 8 -85 12 -129 12c-95 0 -118 -20 -118 -90v-14h188v-47h-188v-80h188v-47h-188v-14c0 -70 24 -90 118 -90c44 0 84 4 129 12l7 -71c-45 -11 -102 -15 -137 -15c-148 0 -202 52 -202 158v20h-72v47
h72v80h-72z" />
    <glyph glyph-name="perthousand.onum" horiz-adv-x="1060" 
d="M229 16l230 504l56 -25l-231 -505zM310 408v-65c0 -73 -38 -112 -130 -112s-130 39 -130 112v65c0 73 38 112 130 112s130 -39 130 -112zM114 410v-69c0 -37 18 -54 66 -54s66 17 66 54v69c0 37 -18 54 -66 54s-66 -17 -66 -54zM693 167v-65c0 -73 -38 -112 -130 -112
s-130 39 -130 112v65c0 73 38 112 130 112s130 -39 130 -112zM497 169v-69c0 -37 18 -54 66 -54s66 17 66 54v69c0 37 -18 54 -66 54s-66 -17 -66 -54zM1015 167v-65c0 -73 -38 -112 -130 -112s-130 39 -130 112v65c0 73 38 112 130 112s130 -39 130 -112zM819 169v-69
c0 -37 18 -54 66 -54s66 17 66 54v69c0 37 -18 54 -66 54s-66 -17 -66 -54z" />
    <glyph glyph-name="minus.tnum" 
d="M103 244v69h318v-69h-318z" />
    <glyph glyph-name="multiply.tnum" 
d="M404 433l50 -49l-141 -142l141 -141l-50 -50l-142 141l-141 -141l-50 50l141 141l-141 142l50 49l141 -140z" />
    <glyph glyph-name="numbersign.tnum" 
d="M481 171h-82l-10 -171h-70l10 171h-145l-11 -171h-70l11 171h-83l3 66h84l12 184h-86l4 66h86l9 159h70l-9 -159h144l9 159h70l-9 -159h81l-4 -66h-81l-11 -184h82zM200 421l-11 -184h144l11 184h-144z" />
    <glyph glyph-name="dollar.tnum" 
d="M300 -113h-74v104c-51 3 -110 15 -159 33l11 68c59 -18 128 -28 179 -28c106 0 119 25 119 102c0 76 -5 87 -128 126c-150 48 -170 76 -170 192c0 112 39 164 169 171v104h74v-105c45 -2 91 -7 129 -17l-8 -71c-43 8 -115 16 -162 16c-92 0 -118 -13 -118 -100
c0 -72 9 -85 114 -119c164 -53 184 -78 184 -196c0 -117 -40 -165 -160 -175v-105z" />
    <glyph glyph-name="percent.tnum" horiz-adv-x="841" 
d="M581 651l-270 -661l-59 26l269 660zM344 448c0 -82 -35 -136 -147 -136s-147 54 -147 136v92c0 82 35 136 147 136s147 -54 147 -136v-92zM118 543v-98c0 -48 19 -73 79 -73s79 25 79 73v98c0 48 -19 73 -79 73s-79 -25 -79 -73zM786 126c0 -82 -35 -136 -147 -136
s-147 54 -147 136v92c0 82 35 136 147 136s147 -54 147 -136v-92zM560 221v-98c0 -48 19 -73 79 -73s79 25 79 73v98c0 48 -19 73 -79 73s-79 -25 -79 -73z" />
    <glyph glyph-name="plus.tnum" 
d="M59 208v70h166v169h74v-169h166v-70h-166v-169h-74v169h-166z" />
    <glyph glyph-name="zero.tnum" 
d="M468 483v-320c0 -100 -51 -173 -206 -173s-206 73 -206 173v320c0 100 51 173 206 173s206 -73 206 -173zM384 474c0 73 -30 108 -122 108s-122 -35 -122 -108v-302c0 -73 30 -108 122 -108s122 35 122 108v302z" />
    <glyph glyph-name="one.tnum" 
d="M76 0v72h151v492l-144 -47l-20 71l172 58h76v-574h150v-72h-385z" />
    <glyph glyph-name="two.tnum" 
d="M75 0v77c74 84 93 106 172 199c102 121 109 147 109 194v29c0 63 -17 82 -118 82c-47 0 -110 -11 -148 -22l-12 72c43 13 109 25 167 25c154 0 195 -54 195 -156v-22c0 -79 -14 -113 -114 -232c-72 -86 -82 -99 -147 -172h267v-74h-371z" />
    <glyph glyph-name="three.tnum" 
d="M73 10l9 70c48 -11 97 -16 146 -16c94 0 128 22 128 86v50c0 65 -36 87 -101 87h-137v74h126c78 0 100 30 100 83v58c0 60 -28 80 -108 80c-45 0 -95 -6 -141 -15l-9 71c42 10 100 18 152 18c141 0 190 -49 190 -142v-59c0 -61 -14 -99 -76 -129c55 -16 88 -47 88 -119
v-65c0 -104 -62 -152 -212 -152c-48 0 -113 6 -155 20z" />
    <glyph glyph-name="four.tnum" 
d="M498 163h-86v-163h-83v163h-299v79l256 404h126v-413h86v-70zM109 233h220v347z" />
    <glyph glyph-name="five.tnum" 
d="M102 295v351h340v-74h-256v-205c42 -1 62 -1 107 -3c119 -5 157 -63 157 -150v-58c0 -106 -46 -166 -205 -166c-50 0 -117 6 -168 23l9 68c50 -12 110 -17 158 -17c100 0 122 26 122 97v44c0 60 -20 85 -103 87c-67 2 -111 2 -161 3z" />
    <glyph glyph-name="six.tnum" 
d="M156 429v-82c33 12 89 23 133 23c127 0 171 -53 171 -159v-32c0 -117 -32 -189 -192 -189c-144 0 -195 60 -195 154v286c0 166 74 226 262 226c31 0 78 -4 110 -12l-9 -70c-24 5 -64 9 -88 9c-155 0 -192 -33 -192 -154zM281 297c-44 0 -92 -13 -125 -27v-114
c0 -71 36 -92 112 -92c86 0 109 26 109 92v55c0 61 -23 86 -96 86z" />
    <glyph glyph-name="seven.tnum" 
d="M64 572v74h411v-71l-298 -575h-88l297 572h-322z" />
    <glyph glyph-name="eight.tnum" 
d="M452 473c0 -63 -22 -104 -104 -143c91 -42 121 -84 121 -152v-29c0 -112 -60 -159 -207 -159c-148 0 -207 47 -207 159v29c0 68 29 110 118 152c-80 39 -101 80 -101 143v26c0 91 45 157 190 157c144 0 190 -66 190 -157v-26zM387 175c0 57 -25 76 -125 117
c-101 -41 -125 -60 -125 -117v-23c0 -68 32 -90 125 -90c92 0 125 22 125 90v23zM154 471c0 -51 22 -72 108 -107c86 35 108 56 108 107v32c0 52 -25 82 -108 82c-84 0 -108 -30 -108 -82v-32z" />
    <glyph glyph-name="nine.tnum" 
d="M369 217v82c-33 -12 -89 -23 -133 -23c-127 0 -171 53 -171 159v32c0 117 35 189 192 189c144 0 195 -63 195 -157v-283c0 -166 -74 -226 -262 -226c-31 0 -78 4 -110 12l8 70c24 -5 65 -9 89 -9c155 0 192 33 192 154zM244 349c44 0 92 13 125 27v114
c0 71 -36 92 -112 92c-86 0 -109 -26 -109 -92v-55c0 -61 23 -86 96 -86z" />
    <glyph glyph-name="less.tnum" 
d="M54 218v52l377 227l31 -54l-333 -199l335 -200l-32 -54z" />
    <glyph glyph-name="equal.tnum" 
d="M78 299v62h369v-62h-369zM78 121v62h369v-62h-369z" />
    <glyph glyph-name="greater.tnum" 
d="M470 270v-52l-378 -228l-32 54l335 200l-333 199l31 54z" />
    <glyph glyph-name="cent.tnum" 
d="M254 -10v91c-116 13 -146 75 -146 175v153c0 99 33 161 146 174v93h67v-90c34 -2 70 -7 95 -13l-5 -70c-39 7 -73 9 -107 9c-84 0 -112 -24 -112 -100v-159c0 -76 28 -100 112 -100c29 0 64 2 107 9l6 -70c-31 -8 -61 -12 -96 -13v-89h-67z" />
    <glyph glyph-name="sterling.tnum" 
d="M65 299v66h87c-28 46 -40 100 -40 139c0 105 53 152 191 152c51 0 114 -9 159 -21l-10 -69c-39 10 -107 18 -149 18c-81 0 -107 -19 -107 -85c0 -46 16 -88 43 -134h192l-3 -66h-171c5 -12 8 -31 8 -46c0 -60 -25 -118 -85 -180h283v-73h-385v73c63 50 103 112 103 180
c0 16 -3 33 -9 46h-107z" />
    <glyph glyph-name="section.tnum" 
d="M253 22l-70 -22c-70 200 -126 413 -126 563c0 79 39 113 142 113c47 0 108 -11 148 -25l-11 -60c-48 11 -101 20 -139 20c-52 0 -63 -14 -63 -57c0 -140 56 -341 119 -532zM277 468l70 22c70 -200 126 -413 126 -563c0 -79 -39 -113 -142 -113c-47 0 -108 11 -148 25
l11 60c48 -11 101 -20 139 -20c52 0 63 14 63 57c0 140 -56 341 -119 532z" />
    <glyph glyph-name="yen.tnum" 
d="M63 135v57h156v9l-43 105h-113v58h89l-116 282h90l136 -352l136 352h90l-116 -282h90v-58h-114l-43 -105v-9h157v-57h-157v-135h-86v135h-156z" />
    <glyph glyph-name="florin.tnum" 
d="M206 357h-92l7 70h91l14 155c8 89 57 123 148 123c32 0 66 -5 94 -14l-11 -66c-23 5 -59 9 -78 9c-52 0 -67 -15 -71 -63l-12 -144h132l-6 -70h-133l-36 -425c-8 -86 -33 -129 -138 -129c-29 0 -62 7 -82 12l10 67c18 -4 44 -8 63 -8c54 0 60 21 63 57z" />
    <glyph glyph-name="endash.tnum" 
d="M79 244v69h366v-69h-366z" />
    <glyph glyph-name="divide.tnum" 
d="M466 277v-68h-408v68h408zM220 31v94h84v-94h-84zM220 361v94h84v-94h-84z" />
    <glyph glyph-name="Euro.tnum" 
d="M203 277h218v-55h-218v-33c0 -93 32 -125 147 -125c40 0 74 3 113 10l9 -70c-40 -10 -89 -14 -125 -14c-165 0 -228 62 -228 188v44h-87v55h87v92h-87v55h87v44c0 126 63 188 228 188c36 0 85 -4 125 -14l-9 -70c-39 7 -73 10 -113 10c-115 0 -147 -32 -147 -125v-33h218
v-55h-218v-92z" />
    <glyph glyph-name="perthousand.tnum" horiz-adv-x="1212" 
d="M581 651l-270 -661l-59 26l269 660zM344 448c0 -82 -35 -136 -147 -136s-147 54 -147 136v92c0 82 35 136 147 136s147 -54 147 -136v-92zM118 543v-98c0 -48 19 -73 79 -73s79 25 79 73v98c0 48 -19 73 -79 73s-79 -25 -79 -73zM786 126c0 -82 -35 -136 -147 -136
s-147 54 -147 136v92c0 82 35 136 147 136s147 -54 147 -136v-92zM560 221v-98c0 -48 19 -73 79 -73s79 25 79 73v98c0 48 -19 73 -79 73s-79 -25 -79 -73zM1157 126c0 -82 -35 -136 -147 -136s-147 54 -147 136v92c0 82 35 136 147 136s147 -54 147 -136v-92zM931 221v-98
c0 -48 19 -73 79 -73s79 25 79 73v98c0 48 -19 73 -79 73s-79 -25 -79 -73z" />
    <glyph glyph-name="minusonum.tnum" 
d="M103 244v69h318v-69h-318z" />
    <glyph glyph-name="multiplyonum.tnum" 
d="M404 433l50 -49l-141 -142l141 -141l-50 -50l-142 141l-141 -141l-50 50l141 141l-141 142l50 49l141 -140z" />
    <glyph glyph-name="numbersignonum.tnum" 
d="M475 121h-78l-6 -121h-61l6 121h-151l-7 -121h-61l7 121h-91l4 58h91l9 156h-90l4 58h89l6 117h61l-6 -117h151l7 117h61l-7 -117h79l-3 -58h-79l-9 -156h78zM197 335l-8 -156h151l9 156h-152z" />
    <glyph glyph-name="dollaronum.tnum" 
d="M221 -105v97c-44 3 -93 12 -134 27l11 66c50 -14 109 -23 160 -23c89 0 99 17 99 73s0 68 -105 84c-146 22 -158 55 -158 162c0 95 38 132 144 138v96h74v-96c41 -2 79 -7 122 -19l-8 -69c-42 9 -111 17 -149 17c-84 0 -99 -7 -99 -68c0 -64 0 -70 100 -87
c144 -25 163 -48 163 -153c0 -90 -23 -141 -146 -149v-96h-74z" />
    <glyph glyph-name="percentonum.tnum" horiz-adv-x="738" 
d="M229 16l230 504l56 -25l-231 -505zM310 408v-65c0 -73 -38 -112 -130 -112s-130 39 -130 112v65c0 73 38 112 130 112s130 -39 130 -112zM114 410v-69c0 -37 18 -54 66 -54s66 17 66 54v69c0 37 -18 54 -66 54s-66 -17 -66 -54zM693 167v-65c0 -73 -38 -112 -130 -112
s-130 39 -130 112v65c0 73 38 112 130 112s130 -39 130 -112zM497 169v-69c0 -37 18 -54 66 -54s66 17 66 54v69c0 37 -18 54 -66 54s-66 -17 -66 -54z" />
    <glyph glyph-name="plusonum.tnum" 
d="M59 208v70h166v169h74v-169h166v-70h-166v-169h-74v169h-166z" />
    <glyph glyph-name="zeroonum.tnum" 
d="M469 347v-184c0 -100 -56 -173 -207 -173s-207 73 -207 173v184c0 100 56 173 207 173s207 -73 207 -173zM385 339c0 72 -28 107 -123 107s-123 -35 -123 -107v-168c0 -72 28 -107 123 -107s123 35 123 107v168z" />
    <glyph glyph-name="oneonum.tnum" 
d="M82 0v72h152v356l-149 -50l-21 69l178 63h75v-438h145v-72h-380z" />
    <glyph glyph-name="twoonum.tnum" 
d="M73 0v66c80 70 106 93 168 146c96 82 104 101 104 141v8c0 61 -17 85 -114 85c-45 0 -100 -10 -142 -23l-16 69c39 14 106 28 164 28c155 0 191 -54 191 -152v-10c0 -57 -11 -93 -108 -181c-50 -46 -67 -60 -121 -105h242v-72h-368z" />
    <glyph glyph-name="threeonum.tnum" 
d="M78 -131l8 70c44 -7 89 -11 138 -11c94 0 128 22 128 86v47c0 65 -43 90 -115 90h-132v74h121c90 0 114 38 114 91v50c0 60 -28 80 -108 80c-45 0 -98 -4 -138 -11l-9 71c36 8 97 14 149 14c141 0 190 -49 190 -142v-59c0 -61 -20 -99 -84 -128c57 -15 96 -52 96 -124
v-61c0 -104 -62 -152 -212 -152c-48 0 -104 5 -146 15z" />
    <glyph glyph-name="fouronum.tnum" 
d="M494 33h-84v-169h-83v169h-297v79l261 398h119v-407h84v-70zM110 103h217v334z" />
    <glyph glyph-name="fiveonum.tnum" 
d="M99 159v351h338v-74h-254v-208c36 -2 47 -2 110 -6c105 -7 152 -62 152 -148v-56c0 -106 -48 -164 -206 -164c-49 0 -103 5 -159 20l9 69c47 -10 102 -15 150 -15c96 0 122 24 122 95v35c0 62 -15 87 -98 92s-95 6 -164 9z" />
    <glyph glyph-name="sixonum.tnum" 
d="M156 429v-85c33 12 89 23 133 23c127 0 171 -53 171 -159v-29c0 -117 -32 -189 -192 -189c-144 0 -195 60 -195 154v286c0 166 74 226 262 226c31 0 78 -4 110 -12l-9 -70c-24 5 -64 9 -88 9c-155 0 -192 -33 -192 -154zM281 294c-44 0 -92 -13 -125 -27v-111
c0 -71 36 -92 112 -92c86 0 109 26 109 92v52c0 61 -23 86 -96 86z" />
    <glyph glyph-name="sevenonum.tnum" 
d="M55 435v75h410v-71l-297 -575l-68 37l277 534h-322z" />
    <glyph glyph-name="eightonum.tnum" 
d="M452 473c0 -63 -22 -104 -104 -143c91 -42 121 -84 121 -152v-29c0 -112 -60 -159 -207 -159c-148 0 -207 47 -207 159v29c0 68 29 110 118 152c-80 39 -101 80 -101 143v26c0 91 45 157 190 157c144 0 190 -66 190 -157v-26zM387 175c0 57 -25 76 -125 117
c-101 -41 -125 -60 -125 -117v-23c0 -68 32 -90 125 -90c92 0 125 22 125 90v23zM154 471c0 -51 22 -72 108 -107c86 35 108 56 108 107v32c0 52 -25 82 -108 82c-84 0 -108 -30 -108 -82v-32z" />
    <glyph glyph-name="nineonum.tnum" 
d="M365 81v85c-33 -12 -89 -23 -133 -23c-127 0 -171 53 -171 159v29c0 117 35 189 192 189c144 0 195 -63 195 -157v-283c0 -166 -74 -226 -262 -226c-31 0 -78 4 -110 12l8 70c24 -5 65 -9 89 -9c155 0 192 33 192 154zM240 216c44 0 92 13 125 27v111
c0 71 -36 92 -112 92c-86 0 -109 -26 -109 -92v-52c0 -61 23 -86 96 -86z" />
    <glyph glyph-name="lessonum.tnum" 
d="M53 218v52l377 227l31 -54l-333 -199l335 -200l-32 -54z" />
    <glyph glyph-name="equalonum.tnum" 
d="M78 299v62h369v-62h-369zM78 121v62h369v-62h-369z" />
    <glyph glyph-name="greateronum.tnum" 
d="M471 270v-52l-378 -228l-32 54l335 200l-333 199l31 54z" />
    <glyph glyph-name="centonum.tnum" 
d="M251 35c-114 10 -157 61 -157 156v135c0 95 43 146 157 156v110h75v-108c39 -2 70 -6 104 -15l-7 -69c-45 8 -86 11 -126 11c-88 0 -120 -20 -120 -90v-125c0 -70 32 -90 120 -90c40 0 81 3 126 11l7 -69c-34 -9 -65 -13 -104 -15v-108h-75v110z" />
    <glyph glyph-name="sterlingonum.tnum" 
d="M71 224v63h78c-22 40 -31 76 -31 110c0 81 47 123 177 123c47 0 110 -8 155 -22l-9 -65c-42 10 -105 16 -149 16c-59 0 -90 -10 -90 -55c0 -44 16 -76 34 -107h192l-3 -63h-164c6 -18 8 -32 8 -47c0 -34 -17 -71 -64 -107h254v-70h-360v67c51 29 88 69 88 118
c0 12 -3 23 -10 39h-106z" />
    <glyph glyph-name="sectiononum.tnum" 
d="M258 23l-64 -33c-85 129 -126 264 -126 415c0 81 44 115 135 115c47 0 111 -11 155 -25l-11 -60c-46 10 -107 20 -139 20c-49 0 -63 -14 -63 -57c0 -140 40 -255 113 -375zM276 335l64 33c85 -129 126 -264 126 -415c0 -81 -43 -115 -135 -115c-47 0 -111 11 -155 25
l12 60c45 -10 106 -20 138 -20c49 0 64 14 64 57c0 140 -40 256 -114 375z" />
    <glyph glyph-name="yenonum.tnum" 
d="M66 214v55h93l-128 241h87l144 -281l144 281h87l-128 -241h93v-55h-122l-31 -58v-20h153v-53h-153v-83h-85v83h-154v53h154v20l-31 58h-123z" />
    <glyph glyph-name="florinonum.tnum" 
d="M189 196h-88l7 70h87l12 131c7 87 57 123 146 123c32 0 67 -5 97 -15l-13 -66c-24 6 -55 10 -77 10c-47 0 -65 -14 -69 -62l-11 -121h132l-9 -70h-129l-24 -277c-7 -80 -44 -116 -127 -116c-23 0 -61 6 -85 14l12 65c17 -4 39 -8 57 -8c48 0 55 15 59 60z" />
    <glyph glyph-name="endashonum.tnum" 
d="M79 244v69h366v-69h-366z" />
    <glyph glyph-name="divideonum.tnum" 
d="M466 277v-68h-408v68h408zM220 31v94h84v-94h-84zM220 361v94h84v-94h-84z" />
    <glyph glyph-name="Euroonum.tnum" 
d="M56 295v47h72v20c0 106 54 158 202 158c35 0 92 -4 137 -15l-7 -71c-45 8 -85 12 -129 12c-95 0 -118 -20 -118 -90v-14h188v-47h-188v-80h188v-47h-188v-14c0 -70 24 -90 118 -90c44 0 84 4 129 12l7 -71c-45 -11 -102 -15 -137 -15c-148 0 -202 52 -202 158v20h-72v47
h72v80h-72z" />
    <glyph glyph-name="perthousandonum.tnum" horiz-adv-x="1060" 
d="M229 16l230 504l56 -25l-231 -505zM310 408v-65c0 -73 -38 -112 -130 -112s-130 39 -130 112v65c0 73 38 112 130 112s130 -39 130 -112zM114 410v-69c0 -37 18 -54 66 -54s66 17 66 54v69c0 37 -18 54 -66 54s-66 -17 -66 -54zM693 167v-65c0 -73 -38 -112 -130 -112
s-130 39 -130 112v65c0 73 38 112 130 112s130 -39 130 -112zM497 169v-69c0 -37 18 -54 66 -54s66 17 66 54v69c0 37 -18 54 -66 54s-66 -17 -66 -54zM1015 167v-65c0 -73 -38 -112 -130 -112s-130 39 -130 112v65c0 73 38 112 130 112s130 -39 130 -112zM819 169v-69
c0 -37 18 -54 66 -54s66 17 66 54v69c0 37 -18 54 -66 54s-66 -17 -66 -54z" />
    <glyph glyph-name="minussmcp.tnum" 
d="M103 244v69h318v-69h-318z" />
    <glyph glyph-name="multiplysmcp.tnum" 
d="M404 433l50 -49l-141 -142l141 -141l-50 -50l-142 141l-141 -141l-50 50l141 141l-141 142l50 49l141 -140z" />
    <glyph glyph-name="numbersignsmcp.tnum" 
d="M479 126h-78l-6 -126h-61l6 126h-151l-7 -126h-61l7 126h-91l4 58h91l9 156h-90l4 58h89l7 122h61l-7 -122h151l8 122h61l-8 -122h79l-3 -58h-79l-9 -156h78zM201 340l-8 -156h151l9 156h-152z" />
    <glyph glyph-name="dollarsmcp.tnum" 
d="M225 -99v91c-46 3 -97 13 -135 29l11 67c52 -16 111 -25 160 -25c82 0 96 15 96 70c0 60 0 66 -111 94c-145 37 -151 66 -151 164c0 99 37 132 144 138v90h74v-91c37 -2 81 -8 116 -17l-7 -70c-43 9 -104 16 -143 16c-91 0 -101 -9 -101 -69s0 -64 109 -93
c141 -38 153 -57 153 -160c0 -88 -23 -135 -141 -143v-91h-74z" />
    <glyph glyph-name="percentsmcp.tnum" horiz-adv-x="750" 
d="M226 16l236 514l56 -26l-236 -514zM308 348c0 -67 -34 -112 -129 -112s-129 45 -129 112v70c0 67 34 112 129 112s129 -45 129 -112v-70zM243 417c0 35 -14 55 -64 55s-64 -20 -64 -55v-68c0 -35 14 -55 64 -55s64 20 64 55v68zM695 102c0 -67 -34 -112 -129 -112
s-129 45 -129 112v70c0 67 34 112 129 112s129 -45 129 -112v-70zM630 171c0 35 -14 55 -64 55s-64 -20 -64 -55v-68c0 -35 14 -55 64 -55s64 20 64 55v68z" />
    <glyph glyph-name="plussmcp.tnum" 
d="M59 208v70h166v169h74v-169h166v-70h-166v-169h-74v169h-166z" />
    <glyph glyph-name="zerosmcp.tnum" 
d="M459 138c0 -86 -54 -148 -197 -148c-142 0 -197 62 -197 148v244c0 86 55 148 197 148c143 0 197 -62 197 -148v-244zM375 372c0 56 -28 84 -113 84s-113 -28 -113 -84v-224c0 -56 28 -84 113 -84s113 28 113 84v224z" />
    <glyph glyph-name="onesmcp.tnum" 
d="M74 0v72h158v365l-148 -42l-18 70l174 55h76v-448h149v-72h-391z" />
    <glyph glyph-name="twosmcp.tnum" 
d="M92 0v68c61 59 75 73 147 143c93 91 106 105 106 151v26c0 53 -14 67 -106 67c-37 0 -95 -7 -135 -17l-10 71c42 13 104 21 153 21c142 0 182 -43 182 -134v-30c0 -70 -9 -91 -97 -179c-71 -71 -81 -81 -116 -115h223v-72h-347z" />
    <glyph glyph-name="threesmcp.tnum" 
d="M90 9l8 66c39 -9 90 -15 135 -15c88 0 112 15 112 66v40c0 45 -30 60 -88 60h-123v70h117c64 0 81 22 81 60v45c0 45 -23 59 -95 59c-42 0 -95 -5 -133 -13l-7 67c39 9 101 16 145 16c128 0 174 -39 174 -121v-48c0 -41 -8 -72 -58 -97c44 -12 71 -40 71 -97v-46
c0 -89 -50 -131 -193 -131c-41 0 -102 7 -146 19z" />
    <glyph glyph-name="foursmcp.tnum" 
d="M481 120h-85v-120h-81v120h-272v74l250 326h103v-333h85v-67zM128 187h187v253z" />
    <glyph glyph-name="fivesmcp.tnum" 
d="M104 229v291h320v-72h-237v-150c37 0 69 0 106 -1c110 -3 141 -54 141 -131v-40c0 -92 -49 -136 -192 -136c-46 0 -108 7 -155 22l10 67c44 -10 103 -17 146 -17c86 0 108 21 108 69v31c0 42 -18 65 -83 65c-66 1 -107 1 -164 2z" />
    <glyph glyph-name="sixsmcp.tnum" 
d="M169 348v-63c33 11 78 18 118 18c115 0 160 -40 160 -129v-46c0 -80 -42 -138 -180 -138c-143 0 -181 54 -181 135v224c0 129 58 181 225 181c36 0 82 -4 122 -15l-8 -67c-35 8 -81 12 -109 12c-115 0 -147 -21 -147 -112zM280 232c-32 0 -79 -7 -111 -19v-87
c0 -51 33 -66 98 -66c74 0 97 20 97 66v46c0 46 -20 60 -84 60z" />
    <glyph glyph-name="sevensmcp.tnum" 
d="M67 447v73h388v-68l-263 -452h-90l264 447h-299z" />
    <glyph glyph-name="eightsmcp.tnum" 
d="M437 379c0 -46 -17 -82 -87 -113c71 -31 102 -63 102 -119v-29c0 -89 -58 -128 -190 -128s-190 39 -190 128v29c0 56 32 88 101 119c-68 31 -86 67 -86 113v25c0 73 45 126 175 126s175 -53 175 -126v-25zM371 145c0 43 -32 61 -109 88c-76 -27 -109 -45 -109 -88v-21
c0 -50 29 -67 109 -67s109 17 109 67v21zM168 376c0 -37 27 -54 94 -80c68 26 94 43 94 80v28c0 38 -25 60 -94 60s-94 -22 -94 -60v-28z" />
    <glyph glyph-name="ninesmcp.tnum" horiz-adv-x="529" 
d="M358 172v63c-33 -11 -78 -18 -118 -18c-115 0 -160 40 -160 129v46c0 86 49 138 180 138c135 0 181 -51 181 -135v-224c0 -129 -51 -181 -225 -181c-36 0 -82 4 -122 15l8 67c35 -8 81 -12 109 -12c115 0 147 21 147 112zM247 288c35 0 79 7 111 19v87
c0 51 -33 66 -98 66c-74 0 -97 -20 -97 -66v-46c0 -46 20 -60 84 -60z" />
    <glyph glyph-name="lesssmcp.tnum" 
d="M54 218v52l377 227l31 -54l-333 -199l335 -200l-32 -54z" />
    <glyph glyph-name="equalsmcp.tnum" 
d="M78 299v62h369v-62h-369zM78 121v62h369v-62h-369z" />
    <glyph glyph-name="greatersmcp.tnum" 
d="M470 270v-52l-378 -228l-32 54l335 200l-333 199l31 54z" />
    <glyph glyph-name="centsmcp.tnum" 
d="M248 -81v110c-114 10 -157 61 -157 156v149c0 94 43 146 157 156v111h75v-110c35 -1 73 -6 110 -14l-7 -70c-45 8 -92 11 -132 11c-85 0 -118 -20 -118 -90v-137c0 -70 33 -90 118 -90c40 0 87 3 132 11l7 -70c-34 -9 -71 -13 -110 -15v-108h-75z" />
    <glyph glyph-name="sterlingsmcp.tnum" 
d="M71 224v63h78c-22 43 -31 86 -31 120c0 81 47 123 177 123c47 0 110 -8 155 -22l-9 -65c-42 10 -105 16 -149 16c-59 0 -90 -10 -90 -55c0 -44 15 -83 34 -117h192l-3 -63h-164c6 -18 8 -32 8 -47c0 -34 -17 -71 -64 -107h254v-70h-360v67c51 29 88 69 88 118
c0 12 -3 23 -10 39h-106z" />
    <glyph glyph-name="sectionsmcp.tnum" 
d="M275 335l57 35c92 -126 137 -269 137 -420c0 -81 -41 -120 -145 -120c-47 0 -97 10 -145 25l12 60c45 -10 97 -20 130 -20c53 0 72 11 72 57c0 140 -34 257 -118 383zM258 25l-57 -35c-92 126 -137 269 -137 420c0 81 41 120 145 120c47 0 97 -10 145 -25l-12 -60
c-45 10 -97 20 -130 20c-53 0 -72 -11 -72 -57c0 -140 34 -257 118 -383z" />
    <glyph glyph-name="yensmcp.tnum" 
d="M66 214v55h93l-133 251h87l149 -286l149 286h87l-133 -251h93v-55h-122l-31 -58v-20h153v-53h-153v-83h-85v83h-154v53h154v20l-31 58h-123z" />
    <glyph glyph-name="florinsmcp.tnum" 
d="M194 203h-88l6 70h88l12 134c7 87 56 123 146 123c37 0 76 -6 106 -17l-11 -65c-30 8 -66 11 -88 11c-49 0 -65 -14 -70 -62l-11 -124h133l-8 -70h-131l-25 -284c-7 -81 -40 -116 -127 -116c-31 0 -70 7 -93 15l11 65c17 -4 41 -9 67 -9c45 0 54 12 58 53z" />
    <glyph glyph-name="endashsmcp.tnum" 
d="M79 244v69h366v-69h-366z" />
    <glyph glyph-name="dividesmcp.tnum" 
d="M466 277v-68h-408v68h408zM220 31v94h84v-94h-84zM220 361v94h84v-94h-84z" />
    <glyph glyph-name="Eurosmcp.tnum" 
d="M60 300v47h72v25c0 106 54 158 202 158c35 0 92 -4 137 -15l-7 -71c-45 8 -85 12 -129 12c-95 0 -118 -20 -118 -90v-19h188v-47h-188v-80h188v-47h-188v-19c0 -70 24 -90 118 -90c44 0 84 4 129 12l7 -71c-45 -11 -102 -15 -137 -15c-148 0 -202 52 -202 158v25h-72v47
h72v80h-72z" />
    <glyph glyph-name="perthousandsmcp.tnum" horiz-adv-x="1065" 
d="M226 16l236 514l56 -26l-236 -514zM308 348c0 -67 -34 -112 -129 -112s-129 45 -129 112v70c0 67 34 112 129 112s129 -45 129 -112v-70zM243 417c0 35 -14 55 -64 55s-64 -20 -64 -55v-68c0 -35 14 -55 64 -55s64 20 64 55v68zM695 102c0 -67 -34 -112 -129 -112
s-129 45 -129 112v70c0 67 34 112 129 112s129 -45 129 -112v-70zM630 171c0 35 -14 55 -64 55s-64 -20 -64 -55v-68c0 -35 14 -55 64 -55s64 20 64 55v68zM1010 102c0 -67 -34 -112 -129 -112s-129 45 -129 112v70c0 67 34 112 129 112s129 -45 129 -112v-70zM945 171
c0 35 -14 55 -64 55s-64 -20 -64 -55v-68c0 -35 14 -55 64 -55s64 20 64 55v68z" />
    <glyph glyph-name="minus.smcp" horiz-adv-x="438" 
d="M60 244v69h318v-69h-318z" />
    <glyph glyph-name="multiply.smcp" horiz-adv-x="523" 
d="M403 433l50 -49l-141 -142l141 -141l-50 -50l-142 141l-141 -141l-50 50l141 141l-141 142l50 49l141 -140z" />
    <glyph glyph-name="exclam.smcp" horiz-adv-x="278" 
d="M161 167h-44l-21 118v235h86v-235zM95 0v106h88v-106h-88z" />
    <glyph glyph-name="numbersign.smcp" horiz-adv-x="647" 
d="M389 0l8 124h-162l-8 -124h-67l8 124h-108l3 60h109l11 156h-109l4 60h109l8 120h67l-8 -120h162l8 120h67l-8 -120h109l-4 -60h-109l-11 -156h109l-3 -60h-110l-8 -124h-67zM250 340l-11 -156h162l11 156h-162z" />
    <glyph glyph-name="dollar.smcp" horiz-adv-x="466" 
d="M195 -99v91c-46 3 -97 13 -135 29l11 67c52 -16 111 -25 160 -25c82 0 96 15 96 70c0 60 0 66 -111 94c-145 37 -151 66 -151 164c0 99 37 132 144 138v90h74v-91c37 -2 81 -8 116 -17l-7 -70c-43 9 -104 16 -143 16c-91 0 -101 -9 -101 -69s0 -64 109 -93
c141 -38 153 -57 153 -160c0 -88 -23 -135 -141 -143v-91h-74z" />
    <glyph glyph-name="percent.smcp" horiz-adv-x="750" 
d="M226 16l236 514l56 -26l-236 -514zM308 348c0 -67 -34 -112 -129 -112s-129 45 -129 112v70c0 67 34 112 129 112s129 -45 129 -112v-70zM243 417c0 35 -14 55 -64 55s-64 -20 -64 -55v-68c0 -35 14 -55 64 -55s64 20 64 55v68zM695 102c0 -67 -34 -112 -129 -112
s-129 45 -129 112v70c0 67 34 112 129 112s129 -45 129 -112v-70zM630 171c0 35 -14 55 -64 55s-64 -20 -64 -55v-68c0 -35 14 -55 64 -55s64 20 64 55v68z" />
    <glyph glyph-name="ampersand.smcp" horiz-adv-x="571" 
d="M536 227h-78v-212c-55 -16 -129 -25 -189 -25c-153 0 -189 40 -189 127v47c0 52 19 81 68 100c-43 21 -55 48 -55 89v57c0 89 55 120 181 120c56 0 122 -7 167 -18l-6 -66c-57 10 -125 13 -162 13c-72 0 -96 -8 -96 -52v-53c0 -38 19 -59 73 -59h286v-68zM275 59
c32 0 66 3 105 10v158h-133c-59 0 -83 -15 -83 -65v-37c0 -52 18 -66 111 -66z" />
    <glyph glyph-name="plus.smcp" horiz-adv-x="526" 
d="M60 208v70h166v169h74v-169h166v-70h-166v-169h-74v169h-166z" />
    <glyph glyph-name="zero.smcp" horiz-adv-x="534" 
d="M464 138c0 -86 -54 -148 -197 -148c-142 0 -197 62 -197 148v244c0 86 55 148 197 148c143 0 197 -62 197 -148v-244zM380 372c0 56 -28 84 -113 84s-113 -28 -113 -84v-224c0 -56 28 -84 113 -84s113 28 113 84v224z" />
    <glyph glyph-name="one.smcp" horiz-adv-x="345" 
d="M48 363l-36 67l167 90h76v-520h-84v427z" />
    <glyph glyph-name="two.smcp" horiz-adv-x="470" 
d="M56 0v68c61 59 75 73 147 143c93 91 106 105 106 151v26c0 53 -14 67 -106 67c-37 0 -95 -7 -135 -17l-10 71c42 13 104 21 153 21c142 0 182 -43 182 -134v-30c0 -70 -9 -91 -97 -179c-71 -71 -81 -81 -116 -115h223v-72h-347z" />
    <glyph glyph-name="three.smcp" horiz-adv-x="454" 
d="M50 9l8 66c39 -9 90 -15 135 -15c88 0 112 15 112 66v40c0 45 -30 60 -88 60h-123v70h117c64 0 81 22 81 60v45c0 45 -23 59 -95 59c-42 0 -95 -5 -133 -13l-7 67c39 9 101 16 145 16c128 0 174 -39 174 -121v-48c0 -41 -8 -72 -58 -97c44 -12 71 -40 71 -97v-46
c0 -89 -50 -131 -193 -131c-41 0 -102 7 -146 19z" />
    <glyph glyph-name="four.smcp" horiz-adv-x="493" 
d="M463 120h-85v-120h-81v120h-272v74l250 326h103v-333h85v-67zM110 187h187v253z" />
    <glyph glyph-name="five.smcp" horiz-adv-x="475" 
d="M82 229v291h320v-72h-237v-150c37 0 69 0 106 -1c110 -3 141 -54 141 -131v-40c0 -92 -49 -136 -192 -136c-46 0 -108 7 -155 22l10 67c44 -10 103 -17 146 -17c86 0 108 21 108 69v31c0 42 -18 65 -83 65c-66 1 -107 1 -164 2z" />
    <glyph glyph-name="six.smcp" horiz-adv-x="489" 
d="M153 348v-63c33 11 78 18 118 18c115 0 160 -40 160 -129v-46c0 -80 -42 -138 -180 -138c-143 0 -181 54 -181 135v224c0 129 58 181 225 181c36 0 82 -4 122 -15l-8 -67c-35 8 -81 12 -109 12c-115 0 -147 -21 -147 -112zM264 232c-32 0 -79 -7 -111 -19v-87
c0 -51 33 -66 98 -66c74 0 97 20 97 66v46c0 46 -20 60 -84 60z" />
    <glyph glyph-name="seven.smcp" horiz-adv-x="425" 
d="M35 446v74h370v-69l-242 -451h-89l242 446h-281z" />
    <glyph glyph-name="eight.smcp" horiz-adv-x="500" 
d="M425 379c0 -46 -17 -82 -87 -113c71 -31 102 -63 102 -119v-29c0 -89 -58 -128 -190 -128s-190 39 -190 128v29c0 56 32 88 101 119c-68 31 -86 67 -86 113v25c0 73 45 126 175 126s175 -53 175 -126v-25zM359 145c0 43 -32 61 -109 88c-76 -27 -109 -45 -109 -88v-21
c0 -50 29 -67 109 -67s109 17 109 67v21zM156 376c0 -37 27 -54 94 -80c68 26 94 43 94 80v28c0 38 -25 60 -94 60s-94 -22 -94 -60v-28z" />
    <glyph glyph-name="nine.smcp" horiz-adv-x="486" 
d="M333 172v63c-33 -11 -78 -18 -118 -18c-115 0 -160 40 -160 129v46c0 86 49 138 180 138c135 0 181 -51 181 -135v-224c0 -129 -51 -181 -225 -181c-36 0 -82 4 -122 15l8 67c35 -8 81 -12 109 -12c115 0 147 21 147 112zM222 288c35 0 79 7 111 19v87
c0 51 -33 66 -98 66c-74 0 -97 -20 -97 -66v-46c0 -46 20 -60 84 -60z" />
    <glyph glyph-name="less.smcp" horiz-adv-x="558" 
d="M50 270l413 228l30 -55l-365 -199l365 -199l-30 -55l-413 228v52z" />
    <glyph glyph-name="equal.smcp" horiz-adv-x="509" 
d="M70 299v62h369v-62h-369zM70 121v62h369v-62h-369z" />
    <glyph glyph-name="greater.smcp" horiz-adv-x="558" 
d="M95 498l413 -228v-52l-413 -228l-30 55l365 199l-365 199z" />
    <glyph glyph-name="question.smcp" horiz-adv-x="449" 
d="M201 165l-42 64c38 24 58 37 97 63c42 28 44 31 44 92c0 64 -14 76 -101 76c-31 0 -87 -5 -125 -12l-9 68c45 10 102 14 146 14c141 0 173 -39 173 -144c0 -81 0 -98 -68 -145c-43 -29 -62 -42 -115 -76zM148 0v102h88v-102h-88z" />
    <glyph glyph-name="at.smcp" horiz-adv-x="659" 
d="M225 227l15 85c11 62 38 77 101 77c33 0 74 -9 108 -23l-30 -166c8 -2 20 -3 30 -3c68 0 93 50 93 111c0 98 -75 166 -200 166c-132 0 -219 -85 -219 -214c0 -133 69 -214 243 -214c53 0 106 9 160 27l13 -49c-49 -23 -119 -34 -174 -34c-213 0 -305 105 -305 269
c0 161 113 271 284 271c172 0 260 -102 260 -221c0 -95 -48 -160 -152 -160c-35 0 -62 13 -78 31c-24 -15 -57 -23 -87 -23c-51 0 -69 31 -62 70zM368 222l20 113c-18 5 -35 7 -48 7c-29 0 -41 -7 -45 -31l-15 -83c-3 -17 2 -23 23 -23s45 6 65 17z" />
    <glyph glyph-name="a.smcp" horiz-adv-x="570" 
d="M337 520l193 -520h-85l-44 116h-233l-43 -116h-85l193 520h104zM379 185l-94 272l-94 -272h188z" />
    <glyph glyph-name="b.smcp" horiz-adv-x="524" 
d="M336 0h-246v520h237c94 0 132 -38 132 -109v-60c0 -36 -11 -62 -57 -82c50 -14 76 -42 76 -97v-54c0 -74 -46 -118 -142 -118zM394 124v50c0 39 -21 57 -70 57h-149v-163h152c51 0 67 23 67 56zM375 354v51c0 34 -19 47 -57 47h-143v-153h137c48 0 63 21 63 55z" />
    <glyph glyph-name="c.smcp" horiz-adv-x="485" 
d="M158 154c0 -70 33 -90 118 -90c40 0 102 5 147 13l7 -71c-55 -12 -109 -16 -155 -16c-148 0 -202 52 -202 158v224c0 106 54 158 202 158c46 0 100 -4 155 -16l-7 -71c-45 8 -107 13 -147 13c-85 0 -118 -20 -118 -90v-212z" />
    <glyph glyph-name="d.smcp" horiz-adv-x="552" 
d="M90 520h208c147 0 184 -68 184 -164v-192c0 -96 -37 -164 -184 -164h-208v520zM175 446v-372h117c79 0 105 27 105 90v192c0 63 -26 90 -105 90h-117z" />
    <glyph glyph-name="e.smcp" horiz-adv-x="501" 
d="M90 0v520h345v-74h-260v-146h241v-74h-241v-152h261v-74h-346z" />
    <glyph glyph-name="f.smcp" horiz-adv-x="485" 
d="M175 0h-85v520h349v-74h-264v-159h245v-74h-245v-213z" />
    <glyph glyph-name="g.smcp" horiz-adv-x="534" 
d="M158 364v-209c0 -64 21 -91 113 -91c40 0 76 4 107 10v168h81v-226c-58 -18 -139 -26 -189 -26c-148 0 -197 54 -197 156v227c0 111 57 157 208 157c54 0 113 -5 163 -16l-8 -72c-55 9 -115 13 -161 13c-90 0 -117 -19 -117 -91z" />
    <glyph glyph-name="h.smcp" horiz-adv-x="594" 
d="M504 0h-85v228h-244v-228h-85v520h85v-218h244v218h85v-520z" />
    <glyph glyph-name="i.smcp" horiz-adv-x="275" 
d="M180 520v-520h-85v520h85z" />
    <glyph glyph-name="j.smcp" horiz-adv-x="265" 
d="M90 520h85v-512c0 -61 -6 -72 -116 -169l-51 57c82 77 82 79 82 112v512z" />
    <glyph glyph-name="k.smcp" horiz-adv-x="554" 
d="M504 520l-211 -255l226 -265h-103l-220 265l207 255h101zM175 520v-520h-85v520h85z" />
    <glyph glyph-name="l.smcp" horiz-adv-x="479" 
d="M175 520v-445h259v-75h-344v520h85z" />
    <glyph glyph-name="m.smcp" horiz-adv-x="718" 
d="M555 0l-12 396l-133 -331h-102l-133 331l-12 -396h-83l22 520h101l156 -388l156 388h101l22 -520h-83z" />
    <glyph glyph-name="n.smcp" horiz-adv-x="612" 
d="M415 0l-244 417v-417h-81v520h107l244 -417v417h81v-520h-107z" />
    <glyph glyph-name="o.smcp" horiz-adv-x="572" 
d="M499 364v-208c0 -89 -52 -166 -213 -166s-213 77 -213 166v208c0 89 52 166 213 166s213 -77 213 -166zM414 361c0 62 -36 94 -128 94c-93 0 -128 -32 -128 -94v-202c0 -62 35 -94 128 -94c92 0 128 32 128 94v202z" />
    <glyph glyph-name="p.smcp" horiz-adv-x="515" 
d="M90 520h222c126 0 163 -51 163 -133v-85c0 -82 -37 -133 -163 -133h-137v-169h-85v520zM175 446v-203h142c59 0 73 20 73 67v69c0 47 -14 67 -73 67h-142z" />
    <glyph glyph-name="q.smcp" horiz-adv-x="572" 
d="M324 -142l-57 133c-146 6 -194 79 -194 165v208c0 89 52 166 213 166s213 -77 213 -166v-208c0 -76 -38 -143 -148 -161l47 -106zM414 361c0 62 -36 94 -128 94c-93 0 -128 -32 -128 -94v-202c0 -62 35 -94 128 -94c92 0 128 32 128 94v202z" />
    <glyph glyph-name="r.smcp" horiz-adv-x="570" 
d="M434 0l-116 172h-143v-172h-85v520h233c126 0 163 -51 163 -133v-82c0 -60 -20 -103 -79 -122l123 -183h-96zM175 446v-202h153c59 0 73 20 73 67v68c0 47 -14 67 -73 67h-153z" />
    <glyph glyph-name="s.smcp" horiz-adv-x="504" 
d="M439 135c0 -97 -29 -145 -190 -145c-54 0 -128 11 -179 31l12 67c55 -16 117 -25 168 -25c87 0 104 15 104 70c0 60 0 63 -119 94c-152 40 -159 66 -159 164c0 105 48 139 192 139c44 0 111 -7 159 -19l-7 -70c-45 9 -110 16 -151 16c-95 0 -108 -9 -108 -69
c0 -58 1 -61 117 -93c153 -41 161 -61 161 -160z" />
    <glyph glyph-name="t.smcp" horiz-adv-x="477" 
d="M196 0v445h-171v75h427v-75h-171v-445h-85z" />
    <glyph glyph-name="u.smcp" horiz-adv-x="590" 
d="M420 520h85v-371c0 -87 -51 -159 -210 -159s-210 72 -210 159v371h85v-364c0 -58 31 -91 125 -91s125 33 125 91v364z" />
    <glyph glyph-name="v.smcp" horiz-adv-x="506" 
d="M490 520l-182 -520h-110l-182 520h84l153 -448l153 448h84z" />
    <glyph glyph-name="w.smcp" horiz-adv-x="786" 
d="M443 520l117 -430l125 430h81l-154 -520h-104l-115 434l-115 -434h-104l-154 520h81l125 -430l117 430h100z" />
    <glyph glyph-name="x.smcp" horiz-adv-x="556" 
d="M327 264l187 -264h-91l-145 201l-145 -201h-91l187 264l-181 256h91l139 -195l139 195h91z" />
    <glyph glyph-name="y.smcp" horiz-adv-x="492" 
d="M246 234l149 286h87l-193 -364v-156h-85v156l-194 364h87z" />
    <glyph glyph-name="z.smcp" horiz-adv-x="528" 
d="M454 456l-279 -387h283v-69h-383v64l279 387h-276v69h376v-64z" />
    <glyph glyph-name="cent.smcp" horiz-adv-x="452" 
d="M217 -81v110c-114 10 -157 61 -157 156v149c0 94 43 146 157 156v111h75v-110c35 -1 73 -6 110 -14l-7 -70c-45 8 -92 11 -132 11c-85 0 -118 -20 -118 -90v-137c0 -70 33 -90 118 -90c40 0 87 3 132 11l7 -70c-34 -9 -71 -13 -110 -15v-108h-75z" />
    <glyph glyph-name="sterling.smcp" horiz-adv-x="518" 
d="M70 224v63h78c-22 43 -31 86 -31 120c0 81 47 123 177 123c47 0 110 -8 155 -22l-9 -65c-42 10 -105 16 -149 16c-59 0 -90 -10 -90 -55c0 -44 15 -83 34 -117h192l-3 -63h-164c6 -18 8 -32 8 -47c0 -34 -17 -71 -64 -107h254v-70h-360v67c51 29 88 69 88 118
c0 12 -3 23 -10 39h-106z" />
    <glyph glyph-name="section.smcp" 
d="M276 335l57 35c92 -126 137 -269 137 -420c0 -81 -41 -120 -145 -120c-47 0 -97 10 -145 25l12 60c45 -10 97 -20 130 -20c53 0 72 11 72 57c0 140 -34 257 -118 383zM259 25l-57 -35c-92 126 -137 269 -137 420c0 81 41 120 145 120c47 0 97 -10 145 -25l-12 -60
c-45 10 -97 20 -130 20c-53 0 -72 -11 -72 -57c0 -140 34 -257 118 -383z" />
    <glyph glyph-name="paragraph.smcp" horiz-adv-x="504" 
d="M342 520h72v-559c0 -48 -6 -53 -127 -168l-46 51c96 91 101 97 101 122v554zM60 311c0 119 90 209 208 209v-417c-118 0 -208 90 -208 208z" />
    <glyph glyph-name="germandbls.smcp" horiz-adv-x="1008" 
d="M439 135c0 -97 -29 -145 -190 -145c-54 0 -128 11 -179 31l12 67c55 -16 117 -25 168 -25c87 0 104 15 104 70c0 60 0 63 -119 94c-152 40 -159 66 -159 164c0 105 48 139 192 139c44 0 111 -7 159 -19l-7 -70c-45 9 -110 16 -151 16c-95 0 -108 -9 -108 -69
c0 -58 1 -61 117 -93c153 -41 161 -61 161 -160zM943 135c0 -97 -29 -145 -190 -145c-54 0 -128 11 -179 31l12 67c55 -16 117 -25 168 -25c87 0 104 15 104 70c0 60 0 63 -119 94c-152 40 -159 66 -159 164c0 105 48 139 192 139c44 0 111 -7 159 -19l-7 -70
c-45 9 -110 16 -151 16c-95 0 -108 -9 -108 -69c0 -58 1 -61 117 -93c153 -41 161 -61 161 -160z" />
    <glyph glyph-name="yen.smcp" horiz-adv-x="512" 
d="M60 214v55h93l-133 251h87l149 -286l149 286h87l-133 -251h93v-55h-122l-31 -58v-20h153v-53h-153v-83h-85v83h-154v53h154v20l-31 58h-123z" />
    <glyph glyph-name="ae.smcp" horiz-adv-x="756" 
d="M690 520v-74h-326l54 -146h253v-74h-225l56 -152h189v-74h-246l-44 116h-233l-43 -116h-85l193 520h457zM379 185l-94 272l-94 -272h188z" />
    <glyph glyph-name="oslash.smcp" horiz-adv-x="572" 
d="M73 -37l47 75c-34 30 -47 73 -47 118v208c0 89 52 166 213 166c55 0 97 -9 129 -25l47 75l37 -23l-48 -75c35 -31 48 -73 48 -118v-208c0 -89 -52 -166 -213 -166c-55 0 -97 9 -129 24l-47 -74zM158 159c0 -18 3 -34 9 -47l206 327c-21 11 -49 16 -87 16
c-93 0 -128 -32 -128 -94v-202zM414 361c0 18 -3 33 -10 46l-205 -326c20 -11 48 -16 87 -16c92 0 128 32 128 94v202z" />
    <glyph glyph-name="questiondown.smcp" horiz-adv-x="444" 
d="M248 355l42 -64c-38 -24 -58 -37 -97 -63c-42 -28 -44 -31 -44 -92c0 -64 14 -76 101 -76c31 0 87 5 125 12l9 -68c-45 -10 -102 -14 -146 -14c-141 0 -173 39 -173 144c0 81 0 98 68 145c43 29 62 42 115 76zM301 520v-102h-88v102h88z" />
    <glyph glyph-name="exclamdown.smcp" horiz-adv-x="278" 
d="M117 353h44l21 -118v-235h-86v235zM95 414v106h88v-106h-88z" />
    <glyph glyph-name="florin.smcp" horiz-adv-x="476" 
d="M166 203h-88l6 70h88l12 134c7 87 56 123 146 123c37 0 76 -6 106 -17l-11 -65c-30 8 -66 11 -88 11c-49 0 -65 -14 -70 -62l-11 -124h133l-8 -70h-131l-25 -284c-7 -81 -40 -116 -127 -116c-31 0 -70 7 -93 15l11 65c17 -4 41 -9 67 -9c45 0 54 12 58 53z" />
    <glyph glyph-name="oe.smcp" horiz-adv-x="813" 
d="M73 354c0 89 52 166 213 166h461v-74h-260v-146h241v-74h-241v-152h261v-74h-462c-161 0 -213 77 -213 166v188zM402 445h-116c-93 0 -128 -32 -128 -94v-182c0 -62 35 -94 128 -94h116v370z" />
    <glyph glyph-name="endash.smcp" horiz-adv-x="486" 
d="M60 244v69h366v-69h-366z" />
    <glyph glyph-name="divide.smcp" horiz-adv-x="538" 
d="M473 277v-68h-408v68h408zM227 31v94h84v-94h-84zM227 361v94h84v-94h-84z" />
    <glyph glyph-name="Euro.smcp" horiz-adv-x="501" 
d="M40 300v47h72v25c0 106 54 158 202 158c35 0 92 -4 137 -15l-7 -71c-45 8 -85 12 -129 12c-95 0 -118 -20 -118 -90v-19h188v-47h-188v-80h188v-47h-188v-19c0 -70 24 -90 118 -90c44 0 84 4 129 12l7 -71c-45 -11 -102 -15 -137 -15c-148 0 -202 52 -202 158v25h-72v47
h72v80h-72z" />
    <glyph glyph-name="fi.smcp" horiz-adv-x="760" 
d="M175 0h-85v520h349v-74h-264v-159h245v-74h-245v-213zM665 520v-520h-85v520h85z" />
    <glyph glyph-name="fl.smcp" horiz-adv-x="964" 
d="M175 0h-85v520h349v-74h-264v-159h245v-74h-245v-213zM660 520v-445h259v-75h-344v520h85z" />
    <glyph glyph-name="perthousand.smcp" horiz-adv-x="1065" 
d="M226 16l236 514l56 -26l-236 -514zM308 348c0 -67 -34 -112 -129 -112s-129 45 -129 112v70c0 67 34 112 129 112s129 -45 129 -112v-70zM243 417c0 35 -14 55 -64 55s-64 -20 -64 -55v-68c0 -35 14 -55 64 -55s64 20 64 55v68zM695 102c0 -67 -34 -112 -129 -112
s-129 45 -129 112v70c0 67 34 112 129 112s129 -45 129 -112v-70zM630 171c0 35 -14 55 -64 55s-64 -20 -64 -55v-68c0 -35 14 -55 64 -55s64 20 64 55v68zM1010 102c0 -67 -34 -112 -129 -112s-129 45 -129 112v70c0 67 34 112 129 112s129 -45 129 -112v-70zM945 171
c0 35 -14 55 -64 55s-64 -20 -64 -55v-68c0 -35 14 -55 64 -55s64 20 64 55v68z" />
    <glyph glyph-name="dotlessi.smcp" horiz-adv-x="275" 
d="M180 520v-520h-85v520h85z" />
    <glyph glyph-name="acute.smcp" horiz-adv-x="303" 
d="M104 571l-34 52c42 25 82 50 126 83l37 -56c-43 -30 -82 -55 -129 -79z" />
    <glyph glyph-name="breve.smcp" horiz-adv-x="384" 
d="M276 678l43 -30c-18 -40 -58 -75 -127 -75s-109 35 -127 75l43 30c19 -33 45 -50 84 -50s65 17 84 50z" />
    <glyph glyph-name="caron.smcp" horiz-adv-x="382" 
d="M290 694l27 -46c-47 -28 -80 -50 -126 -86c-46 36 -79 58 -126 86l27 46c43 -22 67 -38 99 -59c31 21 56 37 99 59z" />
    <glyph glyph-name="cedilla.smcp" horiz-adv-x="310" 
d="M245 -119c0 -45 -32 -78 -100 -78c-26 0 -57 6 -80 15l10 41c17 -5 43 -10 62 -10c38 0 54 12 54 31c0 21 -13 29 -42 29c-12 0 -20 -2 -30 -5l-29 13l21 96h48l-14 -69c9 2 19 3 27 3c44 0 73 -21 73 -66z" />
    <glyph glyph-name="circumflex.smcp" horiz-adv-x="382" 
d="M317 609l-27 -46c-43 22 -68 38 -99 59c-32 -21 -56 -37 -99 -59l-27 46c47 28 80 50 126 86c46 -36 79 -58 126 -86z" />
    <glyph glyph-name="commaaccent.smcp" horiz-adv-x="288" 
d="M104 -158v107h84v-107l-49 -101l-39 17l33 84h-29z" />
    <glyph glyph-name="dieresis.smcp" horiz-adv-x="404" 
d="M75 578v79h80v-79h-80zM250 578v79h79v-79h-79z" />
    <glyph glyph-name="dotaccent.smcp" horiz-adv-x="214" 
d="M149 577h-84v121h84v-121z" />
    <glyph glyph-name="grave.smcp" horiz-adv-x="303" 
d="M233 623l-34 -52c-47 24 -86 49 -129 79l37 56c44 -33 84 -58 126 -83z" />
    <glyph glyph-name="hungarumlaut.smcp" horiz-adv-x="435" 
d="M106 571l-41 47c40 33 65 56 99 91l46 -50c-34 -33 -67 -62 -104 -88zM266 571l-41 47c40 33 65 56 99 91l46 -50c-34 -33 -67 -62 -104 -88z" />
    <glyph glyph-name="macron.smcp" horiz-adv-x="371" 
d="M65 587v61h241v-61h-241z" />
    <glyph glyph-name="ogonek.smcp" horiz-adv-x="297" 
d="M232 -194c-16 -9 -37 -13 -61 -13c-64 0 -106 30 -106 90c0 53 40 91 80 117h87c-59 -37 -97 -68 -97 -113c0 -24 14 -39 47 -39c16 0 26 2 37 6z" />
    <glyph glyph-name="ring.smcp" horiz-adv-x="275" 
d="M210 625c0 -40 -25 -71 -72 -71c-48 0 -73 30 -73 71c0 40 25 70 73 70c47 0 72 -30 72 -70zM169 625c0 21 -10 33 -31 33s-32 -12 -32 -33s11 -34 32 -34s31 13 31 34z" />
    <glyph glyph-name="tilde.smcp" horiz-adv-x="417" 
d="M206 590c-20 11 -34 19 -53 19c-22 0 -37 -16 -52 -33l-36 34c20 32 53 60 89 60c20 0 35 -6 57 -17c26 -13 40 -20 55 -20c19 0 32 9 45 30l41 -28c-17 -37 -45 -63 -86 -63c-20 0 -35 5 -60 18z" />
    <glyph glyph-name="aacute.smcp" horiz-adv-x="570" 
d="M337 520l193 -520h-85l-44 116h-233l-43 -116h-85l193 520h104zM379 185l-94 272l-94 -272h188zM288 571l-34 52c42 25 82 50 126 83l37 -56c-43 -30 -82 -55 -129 -79z" />
    <glyph glyph-name="aeacute.smcp" horiz-adv-x="756" 
d="M690 520v-74h-326l54 -146h253v-74h-225l56 -152h189v-74h-246l-44 116h-233l-43 -116h-85l193 520h457zM379 185l-94 272l-94 -272h188zM322 571l-34 52c42 25 82 50 126 83l37 -56c-43 -30 -82 -55 -129 -79z" />
    <glyph glyph-name="abreve.smcp" horiz-adv-x="570" 
d="M337 520l193 -520h-85l-44 116h-233l-43 -116h-85l193 520h104zM379 185l-94 272l-94 -272h188zM369 678l43 -30c-18 -40 -58 -75 -127 -75s-109 35 -127 75l43 30c19 -33 45 -50 84 -50s65 17 84 50z" />
    <glyph glyph-name="acircumflex.smcp" horiz-adv-x="570" 
d="M337 520l193 -520h-85l-44 116h-233l-43 -116h-85l193 520h104zM379 185l-94 272l-94 -272h188zM411 609l-27 -46c-43 22 -68 38 -99 59c-32 -21 -56 -37 -99 -59l-27 46c47 28 80 50 126 86c46 -36 79 -58 126 -86z" />
    <glyph glyph-name="adieresis.smcp" horiz-adv-x="570" 
d="M337 520l193 -520h-85l-44 116h-233l-43 -116h-85l193 520h104zM379 185l-94 272l-94 -272h188zM158 578v79h80v-79h-80zM333 578v79h79v-79h-79z" />
    <glyph glyph-name="agrave.smcp" horiz-adv-x="570" 
d="M337 520l193 -520h-85l-44 116h-233l-43 -116h-85l193 520h104zM379 185l-94 272l-94 -272h188zM325 622l-34 -52c-47 24 -86 49 -129 79l37 56c44 -33 84 -58 126 -83z" />
    <glyph glyph-name="amacron.smcp" horiz-adv-x="570" 
d="M337 520l193 -520h-85l-44 116h-233l-43 -116h-85l193 520h104zM379 185l-94 272l-94 -272h188zM165 587v61h241v-61h-241z" />
    <glyph glyph-name="aogonek.smcp" horiz-adv-x="570" 
d="M530 -194c-16 -9 -37 -13 -61 -13c-64 0 -106 30 -106 90c0 53 42 91 82 117l-44 116h-233l-43 -116h-85l193 520h104l193 -520c-59 -37 -97 -68 -97 -113c0 -24 14 -39 47 -39c16 0 26 2 37 6zM379 185l-94 272l-94 -272h188z" />
    <glyph glyph-name="aring.smcp" horiz-adv-x="570" 
d="M337 520l193 -520h-85l-44 116h-233l-43 -116h-85l193 520h104zM379 185l-94 272l-94 -272h188zM358 625c0 -40 -25 -71 -72 -71c-48 0 -73 30 -73 71c0 40 25 70 73 70c47 0 72 -30 72 -70zM317 625c0 21 -10 33 -31 33s-32 -12 -32 -33s11 -34 32 -34s31 13 31 34z" />
    <glyph glyph-name="aringacute.smcp" horiz-adv-x="570" 
d="M359 624c0 -40 -25 -73 -74 -73s-74 33 -74 73s25 73 74 73s74 -33 74 -73zM318 624c0 21 -12 36 -33 36s-33 -15 -33 -36s12 -36 33 -36s33 15 33 36zM285 717l-30 48c33 20 67 41 101 66l34 -51c-33 -23 -73 -46 -105 -63zM337 520l193 -520h-85l-44 116h-233l-43 -116
h-85l193 520h104zM379 185l-94 272l-94 -272h188z" />
    <glyph glyph-name="atilde.smcp" horiz-adv-x="570" 
d="M337 520l193 -520h-85l-44 116h-233l-43 -116h-85l193 520h104zM379 185l-94 272l-94 -272h188zM288 590c-20 11 -34 19 -53 19c-22 0 -37 -16 -52 -33l-36 34c20 32 53 60 89 60c20 0 35 -6 57 -17c26 -13 40 -20 55 -20c19 0 32 9 45 30l41 -28
c-17 -37 -45 -63 -86 -63c-20 0 -35 5 -60 18z" />
    <glyph glyph-name="cacute.smcp" horiz-adv-x="485" 
d="M158 154c0 -70 33 -90 118 -90c40 0 102 5 147 13l7 -71c-55 -12 -109 -16 -155 -16c-148 0 -202 52 -202 158v224c0 106 54 158 202 158c46 0 100 -4 155 -16l-7 -71c-45 8 -107 13 -147 13c-85 0 -118 -20 -118 -90v-212zM242 571l-34 52c42 25 82 50 126 83l37 -56
c-43 -30 -82 -55 -129 -79z" />
    <glyph glyph-name="ccircumflex.smcp" horiz-adv-x="485" 
d="M158 154c0 -70 33 -90 118 -90c40 0 102 5 147 13l7 -71c-55 -12 -109 -16 -155 -16c-148 0 -202 52 -202 158v224c0 106 54 158 202 158c46 0 100 -4 155 -16l-7 -71c-45 8 -107 13 -147 13c-85 0 -118 -20 -118 -90v-212zM399 609l-27 -46c-43 22 -68 38 -99 59
c-32 -21 -56 -37 -99 -59l-27 46c47 28 80 50 126 86c46 -36 79 -58 126 -86z" />
    <glyph glyph-name="ccaron.smcp" horiz-adv-x="485" 
d="M158 154c0 -70 33 -90 118 -90c40 0 102 5 147 13l7 -71c-55 -12 -109 -16 -155 -16c-148 0 -202 52 -202 158v224c0 106 54 158 202 158c46 0 100 -4 155 -16l-7 -71c-45 8 -107 13 -147 13c-85 0 -118 -20 -118 -90v-212zM375 694l27 -46c-47 -28 -80 -50 -126 -86
c-46 36 -79 58 -126 86l27 46c43 -22 67 -38 99 -59c31 21 56 37 99 59z" />
    <glyph glyph-name="cdotaccent.smcp" horiz-adv-x="485" 
d="M158 154c0 -70 33 -90 118 -90c40 0 102 5 147 13l7 -71c-55 -12 -109 -16 -155 -16c-148 0 -202 52 -202 158v224c0 106 54 158 202 158c46 0 100 -4 155 -16l-7 -71c-45 8 -107 13 -147 13c-85 0 -118 -20 -118 -90v-212zM317 577h-84v121h84v-121z" />
    <glyph glyph-name="ccedilla.smcp" horiz-adv-x="485" 
d="M381 -126c0 -45 -32 -78 -100 -78c-26 0 -57 6 -80 15l10 41c17 -5 43 -10 62 -10c38 0 54 12 54 31c0 21 -13 29 -42 29c-12 0 -20 -2 -30 -5l-29 13l17 81c-124 7 -170 59 -170 157v224c0 106 54 158 202 158c46 0 100 -4 155 -16l-7 -71c-45 8 -107 13 -147 13
c-85 0 -118 -20 -118 -90v-212c0 -70 33 -90 118 -90c40 0 102 5 147 13l7 -71c-49 -10 -96 -15 -138 -16l-11 -53c9 2 19 3 27 3c44 0 73 -21 73 -66z" />
    <glyph glyph-name="dcaron.smcp" horiz-adv-x="552" 
d="M90 520h208c147 0 184 -68 184 -164v-192c0 -96 -37 -164 -184 -164h-208v520zM175 446v-372h117c79 0 105 27 105 90v192c0 63 -26 90 -105 90h-117zM382 694l27 -46c-47 -28 -80 -50 -126 -86c-46 36 -79 58 -126 86l27 46c43 -22 67 -38 99 -59c31 21 56 37 99 59z
" />
    <glyph glyph-name="dcroat.smcp" horiz-adv-x="576" 
d="M55 230v63h59v227h208c147 0 184 -68 184 -164v-192c0 -96 -37 -164 -184 -164h-208v230h-59zM199 446v-153h104v-63h-104v-156h117c79 0 105 27 105 90v192c0 63 -26 90 -105 90h-117z" />
    <glyph glyph-name="eacute.smcp" horiz-adv-x="501" 
d="M90 0v520h345v-74h-260v-146h241v-74h-241v-152h261v-74h-346zM235 571l-34 52c42 25 82 50 126 83l37 -56c-43 -30 -82 -55 -129 -79z" />
    <glyph glyph-name="ebreve.smcp" horiz-adv-x="501" 
d="M90 0v520h345v-74h-260v-146h241v-74h-241v-152h261v-74h-346zM355 678l43 -30c-18 -40 -58 -75 -127 -75s-109 35 -127 75l43 30c19 -33 45 -50 84 -50s65 17 84 50z" />
    <glyph glyph-name="ecaron.smcp" horiz-adv-x="501" 
d="M90 0v520h345v-74h-260v-146h241v-74h-241v-152h261v-74h-346zM373 694l27 -46c-47 -28 -80 -50 -126 -86c-46 36 -79 58 -126 86l27 46c43 -22 67 -38 99 -59c31 21 56 37 99 59z" />
    <glyph glyph-name="ecircumflex.smcp" horiz-adv-x="501" 
d="M90 0v520h345v-74h-260v-146h241v-74h-241v-152h261v-74h-346zM394 609l-27 -46c-43 22 -68 38 -99 59c-32 -21 -56 -37 -99 -59l-27 46c47 28 80 50 126 86c46 -36 79 -58 126 -86z" />
    <glyph glyph-name="edieresis.smcp" horiz-adv-x="501" 
d="M90 0v520h345v-74h-260v-146h241v-74h-241v-152h261v-74h-346zM141 578v79h80v-79h-80zM316 578v79h79v-79h-79z" />
    <glyph glyph-name="edotaccent.smcp" horiz-adv-x="501" 
d="M90 0v520h345v-74h-260v-146h241v-74h-241v-152h261v-74h-346zM316 577h-84v121h84v-121z" />
    <glyph glyph-name="egrave.smcp" horiz-adv-x="501" 
d="M90 0v520h345v-74h-260v-146h241v-74h-241v-152h261v-74h-346zM320 623l-34 -52c-47 24 -86 49 -129 79l37 56c44 -33 84 -58 126 -83z" />
    <glyph glyph-name="emacron.smcp" horiz-adv-x="501" 
d="M90 0v520h345v-74h-260v-146h241v-74h-241v-152h261v-74h-346zM151 587v61h241v-61h-241z" />
    <glyph glyph-name="eng.smcp" horiz-adv-x="612" 
d="M415 0l-244 417v-417h-81v520h107l244 -417v417h81v-551c0 -69 -7 -78 -113 -171l-51 59c80 71 80 76 80 117v26h-23z" />
    <glyph glyph-name="eogonek.smcp" horiz-adv-x="501" 
d="M90 0v520h345v-74h-260v-146h241v-74h-241v-152h261v-74h-44c-59 -37 -97 -68 -97 -113c0 -24 14 -39 47 -39c16 0 26 2 37 6l13 -48c-16 -9 -37 -13 -61 -13c-64 0 -106 30 -106 90c0 53 41 87 93 117h-228z" />
    <glyph glyph-name="eth.smcp" horiz-adv-x="576" 
d="M55 230v63h59v227h208c147 0 184 -68 184 -164v-192c0 -96 -37 -164 -184 -164h-208v230h-59zM199 446v-153h104v-63h-104v-156h117c79 0 105 27 105 90v192c0 63 -26 90 -105 90h-117z" />
    <glyph glyph-name="gbreve.smcp" horiz-adv-x="534" 
d="M158 364v-209c0 -64 21 -91 113 -91c40 0 76 4 107 10v168h81v-226c-58 -18 -139 -26 -189 -26c-148 0 -197 54 -197 156v227c0 111 57 157 208 157c54 0 113 -5 163 -16l-8 -72c-55 9 -115 13 -161 13c-90 0 -117 -19 -117 -91zM369 678l43 -30
c-18 -40 -58 -75 -127 -75s-109 35 -127 75l43 30c19 -33 45 -50 84 -50s65 17 84 50z" />
    <glyph glyph-name="gcircumflex.smcp" horiz-adv-x="534" 
d="M158 364v-209c0 -64 21 -91 113 -91c40 0 76 4 107 10v168h81v-226c-58 -18 -139 -26 -189 -26c-148 0 -197 54 -197 156v227c0 111 57 157 208 157c54 0 113 -5 163 -16l-8 -72c-55 9 -115 13 -161 13c-90 0 -117 -19 -117 -91zM410 609l-27 -46c-43 22 -68 38 -99 59
c-32 -21 -56 -37 -99 -59l-27 46c47 28 80 50 126 86c46 -36 79 -58 126 -86z" />
    <glyph glyph-name="gcommaaccent.smcp" horiz-adv-x="534" 
d="M158 364v-209c0 -64 21 -91 113 -91c40 0 76 4 107 10v168h81v-226c-58 -18 -139 -26 -189 -26c-148 0 -197 54 -197 156v227c0 111 57 157 208 157c54 0 113 -5 163 -16l-8 -72c-55 9 -115 13 -161 13c-90 0 -117 -19 -117 -91zM243 -158v107h84v-107l-49 -101l-39 17
l33 84h-29z" />
    <glyph glyph-name="gdotaccent.smcp" horiz-adv-x="534" 
d="M158 364v-209c0 -64 21 -91 113 -91c40 0 76 4 107 10v168h81v-226c-58 -18 -139 -26 -189 -26c-148 0 -197 54 -197 156v227c0 111 57 157 208 157c54 0 113 -5 163 -16l-8 -72c-55 9 -115 13 -161 13c-90 0 -117 -19 -117 -91zM320 577h-84v121h84v-121z" />
    <glyph glyph-name="hbar.smcp" horiz-adv-x="604" 
d="M45 393v51h50v76h85v-76h244v76h85v-76h50v-51h-50v-393h-85v228h-244v-228h-85v393h-50zM180 302h244v91h-244v-91z" />
    <glyph glyph-name="hcircumflex.smcp" horiz-adv-x="594" 
d="M504 0h-85v228h-244v-228h-85v520h85v-218h244v218h85v-520zM423 609l-27 -46c-43 22 -68 38 -99 59c-32 -21 -56 -37 -99 -59l-27 46c47 28 80 50 126 86c46 -36 79 -58 126 -86z" />
    <glyph glyph-name="iacute.smcp" horiz-adv-x="275" 
d="M180 520v-520h-85v520h85zM136 571l-34 52c42 25 82 50 126 83l37 -56c-43 -30 -82 -55 -129 -79z" />
    <glyph glyph-name="ibreve.smcp" horiz-adv-x="275" 
d="M221 678l43 -30c-18 -40 -58 -75 -127 -75s-109 35 -127 75l43 30c19 -33 45 -50 84 -50s65 17 84 50zM180 520v-520h-85v520h85z" />
    <glyph glyph-name="icircumflex.smcp" horiz-adv-x="275" 
d="M180 520v-520h-85v520h85zM263 609l-27 -46c-43 22 -68 38 -99 59c-32 -21 -56 -37 -99 -59l-27 46c47 28 80 50 126 86c46 -36 79 -58 126 -86z" />
    <glyph glyph-name="idieresis.smcp" horiz-adv-x="275" 
d="M180 520v-520h-85v520h85zM10 578v79h80v-79h-80zM185 578v79h79v-79h-79z" />
    <glyph glyph-name="idotaccent.smcp" horiz-adv-x="275" 
d="M180 520v-520h-85v520h85zM179 577h-84v121h84v-121z" />
    <glyph glyph-name="igrave.smcp" horiz-adv-x="275" 
d="M180 520v-520h-85v520h85zM175 623l-34 -52c-47 24 -86 49 -129 79l37 56c44 -33 84 -58 126 -83z" />
    <glyph glyph-name="imacron.smcp" horiz-adv-x="275" 
d="M17 587v61h241v-61h-241zM180 520v-520h-85v520h85z" />
    <glyph glyph-name="iogonek.smcp" horiz-adv-x="275" 
d="M196 -194c-16 -9 -37 -13 -61 -13c-64 0 -106 30 -106 90c0 42 22 82 62 117v520h85v-520c-58 -41 -77 -78 -77 -113c0 -24 11 -39 44 -39c16 0 29 2 40 6z" />
    <glyph glyph-name="itilde.smcp" horiz-adv-x="275" 
d="M137 590c-20 11 -34 19 -53 19c-22 0 -37 -16 -52 -33l-36 34c20 32 53 60 89 60c20 0 35 -6 57 -17c26 -13 40 -20 55 -20c19 0 32 9 45 30l41 -28c-17 -37 -45 -63 -86 -63c-20 0 -35 5 -60 18zM180 520v-520h-85v520h85z" />
    <glyph glyph-name="ij.smcp" horiz-adv-x="540" 
d="M180 520v-520h-85v520h85zM365 520h85v-512c0 -61 -6 -72 -116 -169l-51 57c82 77 82 79 82 112v512z" />
    <glyph glyph-name="jcircumflex.smcp" horiz-adv-x="265" 
d="M90 520h85v-512c0 -61 -6 -72 -116 -169l-51 57c82 77 82 79 82 112v512zM259 609l-27 -46c-43 22 -68 38 -99 59c-32 -21 -56 -37 -99 -59l-27 46c47 28 80 50 126 86c46 -36 79 -58 126 -86z" />
    <glyph glyph-name="kcommaaccent.smcp" horiz-adv-x="554" 
d="M504 520l-211 -255l226 -265h-103l-220 265l207 255h101zM175 520v-520h-85v520h85zM236 -158v107h84v-107l-49 -101l-39 17l33 84h-29z" />
    <glyph glyph-name="lacute.smcp" horiz-adv-x="479" 
d="M175 520v-445h259v-75h-344v520h85zM130 571l-34 52c42 25 82 50 126 83l37 -56c-43 -30 -82 -55 -129 -79z" />
    <glyph glyph-name="lcaron.smcp" horiz-adv-x="479" 
d="M175 520v-445h259v-75h-344v520h85zM307 407v113h84v-113l-55 -108l-38 18l37 90h-28z" />
    <glyph glyph-name="lcommaaccent.smcp" horiz-adv-x="479" 
d="M175 520v-445h259v-75h-344v520h85zM238 -158v107h84v-107l-49 -101l-39 17l33 84h-29z" />
    <glyph glyph-name="ldot.smcp" horiz-adv-x="479" 
d="M286 231v115h86v-115h-86zM175 520v-445h259v-75h-344v520h85z" />
    <glyph glyph-name="lslash.smcp" horiz-adv-x="509" 
d="M205 520v-195l134 67l27 -55l-161 -80v-182h259v-75h-344v215l-63 -31l-27 55l90 44v237h85z" />
    <glyph glyph-name="nacute.smcp" horiz-adv-x="612" 
d="M415 0l-244 417v-417h-81v520h107l244 -417v417h81v-520h-107zM293 571l-34 52c42 25 82 50 126 83l37 -56c-43 -30 -82 -55 -129 -79z" />
    <glyph glyph-name="ncaron.smcp" horiz-adv-x="612" 
d="M415 0l-244 417v-417h-81v520h107l244 -417v417h81v-520h-107zM411 694l27 -46c-47 -28 -80 -50 -126 -86c-46 36 -79 58 -126 86l27 46c43 -22 67 -38 99 -59c31 21 56 37 99 59z" />
    <glyph glyph-name="ncommaaccent.smcp" horiz-adv-x="612" 
d="M415 0l-244 417v-417h-81v520h107l244 -417v417h81v-520h-107zM262 -158v107h84v-107l-49 -101l-39 17l33 84h-29z" />
    <glyph glyph-name="ntilde.smcp" horiz-adv-x="612" 
d="M415 0l-244 417v-417h-81v520h107l244 -417v417h81v-520h-107zM311 590c-20 11 -34 19 -53 19c-22 0 -37 -16 -52 -33l-36 34c20 32 53 60 89 60c20 0 35 -6 57 -17c26 -13 40 -20 55 -20c19 0 32 9 45 30l41 -28c-17 -37 -45 -63 -86 -63c-20 0 -35 5 -60 18z" />
    <glyph glyph-name="oacute.smcp" horiz-adv-x="572" 
d="M499 364v-208c0 -89 -52 -166 -213 -166s-213 77 -213 166v208c0 89 52 166 213 166s213 -77 213 -166zM414 361c0 62 -36 94 -128 94c-93 0 -128 -32 -128 -94v-202c0 -62 35 -94 128 -94c92 0 128 32 128 94v202zM262 571l-34 52c42 25 82 50 126 83l37 -56
c-43 -30 -82 -55 -129 -79z" />
    <glyph glyph-name="obreve.smcp" horiz-adv-x="572" 
d="M499 364v-208c0 -89 -52 -166 -213 -166s-213 77 -213 166v208c0 89 52 166 213 166s213 -77 213 -166zM414 361c0 62 -36 94 -128 94c-93 0 -128 -32 -128 -94v-202c0 -62 35 -94 128 -94c92 0 128 32 128 94v202zM370 678l43 -30c-18 -40 -58 -75 -127 -75
s-109 35 -127 75l43 30c19 -33 45 -50 84 -50s65 17 84 50z" />
    <glyph glyph-name="ocircumflex.smcp" horiz-adv-x="572" 
d="M499 364v-208c0 -89 -52 -166 -213 -166s-213 77 -213 166v208c0 89 52 166 213 166s213 -77 213 -166zM414 361c0 62 -36 94 -128 94c-93 0 -128 -32 -128 -94v-202c0 -62 35 -94 128 -94c92 0 128 32 128 94v202zM412 609l-27 -46c-43 22 -68 38 -99 59
c-32 -21 -56 -37 -99 -59l-27 46c47 28 80 50 126 86c46 -36 79 -58 126 -86z" />
    <glyph glyph-name="odieresis.smcp" horiz-adv-x="572" 
d="M499 364v-208c0 -89 -52 -166 -213 -166s-213 77 -213 166v208c0 89 52 166 213 166s213 -77 213 -166zM414 361c0 62 -36 94 -128 94c-93 0 -128 -32 -128 -94v-202c0 -62 35 -94 128 -94c92 0 128 32 128 94v202zM159 578v79h80v-79h-80zM334 578v79h79v-79h-79z" />
    <glyph glyph-name="ograve.smcp" horiz-adv-x="572" 
d="M499 364v-208c0 -89 -52 -166 -213 -166s-213 77 -213 166v208c0 89 52 166 213 166s213 -77 213 -166zM414 361c0 62 -36 94 -128 94c-93 0 -128 -32 -128 -94v-202c0 -62 35 -94 128 -94c92 0 128 32 128 94v202zM327 623l-34 -52c-47 24 -86 49 -129 79l37 56
c44 -33 84 -58 126 -83z" />
    <glyph glyph-name="ohungarumlaut.smcp" horiz-adv-x="572" 
d="M499 364v-208c0 -89 -52 -166 -213 -166s-213 77 -213 166v208c0 89 52 166 213 166s213 -77 213 -166zM414 361c0 62 -36 94 -128 94c-93 0 -128 -32 -128 -94v-202c0 -62 35 -94 128 -94c92 0 128 32 128 94v202zM205 571l-41 47c40 33 65 56 99 91l46 -50
c-34 -33 -67 -62 -104 -88zM365 571l-41 47c40 33 65 56 99 91l46 -50c-34 -33 -67 -62 -104 -88z" />
    <glyph glyph-name="omacron.smcp" horiz-adv-x="572" 
d="M499 364v-208c0 -89 -52 -166 -213 -166s-213 77 -213 166v208c0 89 52 166 213 166s213 -77 213 -166zM414 361c0 62 -36 94 -128 94c-93 0 -128 -32 -128 -94v-202c0 -62 35 -94 128 -94c92 0 128 32 128 94v202zM166 587v61h241v-61h-241z" />
    <glyph glyph-name="oslashacute.smcp" horiz-adv-x="572" 
d="M73 -37l47 75c-34 30 -47 73 -47 118v208c0 89 52 166 213 166c55 0 97 -9 129 -25l47 75l37 -23l-48 -75c35 -31 48 -73 48 -118v-208c0 -89 -52 -166 -213 -166c-55 0 -97 9 -129 24l-47 -74zM158 159c0 -18 3 -34 9 -47l206 327c-21 11 -49 16 -87 16
c-93 0 -128 -32 -128 -94v-202zM414 361c0 18 -3 33 -10 46l-205 -326c20 -11 48 -16 87 -16c92 0 128 32 128 94v202zM268 571l-34 52c42 25 82 50 126 83l37 -56c-43 -30 -82 -55 -129 -79z" />
    <glyph glyph-name="otilde.smcp" horiz-adv-x="572" 
d="M499 364v-208c0 -89 -52 -166 -213 -166s-213 77 -213 166v208c0 89 52 166 213 166s213 -77 213 -166zM414 361c0 62 -36 94 -128 94c-93 0 -128 -32 -128 -94v-202c0 -62 35 -94 128 -94c92 0 128 32 128 94v202zM287 590c-20 11 -34 19 -53 19c-22 0 -37 -16 -52 -33
l-36 34c20 32 53 60 89 60c20 0 35 -6 57 -17c26 -13 40 -20 55 -20c19 0 32 9 45 30l41 -28c-17 -37 -45 -63 -86 -63c-20 0 -35 5 -60 18z" />
    <glyph glyph-name="racute.smcp" horiz-adv-x="570" 
d="M434 0l-116 172h-143v-172h-85v520h233c126 0 163 -51 163 -133v-82c0 -60 -20 -103 -79 -122l123 -183h-96zM175 446v-202h153c59 0 73 20 73 67v68c0 47 -14 67 -73 67h-153zM247 571l-34 52c42 25 82 50 126 83l37 -56c-43 -30 -82 -55 -129 -79z" />
    <glyph glyph-name="rcaron.smcp" horiz-adv-x="570" 
d="M434 0l-116 172h-143v-172h-85v520h233c126 0 163 -51 163 -133v-82c0 -60 -20 -103 -79 -122l123 -183h-96zM175 446v-202h153c59 0 73 20 73 67v68c0 47 -14 67 -73 67h-153zM384 694l27 -46c-47 -28 -80 -50 -126 -86c-46 36 -79 58 -126 86l27 46
c43 -22 67 -38 99 -59c31 21 56 37 99 59z" />
    <glyph glyph-name="rcommaaccent.smcp" horiz-adv-x="570" 
d="M434 0l-116 172h-143v-172h-85v520h233c126 0 163 -51 163 -133v-82c0 -60 -20 -103 -79 -122l123 -183h-96zM175 446v-202h153c59 0 73 20 73 67v68c0 47 -14 67 -73 67h-153zM247 -158v107h84v-107l-49 -101l-39 17l33 84h-29z" />
    <glyph glyph-name="sacute.smcp" horiz-adv-x="504" 
d="M439 135c0 -97 -29 -145 -190 -145c-54 0 -128 11 -179 31l12 67c55 -16 117 -25 168 -25c87 0 104 15 104 70c0 60 0 63 -119 94c-152 40 -159 66 -159 164c0 105 48 139 192 139c44 0 111 -7 159 -19l-7 -70c-45 9 -110 16 -151 16c-95 0 -108 -9 -108 -69
c0 -58 1 -61 117 -93c153 -41 161 -61 161 -160zM236 571l-34 52c42 25 82 50 126 83l37 -56c-43 -30 -82 -55 -129 -79z" />
    <glyph glyph-name="scaron.smcp" horiz-adv-x="504" 
d="M439 135c0 -97 -29 -145 -190 -145c-54 0 -128 11 -179 31l12 67c55 -16 117 -25 168 -25c87 0 104 15 104 70c0 60 0 63 -119 94c-152 40 -159 66 -159 164c0 105 48 139 192 139c44 0 111 -7 159 -19l-7 -70c-45 9 -110 16 -151 16c-95 0 -108 -9 -108 -69
c0 -58 1 -61 117 -93c153 -41 161 -61 161 -160zM365 694l27 -46c-47 -28 -80 -50 -126 -86c-46 36 -79 58 -126 86l27 46c43 -22 67 -38 99 -59c31 21 56 37 99 59z" />
    <glyph glyph-name="scedilla.smcp" horiz-adv-x="504" 
d="M361 -119c0 -45 -32 -78 -100 -78c-26 0 -57 6 -80 15l10 41c17 -5 43 -10 62 -10c38 0 54 12 54 31c0 21 -13 29 -42 29c-12 0 -20 -2 -30 -5l-29 13l16 74c-50 3 -109 13 -152 30l12 67c55 -16 117 -25 168 -25c87 0 104 15 104 70c0 60 0 63 -119 94
c-152 40 -159 66 -159 164c0 105 48 139 192 139c44 0 111 -7 159 -19l-7 -70c-45 9 -110 16 -151 16c-95 0 -108 -9 -108 -69c0 -58 1 -61 117 -93c153 -41 161 -61 161 -160c0 -93 -27 -140 -169 -144l-9 -47c9 2 19 3 27 3c44 0 73 -21 73 -66z" />
    <glyph glyph-name="scircumflex.smcp" horiz-adv-x="504" 
d="M439 135c0 -97 -29 -145 -190 -145c-54 0 -128 11 -179 31l12 67c55 -16 117 -25 168 -25c87 0 104 15 104 70c0 60 0 63 -119 94c-152 40 -159 66 -159 164c0 105 48 139 192 139c44 0 111 -7 159 -19l-7 -70c-45 9 -110 16 -151 16c-95 0 -108 -9 -108 -69
c0 -58 1 -61 117 -93c153 -41 161 -61 161 -160zM394 609l-27 -46c-43 22 -68 38 -99 59c-32 -21 -56 -37 -99 -59l-27 46c47 28 80 50 126 86c46 -36 79 -58 126 -86z" />
    <glyph glyph-name="scommaaccent.smcp" horiz-adv-x="504" 
d="M439 135c0 -97 -29 -145 -190 -145c-54 0 -128 11 -179 31l12 67c55 -16 117 -25 168 -25c87 0 104 15 104 70c0 60 0 63 -119 94c-152 40 -159 66 -159 164c0 105 48 139 192 139c44 0 111 -7 159 -19l-7 -70c-45 9 -110 16 -151 16c-95 0 -108 -9 -108 -69
c0 -58 1 -61 117 -93c153 -41 161 -61 161 -160zM218 -158v107h84v-107l-49 -101l-39 17l33 84h-29z" />
    <glyph glyph-name="tbar.smcp" horiz-adv-x="477" 
d="M62 202v54h134v189h-171v75h427v-75h-171v-189h134v-54h-134v-202h-85v202h-134z" />
    <glyph glyph-name="tcaron.smcp" horiz-adv-x="477" 
d="M196 0v445h-171v75h427v-75h-171v-445h-85zM337 694l27 -46c-47 -28 -80 -50 -126 -86c-46 36 -79 58 -126 86l27 46c43 -22 67 -38 99 -59c31 21 56 37 99 59z" />
    <glyph glyph-name="tcommaaccent.smcp" horiz-adv-x="477" 
d="M196 0v445h-171v75h427v-75h-171v-445h-85zM196 -158v107h84v-107l-49 -101l-39 17l33 84h-29z" />
    <glyph glyph-name="thorn.smcp" horiz-adv-x="515" 
d="M90 520h85v-82h137c126 0 163 -51 163 -133v-85c0 -82 -37 -133 -163 -133h-137v-87h-85v520zM175 364v-203h142c59 0 73 20 73 67v69c0 47 -14 67 -73 67h-142z" />
    <glyph glyph-name="uacute.smcp" horiz-adv-x="590" 
d="M420 520h85v-371c0 -87 -51 -159 -210 -159s-210 72 -210 159v371h85v-364c0 -58 31 -91 125 -91s125 33 125 91v364zM269 571l-34 52c42 25 82 50 126 83l37 -56c-43 -30 -82 -55 -129 -79z" />
    <glyph glyph-name="ubreve.smcp" horiz-adv-x="590" 
d="M420 520h85v-371c0 -87 -51 -159 -210 -159s-210 72 -210 159v371h85v-364c0 -58 31 -91 125 -91s125 33 125 91v364zM379 678l43 -30c-18 -40 -58 -75 -127 -75s-109 35 -127 75l43 30c19 -33 45 -50 84 -50s65 17 84 50z" />
    <glyph glyph-name="ucircumflex.smcp" horiz-adv-x="590" 
d="M420 520h85v-371c0 -87 -51 -159 -210 -159s-210 72 -210 159v371h85v-364c0 -58 31 -91 125 -91s125 33 125 91v364zM421 609l-27 -46c-43 22 -68 38 -99 59c-32 -21 -56 -37 -99 -59l-27 46c47 28 80 50 126 86c46 -36 79 -58 126 -86z" />
    <glyph glyph-name="udieresis.smcp" horiz-adv-x="590" 
d="M420 520h85v-371c0 -87 -51 -159 -210 -159s-210 72 -210 159v371h85v-364c0 -58 31 -91 125 -91s125 33 125 91v364zM168 578v79h80v-79h-80zM343 578v79h79v-79h-79z" />
    <glyph glyph-name="ugrave.smcp" horiz-adv-x="590" 
d="M420 520h85v-371c0 -87 -51 -159 -210 -159s-210 72 -210 159v371h85v-364c0 -58 31 -91 125 -91s125 33 125 91v364zM344 623l-34 -52c-47 24 -86 49 -129 79l37 56c44 -33 84 -58 126 -83z" />
    <glyph glyph-name="uhungarumlaut.smcp" horiz-adv-x="590" 
d="M420 520h85v-371c0 -87 -51 -159 -210 -159s-210 72 -210 159v371h85v-364c0 -58 31 -91 125 -91s125 33 125 91v364zM206 571l-41 47c40 33 65 56 99 91l46 -50c-34 -33 -67 -62 -104 -88zM366 571l-41 47c40 33 65 56 99 91l46 -50c-34 -33 -67 -62 -104 -88z" />
    <glyph glyph-name="umacron.smcp" horiz-adv-x="590" 
d="M420 520h85v-371c0 -87 -51 -159 -210 -159s-210 72 -210 159v371h85v-364c0 -58 31 -91 125 -91s125 33 125 91v364zM175 587v61h241v-61h-241z" />
    <glyph glyph-name="uogonek.smcp" horiz-adv-x="590" 
d="M392 -194c-16 -9 -37 -13 -61 -13c-64 0 -106 25 -106 85c0 56 53 92 100 113c-10 0 -20 -1 -30 -1c-159 0 -210 72 -210 159v371h85v-364c0 -58 31 -91 125 -91s125 33 125 91v364h85v-371c0 -56 -21 -105 -77 -133c-75 -42 -133 -79 -133 -129c0 -24 14 -39 47 -39
c16 0 26 2 37 6z" />
    <glyph glyph-name="uring.smcp" horiz-adv-x="590" 
d="M420 520h85v-371c0 -87 -51 -159 -210 -159s-210 72 -210 159v371h85v-364c0 -58 31 -91 125 -91s125 33 125 91v364zM368 625c0 -40 -25 -71 -72 -71c-48 0 -73 30 -73 71c0 40 25 70 73 70c47 0 72 -30 72 -70zM327 625c0 21 -10 33 -31 33s-32 -12 -32 -33
s11 -34 32 -34s31 13 31 34z" />
    <glyph glyph-name="utilde.smcp" horiz-adv-x="590" 
d="M297 590c-20 11 -34 19 -53 19c-22 0 -37 -16 -52 -33l-36 34c20 32 53 60 89 60c20 0 35 -6 57 -17c26 -13 40 -20 55 -20c19 0 32 9 45 30l41 -28c-17 -37 -45 -63 -86 -63c-20 0 -35 5 -60 18zM420 520h85v-371c0 -87 -51 -159 -210 -159s-210 72 -210 159v371h85
v-364c0 -58 31 -91 125 -91s125 33 125 91v364z" />
    <glyph glyph-name="wacute.smcp" horiz-adv-x="786" 
d="M443 520l117 -430l125 430h81l-154 -520h-104l-115 434l-115 -434h-104l-154 520h81l125 -430l117 430h100zM400 571l-34 52c42 25 82 50 126 83l37 -56c-43 -30 -82 -55 -129 -79z" />
    <glyph glyph-name="wcircumflex.smcp" horiz-adv-x="786" 
d="M443 520l117 -430l125 430h81l-154 -520h-104l-115 434l-115 -434h-104l-154 520h81l125 -430l117 430h100zM519 609l-27 -46c-43 22 -68 38 -99 59c-32 -21 -56 -37 -99 -59l-27 46c47 28 80 50 126 86c46 -36 79 -58 126 -86z" />
    <glyph glyph-name="wdieresis.smcp" horiz-adv-x="786" 
d="M443 520l117 -430l125 430h81l-154 -520h-104l-115 434l-115 -434h-104l-154 520h81l125 -430l117 430h100zM266 578v79h80v-79h-80zM441 578v79h79v-79h-79z" />
    <glyph glyph-name="wgrave.smcp" horiz-adv-x="786" 
d="M443 520l117 -430l125 430h81l-154 -520h-104l-115 434l-115 -434h-104l-154 520h81l125 -430l117 430h100zM436 623l-34 -52c-47 24 -86 49 -129 79l37 56c44 -33 84 -58 126 -83z" />
    <glyph glyph-name="yacute.smcp" horiz-adv-x="492" 
d="M246 234l149 286h87l-193 -364v-156h-85v156l-194 364h87zM233 571l-34 52c42 25 82 50 126 83l37 -56c-43 -30 -82 -55 -129 -79z" />
    <glyph glyph-name="ycircumflex.smcp" horiz-adv-x="492" 
d="M246 234l149 286h87l-193 -364v-156h-85v156l-194 364h87zM372 609l-27 -46c-43 22 -68 38 -99 59c-32 -21 -56 -37 -99 -59l-27 46c47 28 80 50 126 86c46 -36 79 -58 126 -86z" />
    <glyph glyph-name="ydieresis.smcp" horiz-adv-x="492" 
d="M246 234l149 286h87l-193 -364v-156h-85v156l-194 364h87zM119 578v79h80v-79h-80zM294 578v79h79v-79h-79z" />
    <glyph glyph-name="ygrave.smcp" horiz-adv-x="492" 
d="M246 234l149 286h87l-193 -364v-156h-85v156l-194 364h87zM289 623l-34 -52c-47 24 -86 49 -129 79l37 56c44 -33 84 -58 126 -83z" />
    <glyph glyph-name="zacute.smcp" horiz-adv-x="528" 
d="M454 456l-279 -387h283v-69h-383v64l279 387h-276v69h376v-64zM239 571l-34 52c42 25 82 50 126 83l37 -56c-43 -30 -82 -55 -129 -79z" />
    <glyph glyph-name="zcaron.smcp" horiz-adv-x="528" 
d="M454 456l-279 -387h283v-69h-383v64l279 387h-276v69h376v-64zM376 694l27 -46c-47 -28 -80 -50 -126 -86c-46 36 -79 58 -126 86l27 46c43 -22 67 -38 99 -59c31 21 56 37 99 59z" />
    <glyph glyph-name="zdotaccent.smcp" horiz-adv-x="528" 
d="M454 456l-279 -387h283v-69h-383v64l279 387h-276v69h376v-64zM310 577h-84v121h84v-121z" />
    <glyph glyph-name="ornm01.ornm" horiz-adv-x="925" 
d="M855 366v-66h-673l256 -254l-45 -46l-333 333l333 333l45 -46l-256 -254h673z" />
    <glyph glyph-name="ornm02.ornm" horiz-adv-x="925" 
d="M70 300v66h673l-256 254l46 46l332 -333l-332 -333l-46 46l256 254h-673z" />
    <glyph glyph-name="ornm03.ornm" horiz-adv-x="746" 
d="M681 126l-46 -46l-476 476v-361h-64v471h471v-63h-361z" />
    <glyph glyph-name="ornm04.ornm" horiz-adv-x="746" 
d="M112 80l-47 46l476 477h-361v63h471v-471h-63v361z" />
    <glyph glyph-name="ornm05.ornm" horiz-adv-x="746" 
d="M635 586l46 -46l-476 -476h361v-64h-471v471h64v-361z" />
    <glyph glyph-name="ornm06.ornm" horiz-adv-x="746" 
d="M65 540l47 46l476 -476v361h63v-471h-471v64h361z" />
    <glyph glyph-name="ornm07.ornm" horiz-adv-x="776" 
d="M421 -197h-66v744l-254 -256l-46 45l333 333l333 -333l-46 -45l-254 256v-744z" />
    <glyph glyph-name="ornm08.ornm" horiz-adv-x="776" 
d="M355 666h66v-741l254 256l46 -45l-333 -333l-333 333l46 45l254 -256v741z" />
    <glyph glyph-name="ornm09.ornm" horiz-adv-x="955" 
d="M885 367v-67h-537v67h537zM438 46l-45 -46l-333 333l333 333l45 -46l-287 -287z" />
    <glyph glyph-name="ornm10.ornm" horiz-adv-x="955" 
d="M70 300v67h536v-67h-536zM562 0l-46 46l288 287l-288 287l46 46l333 -333z" />
    <glyph glyph-name="ornm11.ornm" horiz-adv-x="767" 
d="M702 106l-47 -46l-380 379l48 47zM159 195h-64v471h471v-64h-407v-407z" />
    <glyph glyph-name="ornm12.ornm" horiz-adv-x="767" 
d="M113 60l-48 46l379 380l48 -47zM672 195h-64v407h-407v64h471v-471z" />
    <glyph glyph-name="ornm13.ornm" horiz-adv-x="767" 
d="M655 606l47 -46l-379 -380l-48 47zM95 471h64v-407h407v-64h-471v471z" />
    <glyph glyph-name="ornm14.ornm" horiz-adv-x="767" 
d="M65 560l48 46l379 -379l-48 -47zM608 471h64v-471h-471v64h407v407z" />
    <glyph glyph-name="ornm15.ornm" horiz-adv-x="776" 
d="M422 -197h-67v585h67v-585zM101 298l-46 45l333 333l333 -333l-46 -45l-287 287z" />
    <glyph glyph-name="ornm16.ornm" horiz-adv-x="776" 
d="M355 666h67v-575h-67v575zM55 136l46 45l287 -287l287 287l46 -45l-333 -333z" />
    <glyph glyph-name="ornm17.ornm" horiz-adv-x="716" 
d="M646 366v-66h-473l170 -168l-46 -46l-247 247l247 247l46 -46l-170 -168h473z" />
    <glyph glyph-name="ornm18.ornm" horiz-adv-x="716" 
d="M70 300v66h473l-170 168l46 46l247 -247l-247 -247l-46 46l170 168h-473z" />
    <glyph glyph-name="ornm19.ornm" horiz-adv-x="595" 
d="M530 268l-47 -47l-334 334v-239h-64v350h350v-64h-239z" />
    <glyph glyph-name="ornm20.ornm" horiz-adv-x="595" 
d="M112 221l-47 47l334 334h-239v64h350v-350h-64v239z" />
    <glyph glyph-name="ornm21.ornm" horiz-adv-x="595" 
d="M483 445l47 -47l-334 -334h239v-64h-350v350h64v-239z" />
    <glyph glyph-name="ornm22.ornm" horiz-adv-x="595" 
d="M65 398l47 47l334 -334v239h64v-350h-350v64h239z" />
    <glyph glyph-name="ornm23.ornm" horiz-adv-x="604" 
d="M335 0h-66v553l-168 -170l-46 46l247 247l247 -247l-46 -46l-168 170v-553z" />
    <glyph glyph-name="ornm24.ornm" horiz-adv-x="604" 
d="M269 666h66v-553l168 170l46 -46l-247 -247l-247 247l46 46l168 -170v553z" />
    <glyph glyph-name="ornm25.ornm" horiz-adv-x="723" 
d="M343 132l-46 -46l-247 247l247 247l46 -46l-201 -201zM653 366v-66h-360v66h360z" />
    <glyph glyph-name="ornm26.ornm" horiz-adv-x="723" 
d="M426 86l-46 46l201 201l-201 201l46 46l247 -247zM70 300v66h360v-66h-360z" />
    <glyph glyph-name="ornm27.ornm" horiz-adv-x="600" 
d="M150 317h-65v349h349v-65h-284v-284zM535 263l-47 -47l-254 255l46 46z" />
    <glyph glyph-name="ornm28.ornm" horiz-adv-x="600" 
d="M515 317h-65v284h-284v65h349v-349zM112 216l-47 47l255 254l46 -46z" />
    <glyph glyph-name="ornm29.ornm" horiz-adv-x="600" 
d="M85 349h65v-284h284v-65h-349v349zM488 450l47 -47l-255 -254l-46 46z" />
    <glyph glyph-name="ornm30.ornm" horiz-adv-x="600" 
d="M450 349h65v-349h-349v65h284v284zM65 403l47 47l254 -255l-46 -46z" />
    <glyph glyph-name="ornm31.ornm" horiz-adv-x="604" 
d="M101 383l-46 46l247 247l247 -247l-46 -46l-201 201zM335 0h-66v433h66v-433z" />
    <glyph glyph-name="ornm32.ornm" horiz-adv-x="604" 
d="M55 237l46 46l201 -201l201 201l46 -46l-247 -247zM269 666h66v-433h-66v433z" />
    <glyph glyph-name="ornm33.ornm" horiz-adv-x="786" 
d="M50 333c0 189 154 343 343 343s343 -154 343 -343s-154 -343 -343 -343s-343 154 -343 343zM179 333l213 -213l43 43l-140 139h315v63h-315l140 138l-43 44z" />
    <glyph glyph-name="ornm34.ornm" horiz-adv-x="786" 
d="M736 333c0 -189 -154 -343 -343 -343s-343 154 -343 343s154 343 343 343s343 -154 343 -343zM394 120l213 213l-213 214l-43 -44l140 -138h-315v-63h315l-140 -139z" />
    <glyph glyph-name="ornm35.ornm" horiz-adv-x="786" 
d="M50 333c0 189 154 343 343 343s343 -154 343 -343s-154 -343 -343 -343s-343 154 -343 343zM244 486v-301h59v197l223 -223l45 44l-223 222h197v61h-301z" />
    <glyph glyph-name="ornm36.ornm" horiz-adv-x="786" 
d="M736 333c0 -189 -154 -343 -343 -343s-343 154 -343 343s154 343 343 343s343 -154 343 -343zM543 185v301h-302v-61h197l-223 -222l45 -44l223 223v-197h60z" />
    <glyph glyph-name="ornm37.ornm" horiz-adv-x="786" 
d="M50 333c0 189 154 343 343 343s343 -154 343 -343s-154 -343 -343 -343s-343 154 -343 343zM244 483v-300h301v60h-197l223 222l-45 44l-223 -222v196h-59z" />
    <glyph glyph-name="ornm38.ornm" horiz-adv-x="786" 
d="M736 333c0 -189 -154 -343 -343 -343s-343 154 -343 343s154 343 343 343s343 -154 343 -343zM543 183v300h-60v-196l-223 222l-45 -44l223 -222h-197v-60h302z" />
    <glyph glyph-name="ornm39.ornm" horiz-adv-x="786" 
d="M393 676c189 0 343 -154 343 -343s-154 -343 -343 -343s-343 154 -343 343s154 343 343 343zM393 556l-213 -213l43 -43l139 140v-315h63v315l138 -140l44 43z" />
    <glyph glyph-name="ornm40.ornm" horiz-adv-x="786" 
d="M393 -10c-189 0 -343 154 -343 343s154 343 343 343s343 -154 343 -343s-154 -343 -343 -343zM180 323l213 -213l214 213l-44 43l-138 -140v315h-63v-315l-139 140z" />
    <glyph glyph-name="ornm41.ornm" horiz-adv-x="786" 
d="M50 333c0 189 154 343 343 343s343 -154 343 -343s-154 -343 -343 -343s-343 154 -343 343zM389 120l44 43l-170 170l170 170l-44 43l-213 -213zM618 302v63h-241v-63h241z" />
    <glyph glyph-name="ornm42.ornm" horiz-adv-x="786" 
d="M736 333c0 -189 -154 -343 -343 -343s-343 154 -343 343s154 343 343 343s343 -154 343 -343zM353 163l44 -43l213 213l-213 213l-44 -43l170 -170zM168 365v-63h241v63h-241z" />
    <glyph glyph-name="ornm43.ornm" horiz-adv-x="786" 
d="M50 333c0 189 154 343 343 343s343 -154 343 -343s-154 -343 -343 -343s-343 154 -343 343zM242 193h61v241h240l1 62h-302v-303zM532 161l44 45l-170 170l-44 -45z" />
    <glyph glyph-name="ornm44.ornm" horiz-adv-x="786" 
d="M736 333c0 -189 -154 -343 -343 -343s-343 154 -343 343s154 343 343 343s343 -154 343 -343zM483 193h61v303h-302l1 -62h240v-241zM210 206l44 -45l170 170l-44 45z" />
    <glyph glyph-name="ornm45.ornm" horiz-adv-x="786" 
d="M50 333c0 189 154 343 343 343s343 -154 343 -343s-154 -343 -343 -343s-343 154 -343 343zM307 482h-62v-302h302v62h-240v240zM580 470l-44 45l-171 -170l45 -45z" />
    <glyph glyph-name="ornm46.ornm" horiz-adv-x="786" 
d="M736 333c0 -189 -154 -343 -343 -343s-343 154 -343 343s154 343 343 343s343 -154 343 -343zM541 482h-62v-240h-240v-62h302v302zM250 515l-44 -45l170 -170l45 45z" />
    <glyph glyph-name="ornm47.ornm" horiz-adv-x="786" 
d="M393 676c189 0 343 -154 343 -343s-154 -343 -343 -343s-343 154 -343 343s154 343 343 343zM180 346l43 -43l170 170l170 -170l43 43l-213 214zM362 118h63v241h-63v-241z" />
    <glyph glyph-name="ornm48.ornm" horiz-adv-x="786" 
d="M393 -10c-189 0 -343 154 -343 343s154 343 343 343s343 -154 343 -343s-154 -343 -343 -343zM223 363l-43 -43l213 -214l213 214l-43 43l-170 -170zM425 548h-63v-241h63v241z" />
    <glyph glyph-name="ornm49.ornm" horiz-adv-x="786" 
d="M50 333c0 189 154 343 343 343s343 -154 343 -343s-154 -343 -343 -343s-343 154 -343 343zM215 199l44 -45l134 135l134 -135l44 45l-134 134l134 134l-44 44l-134 -134l-134 134l-44 -44l134 -134z" />
    <glyph glyph-name="ornm50.ornm" horiz-adv-x="786" 
d="M50 333c0 189 154 343 343 343s343 -154 343 -343s-154 -343 -343 -343s-343 154 -343 343zM527 154l44 45l-134 134l-44 -44zM215 199l44 -45l134 135l-44 44zM437 333l134 134l-44 44l-134 -134zM259 511l-44 -44l134 -134l44 44z" />
    <glyph glyph-name="ornm51.ornm" horiz-adv-x="786" 
d="M50 333c0 189 154 343 343 343s343 -154 343 -343s-154 -343 -343 -343s-343 154 -343 343zM173 364v-62h189v-189h62v189h190v62h-190v190h-62v-190h-189z" />
    <glyph glyph-name="ornm52.ornm" horiz-adv-x="786" 
d="M50 333c0 189 154 343 343 343s343 -154 343 -343s-154 -343 -343 -343s-343 154 -343 343zM362 364h62v190h-62v-190zM424 302h-62v-189h62v189zM424 364v-62h190v62h-190zM362 302v62h-189v-62h189z" />
    <glyph glyph-name="ornm53.ornm" horiz-adv-x="806" 
d="M35 333l686 343v-686z" />
    <glyph glyph-name="ornm54.ornm" horiz-adv-x="806" 
d="M85 676l686 -343l-686 -343v686z" />
    <glyph glyph-name="ornm55.ornm" horiz-adv-x="805" 
d="M674 600l-538 -267l538 -266v533zM35 333l685 343v-686z" />
    <glyph glyph-name="ornm56.ornm" horiz-adv-x="805" 
d="M670 333l-538 267v-533zM85 676l685 -343l-685 -343v686z" />
    <glyph glyph-name="ornm57.ornm" horiz-adv-x="624" 
d="M539 -11l-504 254l504 254v-508z" />
    <glyph glyph-name="ornm58.ornm" horiz-adv-x="624" 
d="M589 243l-504 -254v508z" />
    <glyph glyph-name="ornm59.ornm" horiz-adv-x="624" 
d="M129 243l365 -182v363zM539 -11l-504 254l504 254v-508z" />
    <glyph glyph-name="ornm60.ornm" horiz-adv-x="624" 
d="M130 61l365 182l-365 181v-363zM589 243l-504 -254v508z" />
    <glyph glyph-name="ornm61.ornm" horiz-adv-x="786" 
d="M392 676l339 -676h-676z" />
    <glyph glyph-name="ornm62.ornm" horiz-adv-x="786" 
d="M731 666l-339 -676l-337 676h676z" />
    <glyph glyph-name="ornm63.ornm" horiz-adv-x="785" 
d="M656 47l-263 525l-263 -525h526zM393 676l337 -676h-675z" />
    <glyph glyph-name="ornm64.ornm" horiz-adv-x="785" 
d="M393 94l263 526h-526zM730 666l-337 -676l-338 676h675z" />
    <glyph glyph-name="ornm65.ornm" horiz-adv-x="607" 
d="M303 497l249 -497h-497z" />
    <glyph glyph-name="ornm66.ornm" horiz-adv-x="607" 
d="M552 487l-249 -497l-248 497h497z" />
    <glyph glyph-name="ornm67.ornm" horiz-adv-x="607" 
d="M481 44l-177 357l-177 -357h354zM303 497l249 -497h-497z" />
    <glyph glyph-name="ornm68.ornm" horiz-adv-x="607" 
d="M304 86l177 357h-354zM552 487l-249 -497l-248 497h497z" />
    <glyph glyph-name="ornm69.ornm" horiz-adv-x="856" 
d="M95 0v666h666v-666h-666z" />
    <glyph glyph-name="ornm70.ornm" horiz-adv-x="856" 
d="M144 617v-568h568v568h-568zM95 0v666h666v-666h-666z" />
    <glyph glyph-name="ornm71.ornm" horiz-adv-x="677" 
d="M95 0v487h487v-487h-487z" />
    <glyph glyph-name="ornm72.ornm" horiz-adv-x="677" 
d="M141 441v-395h395v395h-395zM95 0v487h487v-487h-487z" />
    <glyph glyph-name="ornm73.ornm" horiz-adv-x="856" 
d="M95 0v666h666v-666h-666zM681 49l-537 537v-537h537zM712 617h-536l536 -535v535z" />
    <glyph glyph-name="ornm74.ornm" horiz-adv-x="677" 
d="M95 0v487h487v-487h-487zM505 46l-364 364v-364h364zM536 441h-364l364 -364v364z" />
    </font>
</defs>
</svg>
