<?xml version="1.0" standalone="no"?>
<!DOCTYPE svg PUBLIC "-//W3C//DTD SVG 1.1//EN" "http://www.w3.org/Graphics/SVG/1.1/DTD/svg11.dtd" >
<svg xmlns="http://www.w3.org/2000/svg" xmlns:xlink="http://www.w3.org/1999/xlink" version="1.1">
<metadata>
Created by FontForge 20190801 at Wed Feb 22 10:42:31 2012
 By Jimmy Wärting
Copyright (c) 2004 by Process Type Foundry. All rights reserved.
</metadata>
<defs>
<font id="Klavika-BoldItalic" horiz-adv-x="525" >
  <font-face 
    font-family="Klavika Bold Italic"
    font-weight="700"
    font-style="italic"
    font-stretch="normal"
    units-per-em="1000"
    panose-1="2 11 8 6 4 0 0 9 0 4"
    ascent="750"
    descent="-250"
    x-height="487"
    cap-height="666"
    bbox="-75 -303 1204.13 1044"
    underline-thickness="50"
    underline-position="-100"
    slope="-10"
    stemh="118"
    stemv="141"
    unicode-range="U+0020-FB04"
  />
<missing-glyph horiz-adv-x="642" 
d="M105 0v666h462v-666h-462zM522 620h-346l346 -539v539zM150 584v-539h345z" />
    <glyph glyph-name="fi" unicode="fi" horiz-adv-x="629" 
d="M378 0l65 372h-192l-68 -388c-12 -68 -36 -116 -112 -191l-91 84c49 50 56 76 64 123l66 372h-70l20 115h70l13 69c20 108 56 155 177 155c52 0 111 -12 173 -34l-30 -104c-42 13 -103 24 -125 24c-37 0 -48 -8 -53 -33l-14 -77h269l67 9l-88 -496h-141z" />
    <glyph glyph-name="fl" unicode="fl" horiz-adv-x="630" 
d="M71 -207l-91 84c49 50 56 76 64 123l66 372h-70l20 115h70l11 64c20 112 62 155 187 155c40 0 109 -7 170 -24l146 24l-124 -706h-141l100 573c-38 10 -106 18 -148 18c-32 0 -42 -8 -47 -33l-13 -71h126l-30 -115h-116l-68 -388c-12 -68 -36 -116 -112 -191z" />
    <glyph glyph-name="f_f" unicode="ff" horiz-adv-x="708" 
d="M421 -207l-91 84c49 50 56 76 64 123l66 372h-209l-68 -388c-12 -68 -36 -116 -112 -191l-91 84c49 50 56 76 64 123l66 372h-70l20 115h70l12 64c20 108 58 155 176 155c43 0 87 -8 122 -20l-29 -111c-24 8 -58 14 -80 14c-32 0 -42 -8 -47 -33l-13 -69h209l12 64
c20 108 58 155 176 155c40 0 87 -7 125 -21l-29 -111c-22 8 -61 15 -83 15c-32 0 -42 -8 -47 -33l-13 -69h126l-30 -115h-116l-68 -388c-12 -68 -36 -116 -112 -191z" />
    <glyph glyph-name="f_f_i" unicode="ffi" horiz-adv-x="979" 
d="M728 0l65 372h-192l-68 -388c-12 -68 -36 -116 -112 -191l-91 84c49 50 56 76 64 123l66 372h-209l-68 -388c-12 -68 -36 -116 -112 -191l-91 84c49 50 56 76 64 123l66 372h-70l20 115h70l12 64c20 108 58 155 176 155c43 0 85 -8 124 -21l-29 -111
c-30 10 -66 15 -82 15c-32 0 -42 -8 -47 -33l-13 -69h209l13 69c20 108 56 155 177 155c52 0 111 -12 173 -34l-30 -104c-42 13 -103 24 -125 24c-37 0 -48 -8 -53 -33l-14 -77h269l67 9l-88 -496h-141z" />
    <glyph glyph-name="f_j" unicode="fj" horiz-adv-x="629" 
d="M354 -207l-69 97c70 54 85 62 93 110l65 372h-192l-68 -388c-12 -68 -36 -116 -112 -191l-91 84c49 50 56 76 64 123l66 372h-70l20 115h70l13 69c20 108 56 155 177 155c52 0 111 -12 173 -34l-30 -104c-42 13 -103 24 -125 24c-37 0 -48 -8 -53 -33l-14 -77h269l67 9
l-92 -519c-11 -64 -30 -99 -161 -184z" />
    <glyph glyph-name="f_f_j" unicode="ffj" horiz-adv-x="979" 
d="M704 -207l-69 97c70 54 85 62 93 110l65 372h-192l-68 -388c-12 -68 -36 -116 -112 -191l-91 84c49 50 56 76 64 123l66 372h-209l-68 -388c-12 -68 -36 -116 -112 -191l-91 84c49 50 56 76 64 123l66 372h-70l20 115h70l12 64c20 108 58 155 176 155c43 0 85 -8 124 -21
l-29 -111c-30 10 -66 15 -82 15c-32 0 -42 -8 -47 -33l-13 -69h209l13 69c20 108 56 155 177 155c52 0 111 -12 173 -34l-30 -104c-42 13 -103 24 -125 24c-37 0 -48 -8 -53 -33l-14 -77h269l67 9l-92 -519c-11 -64 -30 -99 -161 -184z" />
    <glyph glyph-name="f_f_l" unicode="ffl" horiz-adv-x="980" 
d="M480 487l11 64c20 112 62 155 187 155c40 0 109 -7 170 -24l146 24l-124 -706h-141l100 573c-38 10 -106 18 -148 18c-32 0 -42 -8 -47 -33l-13 -71h126l-30 -115h-116l-68 -388c-12 -68 -36 -116 -112 -191l-91 84c49 50 56 76 64 123l66 372h-209l-68 -388
c-12 -68 -36 -116 -112 -191l-91 84c49 50 56 76 64 123l66 372h-70l20 115h70l12 64c20 108 58 155 176 155c43 0 87 -8 122 -20l-29 -111c-24 8 -58 14 -80 14c-32 0 -42 -8 -47 -33l-13 -69h209z" />
    <glyph glyph-name=".notdef" horiz-adv-x="642" 
d="M105 0v666h462v-666h-462zM522 620h-346l346 -539v539zM150 584v-539h345z" />
    <glyph glyph-name="space" unicode=" " horiz-adv-x="210" 
 />
    <glyph glyph-name="exclam" unicode="!" horiz-adv-x="280" 
d="M176 232h-80l1 174l49 280h140l-49 -280zM23 0l29 166h144l-29 -166h-144z" />
    <glyph glyph-name="quotedbl" unicode="&#x22;" horiz-adv-x="380" 
d="M264 438l43 248h95l-43 -248h-95zM84 438l43 248h95l-43 -248h-95z" />
    <glyph glyph-name="numbersign" unicode="#" horiz-adv-x="675" 
d="M651 399h-114l-29 -148h117l-20 -93h-116l-31 -158h-99l31 158h-146l-31 -158h-99l31 158h-120l20 93h119l29 148h-122l19 93h122l31 154h99l-31 -154h146l31 154h99l-31 -154h114zM292 399l-29 -148h146l29 148h-146z" />
    <glyph glyph-name="dollar" unicode="$" horiz-adv-x="492" 
d="M258 -6l-20 -115h-111l20 113c-50 4 -90 13 -135 31l34 116c55 -19 106 -28 159 -28c69 0 82 17 92 74c3 16 5 28 5 37c0 29 -14 35 -80 52c-108 28 -137 48 -137 116c0 22 3 48 9 81c25 139 62 172 196 183l20 115h111l-20 -116c35 -3 61 -8 96 -17l-28 -120
c-43 10 -106 17 -155 17c-59 0 -72 -10 -80 -65c-2 -13 -4 -25 -4 -33c0 -27 13 -32 84 -51c110 -29 134 -55 134 -113c0 -23 -4 -50 -10 -85c-19 -114 -51 -177 -180 -192z" />
    <glyph glyph-name="percent" unicode="%" horiz-adv-x="871" 
d="M348 -10l-77 33l277 653l76 -32zM209 314c-125 0 -150 67 -136 144l13 74c18 102 58 144 183 144c111 0 149 -62 134 -148l-12 -70c-15 -87 -49 -144 -182 -144zM298 540c5 32 -6 43 -44 43s-54 -11 -59 -43l-16 -90c-6 -33 4 -44 44 -44s53 12 59 44zM627 -10
c-125 0 -150 67 -136 144l13 74c18 102 58 144 183 144c111 0 149 -62 134 -148l-12 -70c-15 -87 -49 -144 -182 -144zM716 216c5 32 -6 43 -44 43s-54 -11 -59 -43l-16 -90c-6 -33 4 -44 44 -44s53 12 59 44z" />
    <glyph glyph-name="ampersand" unicode="&#x26;" horiz-adv-x="722" 
d="M447 378c0 -30 -6 -58 -25 -86h103c81 0 124 23 174 59l50 -80c-46 -43 -113 -77 -205 -81c-70 -130 -176 -200 -344 -200c-106 0 -172 38 -172 128c0 12 1 26 4 41l30 162c21 115 83 176 214 176c106 0 171 -51 171 -119zM286 190l-25 102c41 11 64 33 64 63
c0 22 -20 32 -51 32c-43 0 -63 -18 -69 -49l-35 -191c-1 -5 -3 -16 -3 -20c0 -13 4 -25 34 -25c87 0 149 22 205 88h-120z" />
    <glyph glyph-name="quotesingle" unicode="'" horiz-adv-x="200" 
d="M84 438l43 248h95l-43 -248h-95z" />
    <glyph glyph-name="parenleft" unicode="(" horiz-adv-x="316" 
d="M140 -153c-61 105 -92 241 -92 337c0 217 64 434 258 577l83 -83c-158 -148 -201 -302 -201 -489c0 -73 21 -183 65 -284z" />
    <glyph glyph-name="parenright" unicode=")" horiz-adv-x="318" 
d="M189 761c61 -105 92 -241 92 -337c0 -217 -64 -434 -258 -577l-83 83c158 148 201 302 201 489c0 73 -21 183 -65 284z" />
    <glyph glyph-name="asterisk" unicode="*" horiz-adv-x="468" 
d="M441 659l-93 -115h133l-11 -63h-133l53 -114l-60 -32l-56 118l-97 -120l-49 37l89 111h-130l11 63h134l-53 118l60 32l55 -120l98 123z" />
    <glyph glyph-name="plus" unicode="+" horiz-adv-x="516" 
d="M315 189v-149h-111v149h-146v108h146v150h111v-150h146v-108h-146z" />
    <glyph glyph-name="comma" unicode="," horiz-adv-x="274" 
d="M51 -150l-51 41l77 109h-53l29 166h141l-32 -178z" />
    <glyph glyph-name="hyphen" unicode="-" horiz-adv-x="334" 
d="M34 220l21 120h254l-21 -120h-254z" />
    <glyph glyph-name="period" unicode="." horiz-adv-x="276" 
d="M24 0l29 166h141l-29 -166h-141z" />
    <glyph glyph-name="slash" unicode="/" horiz-adv-x="453" 
d="M106 -117h-126l387 793h126z" />
    <glyph glyph-name="zero" unicode="0" horiz-adv-x="547" 
d="M227 -10c-140 0 -190 61 -190 142c0 13 1 26 3 39l54 309c21 119 83 176 251 176c120 0 188 -64 188 -154c0 -10 -1 -20 -3 -31l-53 -302c-20 -117 -77 -179 -250 -179zM389 460c1 6 2 16 2 23c0 35 -20 50 -69 50c-64 0 -83 -25 -92 -76l-49 -275c-2 -12 -3 -22 -3 -31
c0 -30 16 -38 70 -38c67 0 83 20 93 75z" />
    <glyph glyph-name="one" unicode="1" horiz-adv-x="386" 
d="M130 0l85 483l-122 -60l-50 112l213 111h129l-114 -646h-141z" />
    <glyph glyph-name="two" unicode="2" horiz-adv-x="497" 
d="M5 0l21 121c85 74 98 86 172 154c47 45 75 72 111 111c19 24 25 43 31 78l3 18c6 36 -13 49 -72 49c-47 0 -116 -8 -161 -18l-13 114c60 18 138 29 203 29c124 0 188 -47 188 -129c0 -12 -1 -22 -3 -33l-4 -22c-15 -85 -14 -111 -124 -221c-58 -59 -91 -90 -133 -128h198
l-21 -123h-396z" />
    <glyph glyph-name="three" unicode="3" horiz-adv-x="489" 
d="M182 -10c-51 0 -132 12 -177 34l30 106c36 -11 88 -23 143 -23c85 0 94 17 101 58l8 43c1 7 2 13 2 18c0 26 -15 38 -57 38h-140l21 119h136c48 0 60 19 67 59l8 48c1 6 2 13 2 16c0 30 -21 36 -75 36c-39 0 -95 -8 -136 -16l-11 107c52 13 122 23 180 23
c134 0 187 -47 187 -120c0 -12 -1 -18 -3 -30l-9 -54c-10 -59 -20 -104 -93 -126c42 -20 63 -46 63 -93c0 -13 -1 -23 -3 -35l-9 -47c-20 -104 -56 -161 -235 -161z" />
    <glyph glyph-name="four" unicode="4" horiz-adv-x="550" 
d="M434 138l-24 -138h-138l24 138h-297l22 123l307 385h195l-69 -394h81l-20 -114h-81zM362 511l-199 -259h153z" />
    <glyph glyph-name="five" unicode="5" horiz-adv-x="488" 
d="M193 -10c-44 0 -121 10 -184 34l31 112c51 -13 112 -24 159 -24c73 0 87 19 95 63l4 24c2 12 3 19 3 24c0 34 -20 39 -69 42c-20 1 -142 5 -156 5l66 376h361l-21 -122h-221l-25 -141c139 -4 212 -23 212 -119c0 -7 -1 -18 -3 -30l-12 -67c-22 -123 -75 -177 -240 -177z
" />
    <glyph glyph-name="six" unicode="6" horiz-adv-x="519" 
d="M217 -10c-140 0 -180 58 -180 137c0 17 2 36 5 55l44 250c30 170 86 224 266 224c47 0 108 -8 162 -26l-27 -109c-45 11 -93 17 -128 17c-100 0 -119 -26 -131 -91l-13 -70c42 11 84 15 116 15c94 0 142 -33 142 -116c0 -15 -2 -32 -5 -51l-7 -43
c-19 -117 -54 -192 -244 -192zM318 171l9 49c1 6 2 11 2 16c0 29 -21 36 -44 36c-33 0 -64 -7 -91 -19l-13 -73c-2 -9 -3 -19 -3 -29c0 -29 14 -40 60 -40c57 0 72 16 80 60z" />
    <glyph glyph-name="seven" unicode="7" horiz-adv-x="453" 
d="M169 0h-151l309 522h-268l21 124h416l-21 -120z" />
    <glyph glyph-name="eight" unicode="8" horiz-adv-x="528" 
d="M217 -10c-121 0 -189 37 -189 128c0 10 1 26 4 41l9 51c9 48 32 82 107 119c-39 29 -53 56 -53 89c0 8 1 16 2 24l10 56c20 111 67 158 225 158c112 0 176 -46 176 -127c0 -9 -1 -20 -3 -31l-10 -56c-9 -53 -26 -80 -89 -113c51 -30 67 -57 67 -93c0 -8 0 -17 -2 -26
l-9 -51c-21 -121 -70 -169 -245 -169zM369 492c1 5 2 11 2 15c0 24 -15 35 -57 35c-52 0 -67 -14 -73 -50l-8 -48c-1 -7 -2 -12 -2 -17c0 -20 12 -30 56 -48c64 23 69 33 74 65zM333 194c1 7 2 13 2 19c0 22 -13 34 -71 58c-82 -30 -85 -42 -91 -77l-6 -33
c-1 -7 -2 -14 -2 -19c0 -29 19 -37 72 -37c65 0 83 16 90 56z" />
    <glyph glyph-name="nine" unicode="9" horiz-adv-x="510" 
d="M317 656c136 0 180 -61 180 -142c0 -16 -2 -33 -5 -50l-44 -250c-31 -175 -72 -224 -266 -224c-47 0 -121 13 -162 33l30 108c42 -13 90 -23 130 -23c96 0 112 16 124 81l15 80c-42 -11 -84 -15 -116 -15c-90 0 -141 34 -141 119c0 14 1 31 4 48l7 43
c21 127 53 192 244 192zM216 475l-9 -49c-1 -7 -2 -14 -2 -20c0 -26 15 -32 44 -32c33 0 64 7 91 19l14 78c1 7 3 18 3 25c0 28 -15 39 -61 39c-57 0 -72 -16 -80 -60z" />
    <glyph glyph-name="colon" unicode=":" horiz-adv-x="280" 
d="M28 0l29 166h141l-29 -166h-141zM79 291l29 166h141l-29 -166h-141z" />
    <glyph glyph-name="semicolon" unicode=";" horiz-adv-x="281" 
d="M75 291l29 166h141l-29 -166h-141zM51 -150l-51 41l77 109h-53l29 166h141l-32 -178z" />
    <glyph glyph-name="less" unicode="&#x3c;" horiz-adv-x="559" 
d="M470 -9l-440 217v72l440 216l41 -82l-354 -170l354 -170z" />
    <glyph glyph-name="equal" unicode="=" horiz-adv-x="521" 
d="M65 303v93h411v-93h-411zM65 106v93h411v-93h-411z" />
    <glyph glyph-name="greater" unicode="&#x3e;" horiz-adv-x="559" 
d="M89 -9l-41 83l354 170l-354 170l41 82l440 -216v-72z" />
    <glyph glyph-name="question" unicode="?" horiz-adv-x="483" 
d="M239 230l-68 102c162 109 162 114 170 167c1 7 2 16 2 19c0 39 -10 53 -85 53c-45 0 -99 -9 -143 -17l-14 120c53 13 128 22 189 22c134 0 198 -50 198 -134c0 -17 -2 -35 -5 -55c-21 -121 -26 -135 -244 -277zM121 0l29 166h141l-29 -166h-141z" />
    <glyph glyph-name="at" unicode="@" horiz-adv-x="720" 
d="M437 232c-43 -22 -73 -30 -115 -30c-49 0 -71 28 -71 74c0 14 3 32 16 106c13 76 52 107 128 107c50 0 94 -17 128 -35l-31 -177c3 -1 8 -2 14 -2c85 0 117 72 117 157c0 101 -72 163 -199 163c-178 0 -288 -133 -288 -318c0 -130 70 -205 222 -205c70 0 153 19 212 44
l11 -77c-56 -31 -129 -49 -224 -49c-217 0 -312 118 -312 278c0 249 146 408 387 408c177 0 278 -101 278 -235c0 -133 -64 -239 -199 -239c-31 0 -64 13 -74 30zM386 419c-24 0 -36 -15 -39 -35l-13 -77c-5 -24 2 -35 28 -35c20 0 45 10 59 22l20 115c-12 5 -38 10 -55 10z
" />
    <glyph glyph-name="A" unicode="A" horiz-adv-x="632" 
d="M425 0l-14 131h-227l-60 -131h-159l320 666h201l95 -666h-156zM369 543l-131 -290h159z" />
    <glyph glyph-name="B" unicode="B" horiz-adv-x="578" 
d="M304 0h-284l117 666h263c121 0 167 -42 167 -111c0 -11 -1 -22 -3 -34l-12 -68c-8 -48 -28 -82 -97 -106c50 -13 83 -51 83 -102c0 -7 -1 -14 -2 -22l-12 -65c-17 -93 -68 -158 -220 -158zM403 441l10 58c1 5 2 10 2 14c0 23 -14 35 -50 35h-102l-28 -157h98
c45 0 65 21 70 50zM388 219c1 6 2 13 2 16c0 28 -18 43 -53 43h-121l-29 -160h103c47 0 83 10 91 60z" />
    <glyph glyph-name="C" unicode="C" horiz-adv-x="530" 
d="M249 -10c-147 0 -212 70 -212 163c0 11 1 24 4 40l51 288c24 136 107 195 269 195c67 0 127 -11 192 -29l-33 -126c-56 12 -126 22 -174 22c-71 0 -100 -24 -112 -94l-41 -232c-2 -11 -3 -24 -3 -31c0 -46 26 -63 82 -63c48 0 113 6 173 19l5 -126
c-53 -15 -127 -26 -201 -26z" />
    <glyph glyph-name="D" unicode="D" horiz-adv-x="599" 
d="M292 0h-272l118 666h254c144 0 197 -79 197 -163c0 -12 -1 -25 -3 -37l-52 -294c-15 -88 -51 -172 -242 -172zM436 453c2 10 3 19 3 27c0 36 -21 56 -84 56h-93l-72 -406h102c79 0 93 30 102 83z" />
    <glyph glyph-name="E" unicode="E" horiz-adv-x="532" 
d="M20 0l117 666h419l-23 -130h-272l-22 -127h251l-23 -129h-251l-27 -150h272l-22 -130h-419z" />
    <glyph glyph-name="F" unicode="F" horiz-adv-x="514" 
d="M261 536l-26 -147h255l-23 -129h-255l-45 -260h-147l117 666h423l-23 -130h-276z" />
    <glyph glyph-name="G" unicode="G" horiz-adv-x="591" 
d="M259 -10c-154 0 -222 64 -222 161c0 13 2 29 4 42l50 288c21 122 92 195 270 195c68 0 157 -16 209 -32l-33 -126c-54 15 -138 25 -191 25c-77 0 -103 -34 -113 -93l-41 -231c-2 -11 -3 -23 -3 -33c0 -41 20 -65 83 -65c30 0 70 5 98 11l33 182h138l-50 -281
c-61 -26 -141 -43 -232 -43z" />
    <glyph glyph-name="H" unicode="H" horiz-adv-x="637" 
d="M380 0l47 270h-213l-47 -270h-147l117 666h147l-47 -267h213l47 267h147l-117 -666h-147z" />
    <glyph glyph-name="I" unicode="I" horiz-adv-x="287" 
d="M25 0l117 666h147l-117 -666h-147z" />
    <glyph glyph-name="J" unicode="J" horiz-adv-x="290" 
d="M-5 -210l-70 106c74 47 94 67 100 103l118 667h149l-122 -690c-11 -62 -58 -110 -175 -186z" />
    <glyph glyph-name="K" unicode="K" horiz-adv-x="605" 
d="M373 0l-133 340l233 326h180l-251 -326l132 -340h-161zM20 0l117 666h147l-117 -666h-147z" />
    <glyph glyph-name="L" unicode="L" horiz-adv-x="491" 
d="M20 0l117 666h147l-95 -536h267l-22 -130h-414z" />
    <glyph glyph-name="M" unicode="M" horiz-adv-x="800" 
d="M561 0l47 365l-166 -278h-150l-56 278l-87 -365h-145l158 666h148l83 -430l243 430h147l-78 -666h-144z" />
    <glyph glyph-name="N" unicode="N" horiz-adv-x="683" 
d="M392 0l-149 457l-79 -457h-144l117 666h179l146 -483l85 483h143l-117 -666h-181z" />
    <glyph glyph-name="O" unicode="O" horiz-adv-x="616" 
d="M261 -10c-157 0 -224 87 -224 177c0 10 1 21 3 31l48 275c22 124 98 203 286 203c158 0 232 -90 232 -181c0 -9 -1 -20 -3 -30l-48 -272c-22 -127 -97 -203 -294 -203zM455 460c1 7 2 14 2 20c0 41 -27 66 -98 66c-76 0 -116 -33 -126 -86l-45 -254c-1 -8 -2 -16 -2 -23
c0 -40 26 -63 98 -63c76 0 116 29 126 86z" />
    <glyph glyph-name="P" unicode="P" horiz-adv-x="592" 
d="M335 203h-132l-36 -203h-147l117 666h254c143 0 212 -55 212 -150c0 -14 -3 -35 -6 -51l-13 -75c-22 -124 -73 -187 -249 -187zM439 404l9 53c2 12 3 22 3 29c0 34 -20 50 -65 50h-124l-36 -206h121c68 0 83 24 92 74z" />
    <glyph glyph-name="Q" unicode="Q" horiz-adv-x="616" 
d="M435 -93l-28 -113c-94 21 -177 32 -279 40l24 112c103 -4 186 -15 283 -39zM261 -10c-157 0 -224 87 -224 177c0 10 1 21 3 31l48 275c22 124 98 203 286 203c158 0 232 -90 232 -181c0 -9 -1 -20 -3 -30l-48 -272c-22 -127 -97 -203 -294 -203zM455 460c1 7 2 14 2 20
c0 41 -27 66 -98 66c-76 0 -116 -33 -126 -86l-45 -254c-1 -8 -2 -16 -2 -23c0 -40 26 -63 98 -63c76 0 116 29 126 86z" />
    <glyph glyph-name="R" unicode="R" horiz-adv-x="646" 
d="M421 0l-117 208h-101l-36 -208h-147l117 666h255c143 0 213 -54 213 -152c0 -13 -2 -26 -4 -41l-14 -80c-14 -83 -44 -136 -127 -165l126 -228h-165zM443 410l9 50c2 11 3 23 3 28c0 34 -21 48 -72 48h-122l-35 -201h126c65 0 82 24 91 75z" />
    <glyph glyph-name="S" unicode="S" horiz-adv-x="539" 
d="M218 -10c-55 0 -152 19 -204 44l32 113c64 -19 117 -33 181 -33c78 0 96 15 106 73c3 14 4 26 4 35c0 30 -20 38 -101 59c-111 28 -152 67 -152 145c0 21 3 45 8 72c29 148 69 178 250 178c51 0 135 -11 194 -26l-26 -123c-59 14 -135 23 -180 23c-72 0 -86 -10 -95 -63
c-2 -15 -4 -27 -4 -36c0 -32 20 -37 98 -57c124 -31 158 -69 158 -137c0 -21 -3 -44 -8 -71c-24 -137 -72 -196 -261 -196z" />
    <glyph glyph-name="T" unicode="T" horiz-adv-x="530" 
d="M388 536l-94 -536h-148l94 536h-180l23 130h508l-23 -130h-180z" />
    <glyph glyph-name="U" unicode="U" horiz-adv-x="622" 
d="M272 -10c-161 0 -226 81 -226 169c0 11 1 23 3 34l83 473h147l-80 -453c-2 -11 -3 -21 -3 -31c0 -40 21 -62 91 -62c80 0 109 32 119 87l81 459h147l-83 -473c-20 -112 -76 -203 -279 -203z" />
    <glyph glyph-name="V" unicode="V" horiz-adv-x="594" 
d="M362 0h-219l-71 666h150l48 -539l234 539h160z" />
    <glyph glyph-name="W" unicode="W" horiz-adv-x="954" 
d="M737 0h-188l-31 493l-205 -493h-183l-53 666h144l36 -485l206 485h168l33 -485l204 485h147z" />
    <glyph glyph-name="X" unicode="X" horiz-adv-x="616" 
d="M402 0l-93 214l-163 -214h-169l266 349l-132 317h153l86 -213l151 213h167l-258 -335l148 -331h-156z" />
    <glyph glyph-name="Y" unicode="Y" horiz-adv-x="535" 
d="M330 192l-33 -192h-148l33 192l-123 474h149l74 -308l175 308h169z" />
    <glyph glyph-name="Z" unicode="Z" horiz-adv-x="561" 
d="M39 0l-3 120l353 420h-285l22 126h439l-1 -121l-355 -422h286l-22 -123h-434z" />
    <glyph glyph-name="bracketleft" unicode="[" horiz-adv-x="315" 
d="M7 -126l162 916h220l-20 -111h-80l-122 -694h80l-20 -111h-220z" />
    <glyph glyph-name="backslash" unicode="\" horiz-adv-x="453" 
d="M222 -117l-107 793h126l107 -793h-126z" />
    <glyph glyph-name="bracketright" unicode="]" horiz-adv-x="315" 
d="M-48 -126l20 111h80l122 694h-80l20 111h220l-162 -916h-220z" />
    <glyph glyph-name="asciicircum" unicode="^" horiz-adv-x="471" 
d="M372 368l-82 211l-148 -211l-77 57l190 261h95l114 -282z" />
    <glyph glyph-name="underscore" unicode="_" horiz-adv-x="444" 
d="M445 -125h-446v50h446v-50z" />
    <glyph glyph-name="grave" unicode="`" horiz-adv-x="310" 
d="M299 604l-53 -66c-54 35 -94 67 -133 104l61 72c34 -35 76 -72 125 -110z" />
    <glyph glyph-name="a" unicode="a" horiz-adv-x="527" 
d="M420 0h-119l-4 42c-34 -26 -85 -52 -155 -52c-106 0 -127 64 -108 173l23 131c20 116 66 202 258 202c51 0 118 -9 186 -30zM198 293l-25 -145c-4 -26 2 -36 27 -36c36 0 75 21 107 48l37 211c-19 4 -40 5 -55 5c-73 0 -82 -36 -91 -83z" />
    <glyph glyph-name="b" unicode="b" horiz-adv-x="522" 
d="M210 -10c-51 0 -121 7 -188 23l119 673l144 20l-44 -251c41 24 89 42 142 42c106 0 132 -65 113 -174l-23 -131c-20 -116 -55 -202 -263 -202zM332 191l26 150c5 26 -2 38 -27 38c-31 0 -81 -20 -110 -38l-40 -230c17 -2 35 -3 55 -3c73 0 87 36 96 83z" />
    <glyph glyph-name="c" unicode="c" horiz-adv-x="417" 
d="M185 -10c-112 0 -157 38 -157 124c0 25 2 46 8 74l27 136c27 138 94 173 232 173c43 0 85 -9 113 -20l-34 -114c-24 8 -53 14 -81 14c-64 0 -85 -20 -95 -76l-26 -148c-1 -6 -2 -14 -2 -19c0 -16 8 -24 26 -24c36 0 103 20 137 30l13 -113c-41 -20 -109 -37 -161 -37z
" />
    <glyph glyph-name="d" unicode="d" horiz-adv-x="530" 
d="M420 0h-119l-4 42c-35 -29 -85 -52 -155 -52c-106 0 -132 64 -113 173l23 131c20 116 50 203 255 203c15 0 46 -2 59 -5l34 194l144 20zM193 293l-26 -147c-5 -26 2 -38 27 -38c50 0 86 26 113 50l38 217c-16 3 -35 4 -55 4c-73 0 -88 -39 -97 -86z" />
    <glyph glyph-name="e" unicode="e" horiz-adv-x="462" 
d="M31 176l24 137c20 112 70 184 224 184c92 0 162 -40 162 -122c0 -95 -49 -139 -169 -175c-59 -18 -60 -18 -102 -29l-6 -34c-3 -18 -1 -34 25 -34c51 0 125 25 191 54l27 -100c-59 -37 -152 -67 -238 -67c-101 0 -144 44 -144 127c0 18 2 38 6 59zM254 302
c38 11 56 29 56 58c0 17 -15 28 -41 28c-51 0 -66 -29 -73 -69l-6 -34c24 6 35 8 64 17z" />
    <glyph glyph-name="f" unicode="f" horiz-adv-x="358" 
d="M71 -207l-91 84c49 50 56 76 64 123l66 372h-70l20 115h70l12 64c20 108 58 155 176 155c40 0 87 -7 125 -21l-29 -111c-22 8 -61 15 -83 15c-32 0 -42 -8 -47 -33l-13 -69h126l-30 -115h-116l-68 -388c-12 -68 -36 -116 -112 -191z" />
    <glyph glyph-name="g" unicode="g" horiz-adv-x="532" 
d="M275 -49l17 101c-41 -24 -89 -42 -142 -42c-106 0 -132 65 -113 174l20 111c22 123 53 202 261 202c51 0 127 -9 189 -29l-96 -540c-19 -109 -66 -135 -196 -135c-58 0 -157 18 -217 38l25 99c75 -18 136 -28 194 -28c42 0 52 16 58 49zM198 296l-23 -130
c-5 -26 2 -38 27 -38c31 0 81 20 110 38l37 210c-17 2 -35 3 -55 3c-73 0 -87 -36 -96 -83z" />
    <glyph glyph-name="h" unicode="h" horiz-adv-x="547" 
d="M301 0l58 330c1 6 2 12 2 16c0 10 -5 14 -19 14c-26 0 -88 -26 -126 -46l-55 -314h-141l121 686l144 20l-45 -258c59 30 125 49 178 49c65 0 89 -37 89 -99c0 -17 -1 -36 -5 -56l-60 -342h-141z" />
    <glyph glyph-name="i" unicode="i" horiz-adv-x="271" 
d="M116 541l26 150l145 20l-27 -150zM20 0l84 476l145 20l-88 -496h-141z" />
    <glyph glyph-name="j" unicode="j" horiz-adv-x="274" 
d="M-1 -207l-69 97c70 54 85 62 93 110l84 476l145 20l-92 -519c-11 -64 -30 -99 -161 -184zM119 541l26 150l145 20l-27 -150z" />
    <glyph glyph-name="k" unicode="k" horiz-adv-x="512" 
d="M161 0h-141l120 686l145 20zM218 245l170 253l146 -22l-170 -231l90 -245h-149z" />
    <glyph glyph-name="l" unicode="l" horiz-adv-x="271" 
d="M20 0l120 686l145 20l-124 -706h-141z" />
    <glyph glyph-name="m" unicode="m" horiz-adv-x="828" 
d="M582 0l58 331c1 6 2 11 2 15c0 10 -5 14 -19 14c-26 0 -87 -26 -127 -47l-55 -313h-140l58 331c1 6 2 11 2 15c0 10 -5 14 -19 14c-26 0 -88 -26 -126 -46l-55 -314h-141l83 475l124 21l-1 -54c76 36 136 55 192 55c48 0 73 -21 84 -57c74 43 141 57 197 57
c65 0 89 -37 89 -99c0 -17 -1 -36 -5 -56l-60 -342h-141z" />
    <glyph glyph-name="n" unicode="n" horiz-adv-x="547" 
d="M301 0l58 331c1 6 2 11 2 15c0 10 -5 14 -19 14c-26 0 -88 -26 -126 -46l-55 -314h-141l83 475l124 21l-1 -54c76 36 136 55 192 55c65 0 89 -37 89 -99c0 -17 -1 -31 -5 -56l-60 -342h-141z" />
    <glyph glyph-name="o" unicode="o" horiz-adv-x="520" 
d="M214 -10c-124 0 -189 74 -189 163c0 11 1 23 3 34l20 113c22 125 83 197 253 197c131 0 190 -75 190 -162c0 -11 -1 -23 -3 -35l-20 -113c-21 -117 -77 -197 -254 -197zM348 304c1 7 2 14 2 20c0 36 -22 55 -68 55c-53 0 -84 -27 -92 -75l-21 -121c-1 -7 -2 -14 -2 -20
c0 -35 22 -55 68 -55c54 0 84 27 92 75z" />
    <glyph glyph-name="p" unicode="p" horiz-adv-x="530" 
d="M106 487h119l4 -42c35 29 85 52 155 52c106 0 132 -64 113 -173l-23 -131c-20 -116 -50 -203 -255 -203c-15 0 -46 2 -59 5l-34 -192l-144 -20zM333 194l26 147c5 26 -2 38 -27 38c-50 0 -86 -26 -113 -50l-38 -217c16 -3 35 -4 55 -4c73 0 88 39 97 86z" />
    <glyph glyph-name="q" unicode="q" horiz-adv-x="529" 
d="M315 497c51 0 121 -7 188 -23l-119 -671l-144 -20l44 249c-41 -24 -89 -42 -142 -42c-106 0 -132 65 -113 174l23 131c20 116 55 202 263 202zM193 296l-26 -150c-5 -26 2 -38 27 -38c31 0 81 20 110 38l40 230c-17 2 -35 3 -55 3c-73 0 -87 -36 -96 -83z" />
    <glyph glyph-name="r" unicode="r" horiz-adv-x="338" 
d="M351 496l2 -127c-62 -34 -85 -47 -141 -82l-51 -287h-141l83 475l124 21l-3 -66c47 28 85 48 127 66z" />
    <glyph glyph-name="s" unicode="s" horiz-adv-x="413" 
d="M163 -10c-45 0 -108 13 -151 32l27 104c37 -13 79 -25 132 -25c47 0 50 14 54 37c4 22 -10 34 -65 63c-102 54 -106 90 -93 163c19 105 50 133 185 133c46 0 105 -10 145 -23l-23 -106c-36 10 -89 18 -123 18c-42 0 -48 -5 -53 -31c-4 -23 1 -28 48 -53
c112 -60 129 -81 115 -158c-20 -110 -52 -154 -198 -154z" />
    <glyph glyph-name="t" unicode="t" horiz-adv-x="376" 
d="M360 374h-108l-43 -243c-1 -5 -2 -10 -2 -13c0 -7 4 -10 14 -10c24 0 51 10 76 20l28 -98c-40 -22 -98 -40 -155 -40c-71 0 -109 34 -109 92c0 7 1 14 2 21l48 271h-72l20 113h72l20 117l145 20l-24 -137h116z" />
    <glyph glyph-name="u" unicode="u" horiz-adv-x="548" 
d="M243 496l-59 -339c-1 -5 -2 -11 -2 -15c0 -10 5 -15 19 -15c26 0 90 28 126 46l53 303l145 20l-87 -496h-120l-1 45c-76 -36 -136 -55 -192 -55c-64 0 -89 38 -89 99c0 20 2 36 5 56l58 331z" />
    <glyph glyph-name="v" unicode="v" horiz-adv-x="478" 
d="M307 0h-191l-67 472l141 20l37 -363l102 243c9 24 12 44 12 62c0 15 -2 29 -5 42l137 20c4 -14 7 -35 7 -59c0 -28 -4 -60 -16 -88z" />
    <glyph glyph-name="w" unicode="w" horiz-adv-x="713" 
d="M190 491c13 -75 21 -150 21 -235c0 -32 -1 -65 -4 -100l122 236l-17 77l130 20l59 -327l53 205c4 20 6 35 6 50s-2 31 -8 53l136 26c6 -28 10 -52 10 -77c0 -33 -7 -69 -28 -123l-100 -296h-163l-42 221l-120 -221h-158c-1 206 -13 335 -32 470z" />
    <glyph glyph-name="x" unicode="x" horiz-adv-x="490" 
d="M289 0l-57 122l-101 -122h-149l193 245l-105 231l135 20l63 -162l105 153h150l-196 -261l103 -226h-141z" />
    <glyph glyph-name="y" unicode="y" horiz-adv-x="478" 
d="M307 0c-56 -112 -105 -168 -254 -216l-36 111c67 25 111 56 144 105h-45l-67 472l141 20l37 -363l102 243c9 24 12 44 12 62c0 15 -2 29 -5 42l137 20c4 -14 7 -35 7 -59c0 -28 -4 -60 -16 -88z" />
    <glyph glyph-name="z" unicode="z" horiz-adv-x="452" 
d="M31 0l-5 108l232 267h-184l19 112h330l-1 -108l-233 -266h192l-19 -113h-331z" />
    <glyph glyph-name="braceleft" unicode="{" horiz-adv-x="330" 
d="M167 -142c-93 0 -130 49 -112 148l40 230c4 22 -3 36 -32 36h-24l19 104h26c31 0 38 14 42 36l41 230c18 104 57 148 165 148h85l-20 -110h-42c-31 0 -44 -12 -50 -45l-36 -206c-11 -62 -41 -100 -106 -105c61 -4 80 -45 69 -105l-36 -206c-6 -33 6 -45 34 -45h42
l-20 -110h-85z" />
    <glyph glyph-name="bar" unicode="|" horiz-adv-x="276" 
d="M105 -210v1000h96v-1000h-96z" />
    <glyph glyph-name="braceright" unicode="}" horiz-adv-x="329" 
d="M187 790c93 0 130 -49 112 -148l-40 -230c-4 -22 3 -36 32 -36h24l-19 -104h-26c-31 0 -38 -14 -42 -36l-41 -230c-18 -104 -57 -148 -165 -148h-85l20 110h42c31 0 44 12 50 45l36 206c11 62 41 100 106 105c-61 4 -80 45 -69 105l36 206c6 33 -6 45 -34 45h-42l20 110
h85z" />
    <glyph glyph-name="asciitilde" unicode="~" horiz-adv-x="461" 
d="M312 187c-65 0 -111 63 -150 63c-37 0 -55 -31 -71 -62l-68 44c37 79 75 126 146 126c49 0 105 -63 149 -63c38 0 55 31 69 62l68 -44c-29 -72 -70 -126 -143 -126z" />
    <glyph glyph-name="uni00A0" unicode="&#xa0;" horiz-adv-x="210" 
 />
    <glyph glyph-name="exclamdown" unicode="&#xa1;" horiz-adv-x="284" 
d="M102 255h80l-1 -174l-49 -278h-140l49 278zM255 487l-29 -166h-144l29 166h144z" />
    <glyph glyph-name="cent" unicode="&#xa2;" horiz-adv-x="425" 
d="M127 -10l16 93c-77 10 -108 49 -108 121c0 25 3 46 8 74l24 122c23 117 70 168 164 182l17 94h90l-16 -90c36 -2 69 -10 93 -19l-34 -114c-24 8 -53 14 -81 14c-64 0 -85 -20 -95 -76l-26 -148c-1 -6 -2 -14 -2 -19c0 -16 8 -24 26 -24c36 0 103 20 137 30l13 -113
c-31 -15 -77 -29 -120 -34l-16 -93h-90z" />
    <glyph glyph-name="sterling" unicode="&#xa3;" horiz-adv-x="538" 
d="M20 0l21 118c67 39 118 105 118 165h-101l15 101h72c-8 22 -16 65 -16 95c0 123 67 177 214 177c51 0 119 -9 175 -24l-20 -109c-44 9 -104 16 -149 16c-58 0 -82 -18 -82 -74c0 -29 6 -61 14 -81h175l-16 -101h-150c0 -56 -20 -123 -85 -166h270l-21 -117h-434z" />
    <glyph glyph-name="currency" unicode="&#xa4;" horiz-adv-x="583" 
d="M549 524l-57 -69c2 -8 3 -18 3 -27c0 -13 -1 -18 -2 -26l-23 -134c-4 -22 -8 -36 -20 -58l53 -64l-86 -73l-58 70c-25 -7 -55 -10 -90 -10c-23 0 -43 2 -60 6l-54 -66l-86 73l51 62c-3 11 -5 22 -5 35c0 8 1 16 2 25l23 134c4 24 11 45 23 63l-48 59l86 73l56 -69
c23 6 51 9 83 9c26 0 48 -3 67 -8l56 68zM256 389l-19 -108c-1 -5 -1 -12 -1 -14c0 -26 21 -28 52 -28s58 4 65 42l19 108c1 5 1 8 1 11c0 28 -24 31 -52 31c-31 0 -58 -4 -65 -42z" />
    <glyph glyph-name="yen" unicode="&#xa5;" horiz-adv-x="548" 
d="M53 289l16 89h72l-70 268h149l69 -288l164 288h169l-169 -268h87l-17 -89h-126l-52 -83h165l-17 -89h-169l-20 -117h-148l20 117h-153l16 89h146l-21 83h-111z" />
    <glyph glyph-name="brokenbar" unicode="&#xa6;" horiz-adv-x="276" 
d="M105 375v415h96v-415h-96zM105 -210v415h96v-415h-96z" />
    <glyph glyph-name="section" unicode="&#xa7;" horiz-adv-x="524" 
d="M404 556c-43 11 -99 23 -144 23c-32 0 -48 -13 -53 -43c-8 -45 -11 -101 -11 -163c0 -114 11 -245 26 -356l-109 -17c-19 114 -31 250 -31 372c0 69 4 133 13 186c13 75 50 118 165 118c61 0 128 -14 168 -29zM121 -67c43 -11 99 -23 144 -23c32 0 48 13 53 43
c8 45 11 101 11 163c0 114 -11 245 -26 356l109 17c19 -114 31 -250 31 -372c0 -69 -4 -133 -13 -186c-13 -75 -50 -118 -165 -118c-61 0 -128 14 -168 29z" />
    <glyph glyph-name="dieresis" unicode="&#xa8;" horiz-adv-x="435" 
d="M115 553l21 118l111 5l-20 -118zM313 553l21 118l111 5l-20 -118z" />
    <glyph glyph-name="copyright" unicode="&#xa9;" horiz-adv-x="772" 
d="M406 -10c-206 0 -341 154 -341 343c0 190 135 343 341 343s341 -153 341 -343c0 -189 -135 -343 -341 -343zM406 585c-150 0 -248 -109 -248 -252c0 -142 98 -252 248 -252s248 110 248 252c0 143 -98 252 -248 252zM415 161c-108 0 -145 45 -145 127v93
c0 82 37 127 145 127c32 0 72 -9 96 -19l-15 -78c-24 8 -50 12 -74 12c-36 0 -51 -11 -51 -41v-95c0 -30 15 -41 51 -41c24 0 50 4 74 12l15 -78c-24 -10 -64 -19 -96 -19z" />
    <glyph glyph-name="ordfeminine" unicode="&#xaa;" horiz-adv-x="380" 
d="M339 378h-77l-1 29c-25 -18 -58 -35 -102 -35c-54 0 -74 26 -74 71c0 16 1 25 4 41l13 69c18 103 62 143 170 143c33 0 88 -10 118 -20zM194 566l-16 -91c-1 -6 -2 -10 -2 -14c0 -6 5 -9 14 -9c24 0 59 21 78 38l21 127c-5 1 -15 2 -24 2c-45 0 -64 -14 -71 -53z" />
    <glyph glyph-name="guillemotleft" unicode="&#xab;" horiz-adv-x="507" 
d="M119 52l-94 192l153 192l85 -71l-103 -121l58 -143zM346 52l-94 192l153 192l85 -71l-103 -121l58 -143z" />
    <glyph glyph-name="logicalnot" unicode="&#xac;" horiz-adv-x="504" 
d="M338 104v156h-288v108h404v-264h-116z" />
    <glyph glyph-name="registered" unicode="&#xae;" horiz-adv-x="437" 
d="M273 333c-108 0 -178 81 -178 182s70 181 178 181c109 0 179 -80 179 -181s-70 -182 -179 -182zM273 643c-84 0 -123 -58 -123 -128s39 -129 123 -129s124 59 124 129s-40 128 -124 128zM311 437l-38 55h-23v-55h-36v164h67c37 0 53 -16 53 -47v-16c0 -19 -8 -33 -23 -40
l41 -61h-41zM299 550c0 13 -7 18 -21 18h-28v-44h28c15 0 21 7 21 18v8z" />
    <glyph glyph-name="macron" unicode="&#xaf;" horiz-adv-x="351" 
d="M105 554l16 92h250l-16 -92h-250z" />
    <glyph glyph-name="degree" unicode="&#xb0;" horiz-adv-x="373" 
d="M204 388c-71 0 -114 45 -114 106c0 92 50 162 159 162c74 0 116 -48 116 -107c0 -86 -57 -161 -161 -161zM240 591c-48 0 -76 -33 -76 -86c0 -29 15 -52 51 -52c49 0 75 42 75 85c0 31 -15 53 -50 53z" />
    <glyph glyph-name="plusminus" unicode="&#xb1;" horiz-adv-x="516" 
d="M315 309v-149h-111v149h-146v107h146v150h111v-150h146v-107h-146zM58 0v102h403v-102h-403z" />
    <glyph glyph-name="twosuperior" unicode="&#xb2;" horiz-adv-x="401" 
d="M98 406l13 76c40 35 57 50 108 95c75 66 78 69 82 95l3 18c1 5 1 10 1 12c0 18 -10 23 -35 23c-27 0 -66 -6 -103 -15l-15 85c47 14 86 22 133 22c75 0 124 -30 124 -91c0 -8 -1 -16 -2 -24l-5 -30c-6 -33 -9 -53 -53 -96c-37 -37 -58 -57 -87 -85h120l-14 -85h-270z" />
    <glyph glyph-name="threesuperior" unicode="&#xb3;" horiz-adv-x="381" 
d="M221 398c-35 0 -85 9 -123 22l18 73c39 -9 67 -14 110 -14c28 0 39 6 43 28l6 35c1 6 1 7 1 9c0 15 -9 19 -29 19h-103l13 74h96c27 0 37 14 40 33l4 24c1 6 1 9 1 13c0 16 -9 22 -44 22c-21 0 -62 -2 -85 -6l-5 75c30 7 76 12 109 12c94 0 126 -27 126 -78
c0 -8 0 -16 -2 -26l-4 -24c-7 -45 -18 -62 -63 -79c33 -12 43 -31 43 -57c0 -9 -1 -18 -3 -29l-4 -23c-14 -78 -40 -103 -145 -103z" />
    <glyph glyph-name="acute" unicode="&#xb4;" horiz-adv-x="310" 
d="M156 538l-41 74c53 29 107 63 164 102l45 -82c-59 -40 -103 -63 -168 -94z" />
    <glyph glyph-name="mu" unicode="&#xb5;" horiz-adv-x="548" 
d="M243 496l-59 -339c-1 -6 -2 -11 -2 -15c0 -10 5 -15 19 -15c26 0 90 26 126 46l53 303l145 20l-87 -496h-120l-1 45c-63 -30 -115 -48 -163 -53l-33 -189h-140l118 673z" />
    <glyph glyph-name="paragraph" unicode="&#xb6;" horiz-adv-x="530" 
d="M80 399c0 172 116 267 265 267l-79 -447c-115 0 -186 75 -186 180zM369 -79c-30 -27 -75 -62 -159 -128l-52 75c126 99 141 107 149 152l114 646h106l-117 -662c-6 -36 -13 -57 -41 -83z" />
    <glyph glyph-name="periodcentered" unicode="&#xb7;" horiz-adv-x="278" 
d="M65 254l29 166h141l-29 -166h-141z" />
    <glyph glyph-name="cedilla" unicode="&#xb8;" horiz-adv-x="292" 
d="M56 -197c-18 0 -51 7 -71 15l16 52c16 -5 38 -9 57 -9c39 0 54 12 54 31c0 11 -6 18 -21 18c-12 0 -28 0 -54 -2l-16 16l38 96h59l-25 -69c13 2 23 3 33 3c40 0 56 -30 56 -57c0 -62 -39 -94 -126 -94z" />
    <glyph glyph-name="onesuperior" unicode="&#xb9;" horiz-adv-x="356" 
d="M183 406l51 287l-84 -34l-29 76l154 74h80l-71 -403h-101z" />
    <glyph glyph-name="ordmasculine" unicode="&#xba;" horiz-adv-x="393" 
d="M216 372c-79 0 -121 47 -121 104c0 7 1 15 2 22l13 72c14 80 53 126 162 126c84 0 121 -48 121 -104c0 -7 -1 -15 -2 -22l-12 -72c-14 -75 -50 -126 -163 -126zM302 573c1 4 1 9 1 12c0 23 -14 36 -43 36c-34 0 -54 -18 -59 -48l-14 -78c-1 -5 -1 -9 -1 -12
c0 -23 14 -36 44 -36c34 0 53 18 58 48z" />
    <glyph glyph-name="guillemotright" unicode="&#xbb;" horiz-adv-x="506" 
d="M393 436l94 -192l-153 -192l-85 71l103 121l-58 143zM166 436l94 -192l-153 -192l-85 71l103 121l-58 143z" />
    <glyph glyph-name="onequarter" unicode="&#xbc;" horiz-adv-x="864" 
d="M713 78l-13 -78h-96l13 78h-179l7 70l182 255h144l-44 -248h57l-12 -77h-59zM662 329l-116 -174h85zM230 -51l-64 41l434 705l65 -39zM154 243l51 287l-84 -34l-29 76l154 74h80l-71 -403h-101z" />
    <glyph glyph-name="onehalf" unicode="&#xbd;" horiz-adv-x="876" 
d="M500 0l13 76c40 35 57 50 108 95c75 66 78 69 82 95l3 18c1 5 1 10 1 12c0 18 -10 23 -35 23c-27 0 -66 -6 -103 -15l-15 85c47 14 86 22 133 22c75 0 124 -30 124 -91c0 -8 -1 -16 -2 -24l-5 -30c-6 -33 -9 -53 -53 -96c-37 -37 -58 -57 -87 -85h120l-14 -85h-270z
M230 -51l-64 41l434 705l65 -39zM154 243l51 287l-84 -34l-29 76l154 74h80l-71 -403h-101z" />
    <glyph glyph-name="threequarters" unicode="&#xbe;" horiz-adv-x="899" 
d="M748 78l-13 -78h-96l13 78h-179l7 70l182 255h144l-44 -248h57l-12 -77h-59zM697 329l-116 -174h85zM265 -51l-64 41l434 705l65 -39zM193 237c-35 0 -85 9 -123 22l18 73c39 -9 67 -14 110 -14c28 0 39 6 43 28l6 35c1 6 1 7 1 9c0 15 -9 19 -29 19h-103l13 74h96
c27 0 37 14 40 33l4 24c1 6 1 9 1 13c0 16 -9 22 -44 22c-21 0 -62 -2 -85 -6l-5 75c30 7 76 12 109 12c94 0 126 -27 126 -78c0 -8 0 -16 -2 -26l-4 -24c-7 -45 -18 -62 -63 -79c33 -12 43 -31 43 -57c0 -9 -1 -18 -3 -29l-4 -23c-14 -78 -40 -103 -145 -103z" />
    <glyph glyph-name="questiondown" unicode="&#xbf;" horiz-adv-x="482" 
d="M245 259l68 -102c-158 -106 -162 -114 -170 -167c-1 -7 -2 -15 -2 -19c0 -39 10 -53 85 -53c45 0 99 9 143 17l14 -120c-53 -13 -128 -22 -189 -22c-134 0 -198 50 -198 134c0 17 2 35 5 55c21 121 26 135 244 277zM363 487l-29 -166h-141l29 166h141z" />
    <glyph glyph-name="Agrave" unicode="&#xc0;" horiz-adv-x="632" 
d="M425 0l-14 131h-227l-60 -131h-159l320 666h201l95 -666h-156zM369 543l-131 -290h159zM440 773l-53 -66c-51 30 -88 62 -119 90l61 72c34 -35 63 -59 111 -96z" />
    <glyph glyph-name="Aacute" unicode="&#xc1;" horiz-adv-x="632" 
d="M425 0l-14 131h-227l-60 -131h-159l320 666h201l95 -666h-156zM369 543l-131 -290h159zM381 707l-41 74c53 29 86 49 143 88l45 -82c-48 -34 -91 -57 -147 -80z" />
    <glyph glyph-name="Acircumflex" unicode="&#xc2;" horiz-adv-x="632" 
d="M425 0l-14 131h-227l-60 -131h-159l320 666h201l95 -666h-156zM369 543l-131 -290h159zM479 709c-39 19 -57 32 -83 51c-25 -20 -52 -37 -85 -51l-39 66c55 31 92 54 142 90c25 -28 63 -61 109 -96z" />
    <glyph glyph-name="Atilde" unicode="&#xc3;" horiz-adv-x="632" 
d="M425 0l-14 131h-227l-60 -131h-159l320 666h201l95 -666h-156zM369 543l-131 -290h159zM456 716c-57 0 -71 44 -109 44c-24 0 -44 -27 -58 -45l-51 46c27 51 71 85 115 85c48 0 81 -45 114 -45c23 0 35 14 46 41l60 -30c-23 -54 -52 -96 -117 -96z" />
    <glyph glyph-name="Adieresis" unicode="&#xc4;" horiz-adv-x="632" 
d="M425 0l-14 131h-227l-60 -131h-159l320 666h201l95 -666h-156zM369 543l-131 -290h159zM347 727h-114l19 109h114zM557 727h-114l19 109h114z" />
    <glyph glyph-name="Aring" unicode="&#xc5;" horiz-adv-x="632" 
d="M425 0l-14 131h-227l-60 -131h-159l320 666h201l95 -666h-156zM369 543l-131 -290h159zM394 707c-43 0 -75 29 -75 69c0 63 38 100 103 100c48 0 78 -29 78 -66c0 -56 -32 -103 -106 -103zM416 827c-25 0 -41 -16 -41 -45c0 -16 8 -26 27 -26c27 0 42 17 42 45
c0 16 -11 26 -28 26z" />
    <glyph glyph-name="AE" unicode="&#xc6;" horiz-adv-x="853" 
d="M425 0l-14 131h-227l-60 -131h-159l320 666h592l-23 -130h-353l18 -127h292l-23 -129h-250l21 -150h223l-22 -130h-335zM369 543l-131 -290h159z" />
    <glyph glyph-name="Ccedilla" unicode="&#xc7;" horiz-adv-x="530" 
d="M223 -197c-18 0 -51 7 -71 15l16 52c16 -5 38 -9 57 -9c39 0 54 12 54 31c0 11 -6 18 -21 18c-12 0 -28 0 -54 -2l-16 16l26 68c-122 10 -177 75 -177 161c0 11 1 24 4 40l51 288c24 136 107 195 269 195c67 0 127 -11 192 -29l-33 -126c-56 12 -126 22 -174 22
c-71 0 -100 -24 -112 -94l-41 -232c-2 -11 -3 -24 -3 -31c0 -46 26 -63 82 -63c48 0 113 6 173 19l5 -126c-47 -14 -111 -23 -176 -25l-14 -40c13 2 23 3 33 3c40 0 56 -30 56 -57c0 -62 -39 -94 -126 -94z" />
    <glyph glyph-name="Egrave" unicode="&#xc8;" horiz-adv-x="532" 
d="M20 0l117 666h419l-23 -130h-272l-22 -127h251l-23 -129h-251l-27 -150h272l-22 -130h-419zM410 773l-53 -66c-51 30 -88 62 -119 90l61 72c34 -35 63 -59 111 -96z" />
    <glyph glyph-name="Eacute" unicode="&#xc9;" horiz-adv-x="532" 
d="M20 0l117 666h419l-23 -130h-272l-22 -127h251l-23 -129h-251l-27 -150h272l-22 -130h-419zM324 707l-41 74c53 29 86 49 143 88l45 -82c-48 -34 -91 -57 -147 -80z" />
    <glyph glyph-name="Ecircumflex" unicode="&#xca;" horiz-adv-x="532" 
d="M20 0l117 666h419l-23 -130h-272l-22 -127h251l-23 -129h-251l-27 -150h272l-22 -130h-419zM437 709c-39 19 -57 32 -83 51c-25 -20 -52 -37 -85 -51l-39 66c55 31 92 54 142 90c25 -28 63 -61 109 -96z" />
    <glyph glyph-name="Edieresis" unicode="&#xcb;" horiz-adv-x="532" 
d="M20 0l117 666h419l-23 -130h-272l-22 -127h251l-23 -129h-251l-27 -150h272l-22 -130h-419zM308 727h-114l19 109h114zM518 727h-114l19 109h114z" />
    <glyph glyph-name="Igrave" unicode="&#xcc;" horiz-adv-x="287" 
d="M25 0l117 666h147l-117 -666h-147zM274 773l-53 -66c-51 30 -88 62 -119 90l61 72c34 -35 63 -59 111 -96z" />
    <glyph glyph-name="Iacute" unicode="&#xcd;" horiz-adv-x="287" 
d="M25 0l117 666h147l-117 -666h-147zM202 707l-41 74c53 29 86 49 143 88l45 -82c-48 -34 -91 -57 -147 -80z" />
    <glyph glyph-name="Icircumflex" unicode="&#xce;" horiz-adv-x="287" 
d="M25 0l117 666h147l-117 -666h-147zM314 709c-39 19 -57 32 -83 51c-25 -20 -52 -37 -85 -51l-39 66c55 31 92 54 142 90c25 -28 63 -61 109 -96z" />
    <glyph glyph-name="Idieresis" unicode="&#xcf;" horiz-adv-x="287" 
d="M25 0l117 666h147l-117 -666h-147zM179 727h-114l19 109h114zM389 727h-114l19 109h114z" />
    <glyph glyph-name="Eth" unicode="&#xd0;" horiz-adv-x="619" 
d="M27 278l20 115h63l48 273h254c144 0 197 -79 197 -163c0 -12 -1 -25 -3 -37l-52 -294c-15 -88 -51 -172 -242 -172h-272l49 278h-62zM456 453c2 10 3 19 3 27c0 36 -21 56 -84 56h-93l-26 -143h93l-20 -115h-93l-26 -148h102c79 0 93 30 102 83z" />
    <glyph glyph-name="Ntilde" unicode="&#xd1;" horiz-adv-x="683" 
d="M392 0l-149 457l-79 -457h-144l117 666h179l146 -483l85 483h143l-117 -666h-181zM478 716c-57 0 -71 44 -109 44c-24 0 -44 -27 -58 -45l-51 46c27 51 71 85 115 85c48 0 81 -45 114 -45c23 0 35 14 46 41l60 -30c-23 -54 -52 -96 -117 -96z" />
    <glyph glyph-name="Ograve" unicode="&#xd2;" horiz-adv-x="616" 
d="M261 -10c-157 0 -224 87 -224 177c0 10 1 21 3 31l48 275c22 124 98 203 286 203c158 0 232 -90 232 -181c0 -9 -1 -20 -3 -30l-48 -272c-22 -127 -97 -203 -294 -203zM455 460c1 7 2 14 2 20c0 41 -27 66 -98 66c-76 0 -116 -33 -126 -86l-45 -254c-1 -8 -2 -16 -2 -23
c0 -40 26 -63 98 -63c76 0 116 29 126 86zM435 773l-53 -66c-51 30 -88 62 -119 90l61 72c34 -35 63 -59 111 -96z" />
    <glyph glyph-name="Oacute" unicode="&#xd3;" horiz-adv-x="616" 
d="M261 -10c-157 0 -224 87 -224 177c0 10 1 21 3 31l48 275c22 124 98 203 286 203c158 0 232 -90 232 -181c0 -9 -1 -20 -3 -30l-48 -272c-22 -127 -97 -203 -294 -203zM455 460c1 7 2 14 2 20c0 41 -27 66 -98 66c-76 0 -116 -33 -126 -86l-45 -254c-1 -8 -2 -16 -2 -23
c0 -40 26 -63 98 -63c76 0 116 29 126 86zM366 707l-41 74c53 29 86 49 143 88l45 -82c-48 -34 -91 -57 -147 -80z" />
    <glyph glyph-name="Ocircumflex" unicode="&#xd4;" horiz-adv-x="616" 
d="M261 -10c-157 0 -224 87 -224 177c0 10 1 21 3 31l48 275c22 124 98 203 286 203c158 0 232 -90 232 -181c0 -9 -1 -20 -3 -30l-48 -272c-22 -127 -97 -203 -294 -203zM455 460c1 7 2 14 2 20c0 41 -27 66 -98 66c-76 0 -116 -33 -126 -86l-45 -254c-1 -8 -2 -16 -2 -23
c0 -40 26 -63 98 -63c76 0 116 29 126 86zM466 709c-39 19 -57 32 -83 51c-25 -20 -52 -37 -85 -51l-39 66c55 31 92 54 142 90c25 -28 63 -61 109 -96z" />
    <glyph glyph-name="Otilde" unicode="&#xd5;" horiz-adv-x="616" 
d="M261 -10c-157 0 -224 87 -224 177c0 10 1 21 3 31l48 275c22 124 98 203 286 203c158 0 232 -90 232 -181c0 -9 -1 -20 -3 -30l-48 -272c-22 -127 -97 -203 -294 -203zM455 460c1 7 2 14 2 20c0 41 -27 66 -98 66c-76 0 -116 -33 -126 -86l-45 -254c-1 -8 -2 -16 -2 -23
c0 -40 26 -63 98 -63c76 0 116 29 126 86zM430 716c-57 0 -71 44 -109 44c-24 0 -44 -27 -58 -45l-51 46c27 51 71 85 115 85c48 0 81 -45 114 -45c23 0 35 14 46 41l60 -30c-23 -54 -52 -96 -117 -96z" />
    <glyph glyph-name="Odieresis" unicode="&#xd6;" horiz-adv-x="616" 
d="M261 -10c-157 0 -224 87 -224 177c0 10 1 21 3 31l48 275c22 124 98 203 286 203c158 0 232 -90 232 -181c0 -9 -1 -20 -3 -30l-48 -272c-22 -127 -97 -203 -294 -203zM455 460c1 7 2 14 2 20c0 41 -27 66 -98 66c-76 0 -116 -33 -126 -86l-45 -254c-1 -8 -2 -16 -2 -23
c0 -40 26 -63 98 -63c76 0 116 29 126 86zM340 727h-114l19 109h114zM550 727h-114l19 109h114z" />
    <glyph glyph-name="multiply" unicode="&#xd7;" horiz-adv-x="484" 
d="M345 54l-103 104l-103 -104l-79 80l103 104l-103 104l79 80l103 -104l103 104l79 -80l-103 -104l103 -104z" />
    <glyph glyph-name="Oslash" unicode="&#xd8;" horiz-adv-x="616" 
d="M2 -23l70 90c-22 29 -32 64 -32 100c0 10 1 21 3 31l48 275c22 124 98 203 286 203c60 0 109 -14 145 -35l67 85l47 -37l-68 -86c27 -32 41 -70 41 -108c0 -9 -1 -20 -3 -30l-48 -272c-22 -127 -97 -203 -294 -203c-63 0 -111 14 -147 36l-67 -86zM458 460v2l-252 -322
c15 -13 41 -20 81 -20c76 0 116 29 126 86zM236 460l-42 -238l241 308c-15 10 -39 16 -73 16c-76 0 -116 -33 -126 -86z" />
    <glyph glyph-name="Ugrave" unicode="&#xd9;" horiz-adv-x="622" 
d="M272 -10c-161 0 -226 81 -226 169c0 11 1 23 3 34l83 473h147l-80 -453c-2 -11 -3 -21 -3 -31c0 -40 21 -62 91 -62c80 0 109 32 119 87l81 459h147l-83 -473c-20 -112 -76 -203 -279 -203zM451 773l-53 -66c-51 30 -88 62 -119 90l61 72c34 -35 63 -59 111 -96z" />
    <glyph glyph-name="Uacute" unicode="&#xda;" horiz-adv-x="622" 
d="M272 -10c-161 0 -226 81 -226 169c0 11 1 23 3 34l83 473h147l-80 -453c-2 -11 -3 -21 -3 -31c0 -40 21 -62 91 -62c80 0 109 32 119 87l81 459h147l-83 -473c-20 -112 -76 -203 -279 -203zM356 707l-41 74c53 29 86 49 143 88l45 -82c-48 -34 -91 -57 -147 -80z" />
    <glyph glyph-name="Ucircumflex" unicode="&#xdb;" horiz-adv-x="622" 
d="M272 -10c-161 0 -226 81 -226 169c0 11 1 23 3 34l83 473h147l-80 -453c-2 -11 -3 -21 -3 -31c0 -40 21 -62 91 -62c80 0 109 32 119 87l81 459h147l-83 -473c-20 -112 -76 -203 -279 -203zM481 709c-39 19 -57 32 -83 51c-25 -20 -52 -37 -85 -51l-39 66
c55 31 92 54 142 90c25 -28 63 -61 109 -96z" />
    <glyph glyph-name="Udieresis" unicode="&#xdc;" horiz-adv-x="622" 
d="M272 -10c-161 0 -226 81 -226 169c0 11 1 23 3 34l83 473h147l-80 -453c-2 -11 -3 -21 -3 -31c0 -40 21 -62 91 -62c80 0 109 32 119 87l81 459h147l-83 -473c-20 -112 -76 -203 -279 -203zM342 727h-114l19 109h114zM552 727h-114l19 109h114z" />
    <glyph glyph-name="Yacute" unicode="&#xdd;" horiz-adv-x="535" 
d="M330 192l-33 -192h-148l33 192l-123 474h149l74 -308l175 308h169zM309 707l-41 74c53 29 86 49 143 88l45 -82c-48 -34 -91 -57 -147 -80z" />
    <glyph glyph-name="Thorn" unicode="&#xde;" horiz-adv-x="594" 
d="M316 97h-133l-17 -97h-146l116 666h147l-18 -106h107c143 0 212 -55 212 -150c0 -13 -3 -33 -6 -51l-13 -75c-22 -124 -73 -187 -249 -187zM420 298l9 53c2 12 3 22 3 29c0 34 -20 50 -65 50h-125l-36 -206h122c68 0 83 24 92 74z" />
    <glyph glyph-name="germandbls" unicode="&#xdf;" horiz-adv-x="589" 
d="M366 -10c-29 0 -84 6 -120 17l22 104c24 -6 68 -10 90 -10c28 0 48 6 48 36c0 11 -9 17 -56 65c-45 45 -59 71 -59 100c0 47 10 71 57 130c47 58 59 82 59 114c0 28 -18 43 -64 43c-62 0 -78 -21 -87 -72l-93 -533c-12 -68 -36 -116 -112 -191l-91 84c49 50 56 76 64 123
l91 519c22 125 66 187 237 187c120 0 197 -56 197 -137c0 -50 -16 -97 -59 -150c-48 -60 -55 -68 -55 -84c0 -12 8 -25 45 -65c50 -54 64 -75 64 -102c0 -107 -43 -178 -178 -178z" />
    <glyph glyph-name="agrave" unicode="&#xe0;" horiz-adv-x="527" 
d="M420 0h-119l-4 42c-34 -26 -85 -52 -155 -52c-106 0 -127 64 -108 173l23 131c20 116 66 202 258 202c51 0 118 -9 186 -30zM198 293l-25 -145c-4 -26 2 -36 27 -36c36 0 75 21 107 48l37 211c-19 4 -40 5 -55 5c-73 0 -82 -36 -91 -83zM396 604l-53 -66
c-54 35 -94 67 -133 104l61 72c34 -35 76 -72 125 -110z" />
    <glyph glyph-name="aacute" unicode="&#xe1;" horiz-adv-x="527" 
d="M420 0h-119l-4 42c-34 -26 -85 -52 -155 -52c-106 0 -127 64 -108 173l23 131c20 116 66 202 258 202c51 0 118 -9 186 -30zM198 293l-25 -145c-4 -26 2 -36 27 -36c36 0 75 21 107 48l37 211c-19 4 -40 5 -55 5c-73 0 -82 -36 -91 -83zM284 538l-41 74
c53 29 107 63 164 102l45 -82c-59 -40 -103 -63 -168 -94z" />
    <glyph glyph-name="acircumflex" unicode="&#xe2;" horiz-adv-x="527" 
d="M420 0h-119l-4 42c-34 -26 -85 -52 -155 -52c-106 0 -127 64 -108 173l23 131c20 116 66 202 258 202c51 0 118 -9 186 -30zM198 293l-25 -145c-4 -26 2 -36 27 -36c36 0 75 21 107 48l37 211c-19 4 -40 5 -55 5c-73 0 -82 -36 -91 -83zM428 532c-33 17 -66 42 -92 66
c-32 -25 -60 -43 -104 -66l-39 66c51 31 98 61 162 108c34 -41 73 -78 117 -114z" />
    <glyph glyph-name="atilde" unicode="&#xe3;" horiz-adv-x="527" 
d="M420 0h-119l-4 42c-34 -26 -85 -52 -155 -52c-106 0 -127 64 -108 173l23 131c20 116 66 202 258 202c51 0 118 -9 186 -30zM198 293l-25 -145c-4 -26 2 -36 27 -36c36 0 75 21 107 48l37 211c-19 4 -40 5 -55 5c-73 0 -82 -36 -91 -83zM384 546c-57 0 -71 44 -109 44
c-24 0 -44 -27 -58 -45l-51 46c27 51 71 85 115 85c48 0 81 -45 114 -45c23 0 35 14 46 41l60 -30c-23 -54 -52 -96 -117 -96z" />
    <glyph glyph-name="adieresis" unicode="&#xe4;" horiz-adv-x="527" 
d="M420 0h-119l-4 42c-34 -26 -85 -52 -155 -52c-106 0 -127 64 -108 173l23 131c20 116 66 202 258 202c51 0 118 -9 186 -30zM198 293l-25 -145c-4 -26 2 -36 27 -36c36 0 75 21 107 48l37 211c-19 4 -40 5 -55 5c-73 0 -82 -36 -91 -83zM172 553l21 118l111 5l-20 -118z
M370 553l21 118l111 5l-20 -118z" />
    <glyph glyph-name="aring" unicode="&#xe5;" horiz-adv-x="527" 
d="M420 0h-119l-4 42c-34 -26 -85 -52 -155 -52c-106 0 -127 64 -108 173l23 131c20 116 66 202 258 202c51 0 118 -9 186 -30zM198 293l-25 -145c-4 -26 2 -36 27 -36c36 0 75 21 107 48l37 211c-19 4 -40 5 -55 5c-73 0 -82 -36 -91 -83zM332 542c-46 0 -81 32 -81 76
c0 67 44 110 113 110c52 0 81 -34 81 -74c0 -59 -35 -112 -113 -112zM356 678c-27 0 -48 -23 -48 -53c0 -19 9 -33 32 -33c29 0 48 23 48 53c0 20 -11 33 -32 33z" />
    <glyph glyph-name="ae" unicode="&#xe6;" horiz-adv-x="721" 
d="M251 497c61 0 108 -14 134 -54c31 33 83 54 144 54c107 0 167 -55 167 -143c0 -91 -47 -162 -279 -177l-4 -23c-1 -5 -2 -12 -2 -16c0 -22 14 -33 44 -33c49 0 127 17 188 44l27 -102c-63 -35 -156 -57 -231 -57c-61 0 -108 18 -137 52c-44 -38 -89 -52 -147 -52
c-92 0 -138 59 -138 127c0 110 67 156 171 156h106l7 40c2 11 3 20 3 28c0 30 -17 41 -79 41c-42 0 -91 -6 -138 -15l-14 103c53 16 123 27 178 27zM442 318l-8 -44c113 11 137 34 137 76c0 23 -19 37 -52 37c-41 0 -69 -23 -77 -69zM277 176h-62c-41 0 -65 -11 -65 -46
c0 -17 9 -35 38 -35c28 0 60 9 85 24v15c0 12 1 25 4 42z" />
    <glyph glyph-name="ccedilla" unicode="&#xe7;" horiz-adv-x="417" 
d="M163 -197c-18 0 -51 7 -71 15l16 52c16 -5 38 -9 57 -9c39 0 54 12 54 31c0 11 -6 18 -21 18c-12 0 -28 0 -54 -2l-16 16l26 67c-89 7 -126 45 -126 123c0 25 3 46 8 74l24 122c28 143 92 187 235 187c43 0 85 -9 113 -20l-34 -114c-24 8 -53 14 -81 14
c-64 0 -85 -20 -95 -76l-26 -148c-1 -6 -2 -14 -2 -19c0 -16 8 -24 26 -24c36 0 103 20 137 30l13 -113c-34 -17 -86 -31 -132 -35l-14 -41c13 2 23 3 33 3c40 0 56 -30 56 -57c0 -62 -39 -94 -126 -94z" />
    <glyph glyph-name="egrave" unicode="&#xe8;" horiz-adv-x="462" 
d="M31 176l24 137c20 112 70 184 224 184c92 0 162 -40 162 -122c0 -95 -49 -139 -169 -175c-59 -18 -60 -18 -102 -29l-6 -34c-3 -18 -1 -34 25 -34c51 0 125 25 191 54l27 -100c-59 -37 -152 -67 -238 -67c-101 0 -144 44 -144 127c0 18 2 38 6 59zM254 302
c38 11 56 29 56 58c0 17 -15 28 -41 28c-51 0 -66 -29 -73 -69l-6 -34c24 6 35 8 64 17zM352 604l-53 -66c-54 35 -94 67 -133 104l61 72c34 -35 76 -72 125 -110z" />
    <glyph glyph-name="eacute" unicode="&#xe9;" horiz-adv-x="462" 
d="M31 176l24 137c20 112 70 184 224 184c92 0 162 -40 162 -122c0 -95 -49 -139 -169 -175c-59 -18 -60 -18 -102 -29l-6 -34c-3 -18 -1 -34 25 -34c51 0 125 25 191 54l27 -100c-59 -37 -152 -67 -238 -67c-101 0 -144 44 -144 127c0 18 2 38 6 59zM254 302
c38 11 56 29 56 58c0 17 -15 28 -41 28c-51 0 -66 -29 -73 -69l-6 -34c24 6 35 8 64 17zM246 538l-41 74c53 29 107 63 164 102l45 -82c-59 -40 -103 -63 -168 -94z" />
    <glyph glyph-name="ecircumflex" unicode="&#xea;" horiz-adv-x="462" 
d="M31 176l24 137c20 112 70 184 224 184c92 0 162 -40 162 -122c0 -95 -49 -139 -169 -175c-59 -18 -60 -18 -102 -29l-6 -34c-3 -18 -1 -34 25 -34c51 0 125 25 191 54l27 -100c-59 -37 -152 -67 -238 -67c-101 0 -144 44 -144 127c0 18 2 38 6 59zM254 302
c38 11 56 29 56 58c0 17 -15 28 -41 28c-51 0 -66 -29 -73 -69l-6 -34c24 6 35 8 64 17zM387 532c-33 17 -66 42 -92 66c-32 -25 -60 -43 -104 -66l-39 66c51 31 98 61 162 108c34 -41 73 -78 117 -114z" />
    <glyph glyph-name="edieresis" unicode="&#xeb;" horiz-adv-x="462" 
d="M31 176l24 137c20 112 70 184 224 184c92 0 162 -40 162 -122c0 -95 -49 -139 -169 -175c-59 -18 -60 -18 -102 -29l-6 -34c-3 -18 -1 -34 25 -34c51 0 125 25 191 54l27 -100c-59 -37 -152 -67 -238 -67c-101 0 -144 44 -144 127c0 18 2 38 6 59zM254 302
c38 11 56 29 56 58c0 17 -15 28 -41 28c-51 0 -66 -29 -73 -69l-6 -34c24 6 35 8 64 17zM142 553l21 118l111 5l-20 -118zM340 553l21 118l111 5l-20 -118z" />
    <glyph glyph-name="igrave" unicode="&#xec;" horiz-adv-x="271" 
d="M20 0l84 476l145 20l-88 -496h-141zM238 604l-53 -66c-54 35 -94 67 -133 104l61 72c34 -35 76 -72 125 -110z" />
    <glyph glyph-name="iacute" unicode="&#xed;" horiz-adv-x="271" 
d="M20 0l84 476l145 20l-88 -496h-141zM168 538l-41 74c53 29 107 63 164 102l45 -82c-59 -40 -103 -63 -168 -94z" />
    <glyph glyph-name="icircumflex" unicode="&#xee;" horiz-adv-x="271" 
d="M20 0l84 476l145 20l-88 -496h-141zM291 532c-33 17 -66 42 -92 66c-32 -25 -60 -43 -104 -66l-39 66c51 31 98 61 162 108c34 -41 73 -78 117 -114z" />
    <glyph glyph-name="idieresis" unicode="&#xef;" horiz-adv-x="271" 
d="M20 0l84 476l145 20l-88 -496h-141zM35 553l21 118l111 5l-20 -118zM233 553l21 118l111 5l-20 -118z" />
    <glyph glyph-name="eth" unicode="&#xf0;" horiz-adv-x="490" 
d="M202 -10c-130 0 -172 57 -172 134c0 15 2 31 5 48l7 40c21 120 67 167 188 167c32 0 65 -4 95 -16l3 18c3 15 4 28 4 40c0 38 -12 60 -37 79l-84 -70l-34 43l71 59c-34 15 -71 25 -112 33l28 111c71 -9 144 -28 190 -56l58 49l35 -42l-48 -41c46 -43 71 -97 71 -168
c0 -20 -3 -42 -7 -66l-32 -180c-20 -115 -60 -182 -229 -182zM304 247c-23 11 -43 15 -71 15c-30 0 -47 -10 -54 -49l-10 -54c-1 -7 -2 -14 -2 -19c0 -25 14 -32 54 -32c49 0 62 17 70 64z" />
    <glyph glyph-name="ntilde" unicode="&#xf1;" horiz-adv-x="547" 
d="M301 0l58 331c1 6 2 11 2 15c0 10 -5 14 -19 14c-26 0 -88 -26 -126 -46l-55 -314h-141l83 475l124 21l-1 -54c76 36 136 55 192 55c65 0 89 -37 89 -99c0 -17 -1 -31 -5 -56l-60 -342h-141zM375 546c-57 0 -71 44 -109 44c-24 0 -44 -27 -58 -45l-51 46
c27 51 71 85 115 85c48 0 81 -45 114 -45c23 0 35 14 46 41l60 -30c-23 -54 -52 -96 -117 -96z" />
    <glyph glyph-name="ograve" unicode="&#xf2;" horiz-adv-x="520" 
d="M214 -10c-124 0 -189 74 -189 163c0 11 1 23 3 34l20 113c22 125 83 197 253 197c131 0 190 -75 190 -162c0 -11 -1 -23 -3 -35l-20 -113c-21 -117 -77 -197 -254 -197zM348 304c1 7 2 14 2 20c0 36 -22 55 -68 55c-53 0 -84 -27 -92 -75l-21 -121c-1 -7 -2 -14 -2 -20
c0 -35 22 -55 68 -55c54 0 84 27 92 75zM376 604l-53 -66c-54 35 -94 67 -133 104l61 72c34 -35 76 -72 125 -110z" />
    <glyph glyph-name="oacute" unicode="&#xf3;" horiz-adv-x="520" 
d="M214 -10c-124 0 -189 74 -189 163c0 11 1 23 3 34l20 113c22 125 83 197 253 197c131 0 190 -75 190 -162c0 -11 -1 -23 -3 -35l-20 -113c-21 -117 -77 -197 -254 -197zM348 304c1 7 2 14 2 20c0 36 -22 55 -68 55c-53 0 -84 -27 -92 -75l-21 -121c-1 -7 -2 -14 -2 -20
c0 -35 22 -55 68 -55c54 0 84 27 92 75zM281 538l-41 74c53 29 107 63 164 102l45 -82c-59 -40 -103 -63 -168 -94z" />
    <glyph glyph-name="ocircumflex" unicode="&#xf4;" horiz-adv-x="520" 
d="M214 -10c-124 0 -189 74 -189 163c0 11 1 23 3 34l20 113c22 125 83 197 253 197c131 0 190 -75 190 -162c0 -11 -1 -23 -3 -35l-20 -113c-21 -117 -77 -197 -254 -197zM348 304c1 7 2 14 2 20c0 36 -22 55 -68 55c-53 0 -84 -27 -92 -75l-21 -121c-1 -7 -2 -14 -2 -20
c0 -35 22 -55 68 -55c54 0 84 27 92 75zM412 532c-33 17 -66 42 -92 66c-32 -25 -60 -43 -104 -66l-39 66c51 31 98 61 162 108c34 -41 73 -78 117 -114z" />
    <glyph glyph-name="otilde" unicode="&#xf5;" horiz-adv-x="520" 
d="M214 -10c-124 0 -189 74 -189 163c0 11 1 23 3 34l20 113c22 125 83 197 253 197c131 0 190 -75 190 -162c0 -11 -1 -23 -3 -35l-20 -113c-21 -117 -77 -197 -254 -197zM348 304c1 7 2 14 2 20c0 36 -22 55 -68 55c-53 0 -84 -27 -92 -75l-21 -121c-1 -7 -2 -14 -2 -20
c0 -35 22 -55 68 -55c54 0 84 27 92 75zM367 546c-57 0 -71 44 -109 44c-24 0 -44 -27 -58 -45l-51 46c27 51 71 85 115 85c48 0 81 -45 114 -45c23 0 35 14 46 41l60 -30c-23 -54 -52 -96 -117 -96z" />
    <glyph glyph-name="odieresis" unicode="&#xf6;" horiz-adv-x="520" 
d="M214 -10c-124 0 -189 74 -189 163c0 11 1 23 3 34l20 113c22 125 83 197 253 197c131 0 190 -75 190 -162c0 -11 -1 -23 -3 -35l-20 -113c-21 -117 -77 -197 -254 -197zM348 304c1 7 2 14 2 20c0 36 -22 55 -68 55c-53 0 -84 -27 -92 -75l-21 -121c-1 -7 -2 -14 -2 -20
c0 -35 22 -55 68 -55c54 0 84 27 92 75zM160 553l21 118l111 5l-20 -118zM358 553l21 118l111 5l-20 -118z" />
    <glyph glyph-name="divide" unicode="&#xf7;" 
d="M195 354v133h130v-133h-130zM55 200v88h410v-88h-410zM195 0v133h130v-133h-130z" />
    <glyph glyph-name="oslash" unicode="&#xf8;" horiz-adv-x="520" 
d="M0 -18l60 69c-23 28 -35 64 -35 102c0 11 1 23 3 34l20 113c22 125 83 197 253 197c51 0 92 -12 122 -31l62 71l36 -32l-63 -71c22 -28 33 -63 33 -99c0 -11 -1 -23 -3 -35l-20 -113c-21 -117 -77 -197 -254 -197c-49 0 -88 11 -118 30l-61 -69zM169 183
c-1 -3 -1 -6 -2 -9l167 190c-11 10 -29 15 -52 15c-53 0 -84 -27 -92 -75zM348 304c0 1 1 3 1 5l-165 -188c11 -9 28 -13 51 -13c54 0 84 27 92 75z" />
    <glyph glyph-name="ugrave" unicode="&#xf9;" horiz-adv-x="548" 
d="M243 496l-59 -339c-1 -5 -2 -11 -2 -15c0 -10 5 -15 19 -15c26 0 90 28 126 46l53 303l145 20l-87 -496h-120l-1 45c-76 -36 -136 -55 -192 -55c-64 0 -89 38 -89 99c0 20 2 36 5 56l58 331zM388 604l-53 -66c-54 35 -94 67 -133 104l61 72c34 -35 76 -72 125 -110z" />
    <glyph glyph-name="uacute" unicode="&#xfa;" horiz-adv-x="548" 
d="M243 496l-59 -339c-1 -5 -2 -11 -2 -15c0 -10 5 -15 19 -15c26 0 90 28 126 46l53 303l145 20l-87 -496h-120l-1 45c-76 -36 -136 -55 -192 -55c-64 0 -89 38 -89 99c0 20 2 36 5 56l58 331zM284 538l-41 74c53 29 107 63 164 102l45 -82c-59 -40 -103 -63 -168 -94z" />
    <glyph glyph-name="ucircumflex" unicode="&#xfb;" horiz-adv-x="548" 
d="M243 496l-59 -339c-1 -5 -2 -11 -2 -15c0 -10 5 -15 19 -15c26 0 90 28 126 46l53 303l145 20l-87 -496h-120l-1 45c-76 -36 -136 -55 -192 -55c-64 0 -89 38 -89 99c0 20 2 36 5 56l58 331zM435 532c-33 17 -66 42 -92 66c-32 -25 -60 -43 -104 -66l-39 66
c51 31 98 61 162 108c34 -41 73 -78 117 -114z" />
    <glyph glyph-name="udieresis" unicode="&#xfc;" horiz-adv-x="548" 
d="M243 496l-59 -339c-1 -5 -2 -11 -2 -15c0 -10 5 -15 19 -15c26 0 90 28 126 46l53 303l145 20l-87 -496h-120l-1 45c-76 -36 -136 -55 -192 -55c-64 0 -89 38 -89 99c0 20 2 36 5 56l58 331zM174 553l21 118l111 5l-20 -118zM372 553l21 118l111 5l-20 -118z" />
    <glyph glyph-name="yacute" unicode="&#xfd;" horiz-adv-x="478" 
d="M307 0c-56 -112 -105 -168 -254 -216l-36 111c67 25 111 56 144 105h-45l-67 472l141 20l37 -363l102 243c9 24 12 44 12 62c0 15 -2 29 -5 42l137 20c4 -14 7 -35 7 -59c0 -28 -4 -60 -16 -88zM228 538l-41 74c53 29 107 63 164 102l45 -82c-59 -40 -103 -63 -168 -94z
" />
    <glyph glyph-name="thorn" unicode="&#xfe;" horiz-adv-x="530" 
d="M285 706l-44 -252c37 27 80 43 143 43c106 0 132 -64 113 -173l-23 -131c-20 -116 -50 -203 -255 -203c-15 0 -46 2 -59 5l-34 -192l-144 -20l158 903zM333 194l26 147c5 26 -2 38 -27 38c-50 0 -86 -26 -113 -50l-38 -217c16 -3 35 -4 55 -4c73 0 88 39 97 86z" />
    <glyph glyph-name="ydieresis" unicode="&#xff;" horiz-adv-x="478" 
d="M307 0c-56 -112 -105 -168 -254 -216l-36 111c67 25 111 56 144 105h-45l-67 472l141 20l37 -363l102 243c9 24 12 44 12 62c0 15 -2 29 -5 42l137 20c4 -14 7 -35 7 -59c0 -28 -4 -60 -16 -88zM123 553l21 118l111 5l-20 -118zM321 553l21 118l111 5l-20 -118z" />
    <glyph glyph-name="Amacron" unicode="&#x100;" horiz-adv-x="632" 
d="M425 0l-14 131h-227l-60 -131h-159l320 666h201l95 -666h-156zM369 543l-131 -290h159zM273 730l16 92h250l-16 -92h-250z" />
    <glyph glyph-name="amacron" unicode="&#x101;" horiz-adv-x="527" 
d="M420 0h-119l-4 42c-34 -26 -85 -52 -155 -52c-106 0 -127 64 -108 173l23 131c20 116 66 202 258 202c51 0 118 -9 186 -30zM198 293l-25 -145c-4 -26 2 -36 27 -36c36 0 75 21 107 48l37 211c-19 4 -40 5 -55 5c-73 0 -82 -36 -91 -83zM201 554l16 92h250l-16 -92h-250z
" />
    <glyph glyph-name="Abreve" unicode="&#x102;" horiz-adv-x="632" 
d="M425 0l-14 131h-227l-60 -131h-159l320 666h201l95 -666h-156zM369 543l-131 -290h159zM390 707c-75 0 -129 52 -128 114l72 24c5 -39 29 -60 68 -60c40 0 59 23 73 64l68 -31c-14 -60 -59 -111 -153 -111z" />
    <glyph glyph-name="abreve" unicode="&#x103;" horiz-adv-x="527" 
d="M420 0h-119l-4 42c-34 -26 -85 -52 -155 -52c-106 0 -127 64 -108 173l23 131c20 116 66 202 258 202c51 0 118 -9 186 -30zM198 293l-25 -145c-4 -26 2 -36 27 -36c36 0 75 21 107 48l37 211c-19 4 -40 5 -55 5c-73 0 -82 -36 -91 -83zM319 532c-87 0 -134 61 -133 123
l72 24c5 -39 23 -69 73 -69c51 0 77 35 91 76l68 -31c-14 -60 -65 -123 -171 -123z" />
    <glyph glyph-name="Aogonek" unicode="&#x104;" horiz-adv-x="632" 
d="M425 0l-14 131h-227l-60 -131h-159l320 666h201l95 -666c-37 -28 -72 -61 -72 -96c0 -18 13 -31 43 -31c14 0 26 2 38 5l9 -69c-24 -10 -55 -16 -86 -16c-57 0 -101 31 -101 83c0 51 44 100 103 124h-90zM369 543l-131 -290h159z" />
    <glyph glyph-name="aogonek" unicode="&#x105;" horiz-adv-x="527" 
d="M420 0c-50 -31 -90 -64 -90 -99c0 -18 14 -28 43 -28c14 0 26 2 38 5l9 -69c-24 -10 -52 -16 -86 -16c-63 0 -101 29 -101 81c0 55 54 98 129 126h-61l-4 42c-34 -26 -85 -52 -155 -52c-106 0 -127 64 -108 173l23 131c20 116 66 202 258 202c51 0 118 -9 186 -30z
M198 293l-25 -145c-4 -26 2 -36 27 -36c36 0 75 21 107 48l37 211c-19 4 -40 5 -55 5c-73 0 -82 -36 -91 -83z" />
    <glyph glyph-name="Cacute" unicode="&#x106;" horiz-adv-x="530" 
d="M249 -10c-147 0 -212 70 -212 163c0 11 1 24 4 40l51 288c24 136 107 195 269 195c67 0 127 -11 192 -29l-33 -126c-56 12 -126 22 -174 22c-71 0 -100 -24 -112 -94l-41 -232c-2 -11 -3 -24 -3 -31c0 -46 26 -63 82 -63c48 0 113 6 173 19l5 -126
c-53 -15 -127 -26 -201 -26zM326 707l-41 74c53 29 86 49 143 88l45 -82c-48 -34 -91 -57 -147 -80z" />
    <glyph glyph-name="cacute" unicode="&#x107;" horiz-adv-x="417" 
d="M185 -10c-112 0 -157 38 -157 124c0 25 2 46 8 74l27 136c27 138 94 173 232 173c43 0 85 -9 113 -20l-34 -114c-24 8 -53 14 -81 14c-64 0 -85 -20 -95 -76l-26 -148c-1 -6 -2 -14 -2 -19c0 -16 8 -24 26 -24c36 0 103 20 137 30l13 -113c-41 -20 -109 -37 -161 -37z
M219 538l-41 74c53 29 107 63 164 102l45 -82c-59 -40 -103 -63 -168 -94z" />
    <glyph glyph-name="Ccircumflex" unicode="&#x108;" horiz-adv-x="530" 
d="M249 -10c-147 0 -212 70 -212 163c0 11 1 24 4 40l51 288c24 136 107 195 269 195c67 0 127 -11 192 -29l-33 -126c-56 12 -126 22 -174 22c-71 0 -100 -24 -112 -94l-41 -232c-2 -11 -3 -24 -3 -31c0 -46 26 -63 82 -63c48 0 113 6 173 19l5 -126
c-53 -15 -127 -26 -201 -26zM458 709c-39 19 -57 32 -83 51c-25 -20 -52 -37 -85 -51l-39 66c55 31 92 54 142 90c25 -28 63 -61 109 -96z" />
    <glyph glyph-name="ccircumflex" unicode="&#x109;" horiz-adv-x="417" 
d="M185 -10c-112 0 -157 38 -157 124c0 25 2 46 8 74l27 136c27 138 94 173 232 173c43 0 85 -9 113 -20l-34 -114c-24 8 -53 14 -81 14c-64 0 -85 -20 -95 -76l-26 -148c-1 -6 -2 -14 -2 -19c0 -16 8 -24 26 -24c36 0 103 20 137 30l13 -113c-41 -20 -109 -37 -161 -37z
M382 532c-33 17 -66 42 -92 66c-32 -25 -60 -43 -104 -66l-39 66c51 31 98 61 162 108c34 -41 73 -78 117 -114z" />
    <glyph glyph-name="Cdotaccent" unicode="&#x10a;" horiz-adv-x="530" 
d="M249 -10c-147 0 -212 70 -212 163c0 11 1 24 4 40l51 288c24 136 107 195 269 195c67 0 127 -11 192 -29l-33 -126c-56 12 -126 22 -174 22c-71 0 -100 -24 -112 -94l-41 -232c-2 -11 -3 -24 -3 -31c0 -46 26 -63 82 -63c48 0 113 6 173 19l5 -126
c-53 -15 -127 -26 -201 -26zM311 721l26 150l145 20l-27 -150z" />
    <glyph glyph-name="cdotaccent" unicode="&#x10b;" horiz-adv-x="417" 
d="M185 -10c-112 0 -157 38 -157 124c0 25 2 46 8 74l27 136c27 138 94 173 232 173c43 0 85 -9 113 -20l-34 -114c-24 8 -53 14 -81 14c-64 0 -85 -20 -95 -76l-26 -148c-1 -6 -2 -14 -2 -19c0 -16 8 -24 26 -24c36 0 103 20 137 30l13 -113c-41 -20 -109 -37 -161 -37z
M203 541l26 150l145 20l-27 -150z" />
    <glyph glyph-name="Ccaron" unicode="&#x10c;" horiz-adv-x="530" 
d="M249 -10c-147 0 -212 70 -212 163c0 11 1 24 4 40l51 288c24 136 107 195 269 195c67 0 127 -11 192 -29l-33 -126c-56 12 -126 22 -174 22c-71 0 -100 -24 -112 -94l-41 -232c-2 -11 -3 -24 -3 -31c0 -46 26 -63 82 -63c48 0 113 6 173 19l5 -126
c-53 -15 -127 -26 -201 -26zM309 856c39 -19 57 -32 83 -51c25 20 52 37 85 51l39 -66c-55 -31 -92 -54 -142 -90c-25 28 -63 61 -109 96z" />
    <glyph glyph-name="ccaron" unicode="&#x10d;" horiz-adv-x="417" 
d="M185 -10c-112 0 -157 38 -157 124c0 25 2 46 8 74l27 136c27 138 94 173 232 173c43 0 85 -9 113 -20l-34 -114c-24 8 -53 14 -81 14c-64 0 -85 -20 -95 -76l-26 -148c-1 -6 -2 -14 -2 -19c0 -16 8 -24 26 -24c36 0 103 20 137 30l13 -113c-41 -20 -109 -37 -161 -37z
M194 703c33 -17 66 -42 92 -66c32 25 60 43 104 66l39 -66c-51 -31 -98 -61 -162 -108c-34 41 -73 78 -117 114z" />
    <glyph glyph-name="Dcaron" unicode="&#x10e;" horiz-adv-x="599" 
d="M292 0h-272l118 666h254c144 0 197 -79 197 -163c0 -12 -1 -25 -3 -37l-52 -294c-15 -88 -51 -172 -242 -172zM436 453c2 10 3 19 3 27c0 36 -21 56 -84 56h-93l-72 -406h102c79 0 93 30 102 83zM288 856c39 -19 57 -32 83 -51c25 20 52 37 85 51l39 -66
c-55 -31 -92 -54 -142 -90c-25 28 -63 61 -109 96z" />
    <glyph glyph-name="dcaron" unicode="&#x10f;" horiz-adv-x="626" 
d="M702 577l-68 -80l-34 29l41 58h-48l18 102h110zM420 0h-119l-4 42c-35 -29 -85 -52 -155 -52c-106 0 -132 64 -113 173l23 131c20 116 50 203 255 203c15 0 46 -2 59 -5l34 194l144 20zM193 293l-26 -147c-5 -26 2 -38 27 -38c50 0 86 26 113 50l38 217
c-16 3 -35 4 -55 4c-73 0 -88 -39 -97 -86z" />
    <glyph glyph-name="Dcroat" unicode="&#x110;" horiz-adv-x="619" 
d="M27 278l20 115h63l48 273h254c144 0 197 -79 197 -163c0 -12 -1 -25 -3 -37l-52 -294c-15 -88 -51 -172 -242 -172h-272l49 278h-62zM456 453c2 10 3 19 3 27c0 36 -21 56 -84 56h-93l-26 -143h93l-20 -115h-93l-26 -148h102c79 0 93 30 102 83z" />
    <glyph glyph-name="dcroat" unicode="&#x111;" horiz-adv-x="519" 
d="M295 550l13 69h79l12 67l144 20l-16 -87h62l-12 -69h-62l-96 -550h-119l-4 42c-35 -29 -85 -52 -155 -52c-106 0 -132 64 -113 173l23 131c20 116 50 203 255 203c15 0 46 -2 59 -5l10 58h-80zM192 293l-26 -147c-5 -26 2 -38 27 -38c50 0 86 26 113 50l38 217
c-16 3 -35 4 -55 4c-73 0 -88 -39 -97 -86z" />
    <glyph glyph-name="Emacron" unicode="&#x112;" horiz-adv-x="532" 
d="M20 0l117 666h419l-23 -130h-272l-22 -127h251l-23 -129h-251l-27 -150h272l-22 -130h-419zM230 730l16 92h250l-16 -92h-250z" />
    <glyph glyph-name="emacron" unicode="&#x113;" horiz-adv-x="462" 
d="M31 176l24 137c20 112 70 184 224 184c92 0 162 -40 162 -122c0 -95 -49 -139 -169 -175c-59 -18 -60 -18 -102 -29l-6 -34c-3 -18 -1 -34 25 -34c51 0 125 25 191 54l27 -100c-59 -37 -152 -67 -238 -67c-101 0 -144 44 -144 127c0 18 2 38 6 59zM254 302
c38 11 56 29 56 58c0 17 -15 28 -41 28c-51 0 -66 -29 -73 -69l-6 -34c24 6 35 8 64 17zM167 554l16 92h250l-16 -92h-250z" />
    <glyph glyph-name="Ebreve" unicode="&#x114;" horiz-adv-x="532" 
d="M20 0l117 666h419l-23 -130h-272l-22 -127h251l-23 -129h-251l-27 -150h272l-22 -130h-419zM357 707c-75 0 -129 52 -128 114l72 24c5 -39 29 -60 68 -60c40 0 59 23 73 64l68 -31c-14 -60 -59 -111 -153 -111z" />
    <glyph glyph-name="ebreve" unicode="&#x115;" horiz-adv-x="462" 
d="M31 176l24 137c20 112 70 184 224 184c92 0 162 -40 162 -122c0 -95 -49 -139 -169 -175c-59 -18 -60 -18 -102 -29l-6 -34c-3 -18 -1 -34 25 -34c51 0 125 25 191 54l27 -100c-59 -37 -152 -67 -238 -67c-101 0 -144 44 -144 127c0 18 2 38 6 59zM254 302
c38 11 56 29 56 58c0 17 -15 28 -41 28c-51 0 -66 -29 -73 -69l-6 -34c24 6 35 8 64 17zM275 532c-87 0 -134 61 -133 123l72 24c5 -39 23 -69 73 -69c51 0 77 35 91 76l68 -31c-14 -60 -65 -123 -171 -123z" />
    <glyph glyph-name="Edotaccent" unicode="&#x116;" horiz-adv-x="532" 
d="M20 0l117 666h419l-23 -130h-272l-22 -127h251l-23 -129h-251l-27 -150h272l-22 -130h-419zM295 721l26 150l145 20l-27 -150z" />
    <glyph glyph-name="edotaccent" unicode="&#x117;" horiz-adv-x="462" 
d="M31 176l24 137c20 112 70 184 224 184c92 0 162 -40 162 -122c0 -95 -49 -139 -169 -175c-59 -18 -60 -18 -102 -29l-6 -34c-3 -18 -1 -34 25 -34c51 0 125 25 191 54l27 -100c-59 -37 -152 -67 -238 -67c-101 0 -144 44 -144 127c0 18 2 38 6 59zM254 302
c38 11 56 29 56 58c0 17 -15 28 -41 28c-51 0 -66 -29 -73 -69l-6 -34c24 6 35 8 64 17zM219 541l26 150l145 20l-27 -150z" />
    <glyph glyph-name="Eogonek" unicode="&#x118;" horiz-adv-x="532" 
d="M20 0l117 666h419l-23 -130h-272l-22 -127h251l-23 -129h-251l-27 -150h272l-22 -130h-57c-37 -28 -72 -60 -72 -97c0 -18 11 -30 41 -30c14 0 28 2 40 5l9 -69c-24 -10 -55 -16 -86 -16c-60 0 -101 31 -101 83s41 96 99 124h-292z" />
    <glyph glyph-name="eogonek" unicode="&#x119;" horiz-adv-x="462" 
d="M214 -207c-60 0 -101 28 -101 80s48 95 115 122c-20 -3 -40 -5 -59 -5c-101 0 -144 44 -144 127c0 18 2 38 6 59l24 137c20 112 70 184 224 184c92 0 162 -40 162 -122c0 -95 -49 -139 -169 -175c-57 -17 -60 -18 -102 -29l-6 -34c-3 -18 -1 -34 25 -34
c51 0 125 25 191 54l27 -100c-90 -42 -197 -107 -197 -157c0 -18 11 -27 39 -27c14 0 30 2 42 5l9 -69c-24 -10 -53 -16 -86 -16zM254 302c38 11 56 29 56 58c0 17 -15 28 -41 28c-51 0 -66 -29 -73 -69l-6 -34c24 6 35 8 64 17z" />
    <glyph glyph-name="Ecaron" unicode="&#x11a;" horiz-adv-x="532" 
d="M20 0l117 666h419l-23 -130h-272l-22 -127h251l-23 -129h-251l-27 -150h272l-22 -130h-419zM286 856c39 -19 57 -32 83 -51c25 20 52 37 85 51l39 -66c-55 -31 -92 -54 -142 -90c-25 28 -63 61 -109 96z" />
    <glyph glyph-name="ecaron" unicode="&#x11b;" horiz-adv-x="462" 
d="M31 176l24 137c20 112 70 184 224 184c92 0 162 -40 162 -122c0 -95 -49 -139 -169 -175c-59 -18 -60 -18 -102 -29l-6 -34c-3 -18 -1 -34 25 -34c51 0 125 25 191 54l27 -100c-59 -37 -152 -67 -238 -67c-101 0 -144 44 -144 127c0 18 2 38 6 59zM254 302
c38 11 56 29 56 58c0 17 -15 28 -41 28c-51 0 -66 -29 -73 -69l-6 -34c24 6 35 8 64 17zM205 703c33 -17 66 -42 92 -66c32 25 60 43 104 66l39 -66c-51 -31 -98 -61 -162 -108c-34 41 -73 78 -117 114z" />
    <glyph glyph-name="Gcircumflex" unicode="&#x11c;" horiz-adv-x="591" 
d="M259 -10c-154 0 -222 64 -222 161c0 13 2 29 4 42l50 288c21 122 92 195 270 195c68 0 157 -16 209 -32l-33 -126c-54 15 -138 25 -191 25c-77 0 -103 -34 -113 -93l-41 -231c-2 -11 -3 -23 -3 -33c0 -41 20 -65 83 -65c30 0 70 5 98 11l33 182h138l-50 -281
c-61 -26 -141 -43 -232 -43zM460 709c-39 19 -57 32 -83 51c-25 -20 -52 -37 -85 -51l-39 66c55 31 92 54 142 90c25 -28 63 -61 109 -96z" />
    <glyph glyph-name="gcircumflex" unicode="&#x11d;" horiz-adv-x="532" 
d="M275 -49l17 101c-41 -24 -89 -42 -142 -42c-106 0 -132 65 -113 174l20 111c22 123 53 202 261 202c51 0 127 -9 189 -29l-96 -540c-19 -109 -66 -135 -196 -135c-58 0 -157 18 -217 38l25 99c75 -18 136 -28 194 -28c42 0 52 16 58 49zM198 296l-23 -130
c-5 -26 2 -38 27 -38c31 0 81 20 110 38l37 210c-17 2 -35 3 -55 3c-73 0 -87 -36 -96 -83zM431 532c-33 17 -66 42 -92 66c-32 -25 -60 -43 -104 -66l-39 66c51 31 98 61 162 108c34 -41 73 -78 117 -114z" />
    <glyph glyph-name="Gbreve" unicode="&#x11e;" horiz-adv-x="591" 
d="M259 -10c-154 0 -222 64 -222 161c0 13 2 29 4 42l50 288c21 122 92 195 270 195c68 0 157 -16 209 -32l-33 -126c-54 15 -138 25 -191 25c-77 0 -103 -34 -113 -93l-41 -231c-2 -11 -3 -23 -3 -33c0 -41 20 -65 83 -65c30 0 70 5 98 11l33 182h138l-50 -281
c-61 -26 -141 -43 -232 -43zM381 707c-75 0 -129 52 -128 114l72 24c5 -39 29 -60 68 -60c40 0 59 23 73 64l68 -31c-14 -60 -59 -111 -153 -111z" />
    <glyph glyph-name="gbreve" unicode="&#x11f;" horiz-adv-x="532" 
d="M275 -49l17 101c-41 -24 -89 -42 -142 -42c-106 0 -132 65 -113 174l20 111c22 123 53 202 261 202c51 0 127 -9 189 -29l-96 -540c-19 -109 -66 -135 -196 -135c-58 0 -157 18 -217 38l25 99c75 -18 136 -28 194 -28c42 0 52 16 58 49zM198 296l-23 -130
c-5 -26 2 -38 27 -38c31 0 81 20 110 38l37 210c-17 2 -35 3 -55 3c-73 0 -87 -36 -96 -83zM316 532c-87 0 -134 61 -133 123l72 24c5 -39 23 -69 73 -69c51 0 77 35 91 76l68 -31c-14 -60 -65 -123 -171 -123z" />
    <glyph glyph-name="Gdotaccent" unicode="&#x120;" horiz-adv-x="591" 
d="M259 -10c-154 0 -222 64 -222 161c0 13 2 29 4 42l50 288c21 122 92 195 270 195c68 0 157 -16 209 -32l-33 -126c-54 15 -138 25 -191 25c-77 0 -103 -34 -113 -93l-41 -231c-2 -11 -3 -23 -3 -33c0 -41 20 -65 83 -65c30 0 70 5 98 11l33 182h138l-50 -281
c-61 -26 -141 -43 -232 -43zM314 721l26 150l145 20l-27 -150z" />
    <glyph glyph-name="gdotaccent" unicode="&#x121;" horiz-adv-x="532" 
d="M275 -49l17 101c-41 -24 -89 -42 -142 -42c-106 0 -132 65 -113 174l20 111c22 123 53 202 261 202c51 0 127 -9 189 -29l-96 -540c-19 -109 -66 -135 -196 -135c-58 0 -157 18 -217 38l25 99c75 -18 136 -28 194 -28c42 0 52 16 58 49zM198 296l-23 -130
c-5 -26 2 -38 27 -38c31 0 81 20 110 38l37 210c-17 2 -35 3 -55 3c-73 0 -87 -36 -96 -83zM260 541l26 150l145 20l-27 -150z" />
    <glyph glyph-name="Gcommaaccent" unicode="&#x122;" horiz-adv-x="591" 
d="M259 -10c-154 0 -222 64 -222 161c0 13 2 29 4 42l50 288c21 122 92 195 270 195c68 0 157 -16 209 -32l-33 -126c-54 15 -138 25 -191 25c-77 0 -103 -34 -113 -93l-41 -231c-2 -11 -3 -23 -3 -33c0 -41 20 -65 83 -65c30 0 70 5 98 11l33 182h138l-50 -281
c-61 -26 -141 -43 -232 -43zM313 -197l-86 -106l-45 36l53 78h-42l25 140h121z" />
    <glyph glyph-name="gcommaaccent" unicode="&#x123;" horiz-adv-x="532" 
d="M282 680l75 94l44 -31l-49 -70h41l-23 -130h-112zM275 -49l17 101c-41 -24 -89 -42 -142 -42c-106 0 -132 65 -113 174l20 111c22 123 53 202 261 202c51 0 127 -9 189 -29l-96 -540c-19 -109 -66 -135 -196 -135c-58 0 -157 18 -217 38l25 99c75 -18 136 -28 194 -28
c42 0 52 16 58 49zM198 296l-23 -130c-5 -26 2 -38 27 -38c31 0 81 20 110 38l37 210c-17 2 -35 3 -55 3c-73 0 -87 -36 -96 -83z" />
    <glyph glyph-name="Hcircumflex" unicode="&#x124;" horiz-adv-x="637" 
d="M380 0l47 270h-213l-47 -270h-147l117 666h147l-47 -267h213l47 267h147l-117 -666h-147zM486 709c-39 19 -57 32 -83 51c-25 -20 -52 -37 -85 -51l-39 66c55 31 92 54 142 90c25 -28 63 -61 109 -96z" />
    <glyph glyph-name="hcircumflex" unicode="&#x125;" horiz-adv-x="547" 
d="M301 0l58 330c1 6 2 12 2 16c0 10 -5 14 -19 14c-26 0 -88 -26 -126 -46l-55 -314h-141l121 686l144 20l-45 -258c59 30 125 49 178 49c65 0 89 -37 89 -99c0 -17 -1 -36 -5 -56l-60 -342h-141zM311 739c-39 19 -57 32 -83 51c-25 -20 -52 -37 -85 -51l-39 66
c55 31 92 54 142 90c25 -28 63 -61 109 -96z" />
    <glyph glyph-name="Hbar" unicode="&#x126;" horiz-adv-x="667" 
d="M66 494l12 68h56l18 104h147l-19 -104h214l18 104h147l-18 -104h61l-12 -68h-61l-87 -494h-147l47 270h-213l-47 -270h-147l87 494h-56zM252 399h213l17 95h-214z" />
    <glyph glyph-name="hbar" unicode="&#x127;" horiz-adv-x="552" 
d="M61 545l12 68h60l13 73l144 20l-16 -93h86l-12 -68h-86l-17 -97c59 30 125 49 178 49c65 0 89 -37 89 -99c0 -17 -1 -36 -5 -56l-60 -342h-141l58 330c1 6 2 12 2 16c0 10 -5 14 -19 14c-26 0 -88 -26 -126 -46l-55 -314h-141l96 545h-60z" />
    <glyph glyph-name="Itilde" unicode="&#x128;" horiz-adv-x="287" 
d="M25 0l117 666h147l-117 -666h-147zM283 716c-57 0 -71 44 -109 44c-24 0 -44 -27 -58 -45l-51 46c27 51 71 85 115 85c48 0 81 -45 114 -45c23 0 35 14 46 41l60 -30c-23 -54 -52 -96 -117 -96z" />
    <glyph glyph-name="itilde" unicode="&#x129;" horiz-adv-x="271" 
d="M20 0l84 476l145 20l-88 -496h-141zM244 546c-57 0 -71 44 -109 44c-24 0 -44 -27 -58 -45l-51 46c27 51 71 85 115 85c48 0 81 -45 114 -45c23 0 35 14 46 41l60 -30c-23 -54 -52 -96 -117 -96z" />
    <glyph glyph-name="Imacron" unicode="&#x12a;" horiz-adv-x="287" 
d="M25 0l117 666h147l-117 -666h-147zM104 730l16 92h250l-16 -92h-250z" />
    <glyph glyph-name="imacron" unicode="&#x12b;" horiz-adv-x="271" 
d="M20 0l84 476l145 20l-88 -496h-141zM59 554l16 92h250l-16 -92h-250z" />
    <glyph glyph-name="Ibreve" unicode="&#x12c;" horiz-adv-x="287" 
d="M25 0l117 666h147l-117 -666h-147zM227 707c-75 0 -129 52 -128 114l72 24c5 -39 29 -60 68 -60c40 0 59 23 73 64l68 -31c-14 -60 -59 -111 -153 -111z" />
    <glyph glyph-name="ibreve" unicode="&#x12d;" horiz-adv-x="271" 
d="M20 0l84 476l145 20l-88 -496h-141zM185 532c-87 0 -134 61 -133 123l72 24c5 -39 23 -69 73 -69c51 0 77 35 91 76l68 -31c-14 -60 -65 -123 -171 -123z" />
    <glyph glyph-name="Iogonek" unicode="&#x12e;" horiz-adv-x="287" 
d="M25 0l117 666h147l-117 -666c-48 -28 -100 -61 -100 -99c0 -18 11 -28 40 -28c8 0 20 1 31 4l9 -69c-24 -10 -45 -15 -76 -15c-62 0 -101 31 -101 83c0 53 57 98 130 124h-80z" />
    <glyph glyph-name="iogonek" unicode="&#x12f;" horiz-adv-x="271" 
d="M20 0l84 476l145 20l-88 -496c-46 -29 -100 -61 -100 -99c0 -18 11 -28 40 -28c8 0 20 1 31 4l9 -69c-24 -10 -45 -15 -76 -15c-62 0 -101 31 -101 83c0 60 57 98 130 124h-74zM116 541l26 150l145 20l-27 -150z" />
    <glyph glyph-name="Idotaccent" unicode="&#x130;" horiz-adv-x="287" 
d="M25 0l117 666h147l-117 -666h-147zM155 721l26 150l145 20l-27 -150z" />
    <glyph glyph-name="dotlessi" unicode="&#x131;" horiz-adv-x="271" 
d="M20 0l84 476l145 20l-88 -496h-141z" />
    <glyph glyph-name="IJ" unicode="&#x132;" horiz-adv-x="577" 
d="M25 0l117 666h147l-117 -666h-147zM282 -210l-70 106c74 47 94 67 100 103l118 667h149l-122 -690c-11 -62 -58 -110 -175 -186z" />
    <glyph glyph-name="ij" unicode="&#x133;" horiz-adv-x="545" 
d="M116 541l26 150l145 20l-27 -150zM20 0l84 476l145 20l-88 -496h-141zM270 -207l-69 97c70 54 85 62 93 110l84 476l145 20l-92 -519c-11 -64 -30 -99 -161 -184zM390 541l26 150l145 20l-27 -150z" />
    <glyph glyph-name="Jcircumflex" unicode="&#x134;" horiz-adv-x="290" 
d="M-5 -210l-70 106c74 47 94 67 100 103l118 667h149l-122 -690c-11 -62 -58 -110 -175 -186zM312 709c-39 19 -57 32 -83 51c-25 -20 -52 -37 -85 -51l-39 66c55 31 92 54 142 90c25 -28 63 -61 109 -96z" />
    <glyph glyph-name="jcircumflex" unicode="&#x135;" horiz-adv-x="274" 
d="M-1 -207l-69 97c70 54 85 62 93 110l84 476l145 20l-92 -519c-11 -64 -30 -99 -161 -184zM292 532c-33 17 -66 42 -92 66c-32 -25 -60 -43 -104 -66l-39 66c51 31 98 61 162 108c34 -41 73 -78 117 -114z" />
    <glyph glyph-name="Kcommaaccent" unicode="&#x136;" horiz-adv-x="605" 
d="M373 0l-133 340l233 326h180l-251 -326l132 -340h-161zM20 0l117 666h147l-117 -666h-147zM302 -197l-86 -106l-45 36l53 78h-42l25 140h121z" />
    <glyph glyph-name="kcommaaccent" unicode="&#x137;" horiz-adv-x="512" 
d="M161 0h-141l120 686l145 20zM218 245l170 253l146 -22l-170 -231l90 -245h-149zM261 -197l-86 -106l-45 36l53 78h-42l25 140h121z" />
    <glyph glyph-name="kgreenlandic" unicode="&#x138;" horiz-adv-x="512" 
d="M161 0h-141l86 487h141zM218 245l163 242h161l-178 -242l90 -245h-149z" />
    <glyph glyph-name="Lacute" unicode="&#x139;" horiz-adv-x="491" 
d="M20 0l117 666h147l-95 -536h267l-22 -130h-414zM215 707l-41 74c53 29 86 49 143 88l45 -82c-48 -34 -91 -57 -147 -80z" />
    <glyph glyph-name="lacute" unicode="&#x13a;" horiz-adv-x="271" 
d="M20 0l120 686l145 20l-124 -706h-141zM200 747l-41 74c53 29 86 49 143 88l45 -82c-48 -34 -91 -57 -147 -80z" />
    <glyph glyph-name="Lcommaaccent" unicode="&#x13b;" horiz-adv-x="491" 
d="M20 0l117 666h147l-95 -536h267l-22 -130h-414zM270 -197l-86 -106l-45 36l53 78h-42l25 140h121z" />
    <glyph glyph-name="lcommaaccent" unicode="&#x13c;" horiz-adv-x="271" 
d="M20 0l120 686l145 20l-124 -706h-141zM117 -197l-86 -106l-45 36l53 78h-42l25 140h121z" />
    <glyph glyph-name="Lcaron" unicode="&#x13d;" horiz-adv-x="489" 
d="M482 577l-78 -94l-34 29l51 72h-48l18 102h110zM20 0l117 666h147l-95 -536h267l-22 -130h-414z" />
    <glyph glyph-name="lcaron" unicode="&#x13e;" horiz-adv-x="365" 
d="M446 577l-68 -80l-34 29l41 58h-48l18 102h110zM20 0l120 686l145 20l-124 -706h-141z" />
    <glyph glyph-name="Ldot" unicode="&#x13f;" horiz-adv-x="491" 
d="M299 288l28 155h141l-28 -155h-141zM20 0l117 666h147l-95 -536h267l-22 -130h-414z" />
    <glyph glyph-name="ldot" unicode="&#x140;" horiz-adv-x="424" 
d="M20 0l120 686l145 20l-124 -706h-141zM285 288l28 155h131l-28 -155h-131z" />
    <glyph glyph-name="Lslash" unicode="&#x141;" horiz-adv-x="522" 
d="M51 0l43 249l-66 -24l-17 85l101 39l56 317h147l-46 -258l145 56l17 -87l-179 -68l-32 -179h267l-22 -130h-414z" />
    <glyph glyph-name="lslash" unicode="&#x142;" horiz-adv-x="342" 
d="M241 310l-54 -310h-144l44 253l-45 -16l-17 85l80 30l58 334l148 20l-52 -297l73 28l16 -87z" />
    <glyph glyph-name="Nacute" unicode="&#x143;" horiz-adv-x="683" 
d="M392 0l-149 457l-79 -457h-144l117 666h179l146 -483l85 483h143l-117 -666h-181zM399 707l-41 74c53 29 86 49 143 88l45 -82c-48 -34 -91 -57 -147 -80z" />
    <glyph glyph-name="nacute" unicode="&#x144;" horiz-adv-x="547" 
d="M301 0l58 331c1 6 2 11 2 15c0 10 -5 14 -19 14c-26 0 -88 -26 -126 -46l-55 -314h-141l83 475l124 21l-1 -54c76 36 136 55 192 55c65 0 89 -37 89 -99c0 -17 -1 -31 -5 -56l-60 -342h-141zM275 538l-41 74c53 29 107 63 164 102l45 -82c-59 -40 -103 -63 -168 -94z" />
    <glyph glyph-name="Ncommaaccent" unicode="&#x145;" horiz-adv-x="683" 
d="M392 0l-149 457l-79 -457h-144l117 666h179l146 -483l85 483h143l-117 -666h-181zM324 -197l-86 -106l-45 36l53 78h-42l25 140h121z" />
    <glyph glyph-name="ncommaaccent" unicode="&#x146;" horiz-adv-x="547" 
d="M301 0l58 331c1 6 2 11 2 15c0 10 -5 14 -19 14c-26 0 -88 -26 -126 -46l-55 -314h-141l83 475l124 21l-1 -54c76 36 136 55 192 55c65 0 89 -37 89 -99c0 -17 -1 -31 -5 -56l-60 -342h-141zM258 -197l-86 -106l-45 36l53 78h-42l25 140h121z" />
    <glyph glyph-name="Ncaron" unicode="&#x147;" horiz-adv-x="683" 
d="M392 0l-149 457l-79 -457h-144l117 666h179l146 -483l85 483h143l-117 -666h-181zM357 856c39 -19 57 -32 83 -51c25 20 52 37 85 51l39 -66c-55 -31 -92 -54 -142 -90c-25 28 -63 61 -109 96z" />
    <glyph glyph-name="ncaron" unicode="&#x148;" horiz-adv-x="547" 
d="M301 0l58 331c1 6 2 11 2 15c0 10 -5 14 -19 14c-26 0 -88 -26 -126 -46l-55 -314h-141l83 475l124 21l-1 -54c76 36 136 55 192 55c65 0 89 -37 89 -99c0 -17 -1 -31 -5 -56l-60 -342h-141zM242 703c33 -17 66 -42 92 -66c32 25 60 43 104 66l39 -66
c-51 -31 -98 -61 -162 -108c-34 41 -73 78 -117 114z" />
    <glyph glyph-name="Eng" unicode="&#x14a;" horiz-adv-x="683" 
d="M392 0l-149 457l-79 -457h-144l117 666h179l146 -483l85 483h143l-119 -677c-14 -80 -46 -108 -216 -196l-46 90c103 56 118 70 123 101l3 16h-43z" />
    <glyph glyph-name="eng" unicode="&#x14b;" horiz-adv-x="547" 
d="M298 -16l61 347c1 6 2 11 2 15c0 10 -5 14 -19 14c-26 0 -88 -26 -126 -46l-55 -314h-141l83 475l124 21l-1 -54c76 36 136 55 192 55c65 0 89 -37 89 -99c0 -17 -1 -31 -5 -56l-62 -353c-14 -80 -32 -108 -206 -196l-46 90c100 55 104 70 110 101z" />
    <glyph glyph-name="Omacron" unicode="&#x14c;" horiz-adv-x="616" 
d="M261 -10c-157 0 -224 87 -224 177c0 10 1 21 3 31l48 275c22 124 98 203 286 203c158 0 232 -90 232 -181c0 -9 -1 -20 -3 -30l-48 -272c-22 -127 -97 -203 -294 -203zM455 460c1 7 2 14 2 20c0 41 -27 66 -98 66c-76 0 -116 -33 -126 -86l-45 -254c-1 -8 -2 -16 -2 -23
c0 -40 26 -63 98 -63c76 0 116 29 126 86zM267 730l16 92h250l-16 -92h-250z" />
    <glyph glyph-name="omacron" unicode="&#x14d;" horiz-adv-x="520" 
d="M214 -10c-124 0 -189 74 -189 163c0 11 1 23 3 34l20 113c22 125 83 197 253 197c131 0 190 -75 190 -162c0 -11 -1 -23 -3 -35l-20 -113c-21 -117 -77 -197 -254 -197zM348 304c1 7 2 14 2 20c0 36 -22 55 -68 55c-53 0 -84 -27 -92 -75l-21 -121c-1 -7 -2 -14 -2 -20
c0 -35 22 -55 68 -55c54 0 84 27 92 75zM183 554l16 92h250l-16 -92h-250z" />
    <glyph glyph-name="Obreve" unicode="&#x14e;" horiz-adv-x="616" 
d="M261 -10c-157 0 -224 87 -224 177c0 10 1 21 3 31l48 275c22 124 98 203 286 203c158 0 232 -90 232 -181c0 -9 -1 -20 -3 -30l-48 -272c-22 -127 -97 -203 -294 -203zM455 460c1 7 2 14 2 20c0 41 -27 66 -98 66c-76 0 -116 -33 -126 -86l-45 -254c-1 -8 -2 -16 -2 -23
c0 -40 26 -63 98 -63c76 0 116 29 126 86zM385 707c-75 0 -129 52 -128 114l72 24c5 -39 29 -60 68 -60c40 0 59 23 73 64l68 -31c-14 -60 -59 -111 -153 -111z" />
    <glyph glyph-name="obreve" unicode="&#x14f;" horiz-adv-x="520" 
d="M214 -10c-124 0 -189 74 -189 163c0 11 1 23 3 34l20 113c22 125 83 197 253 197c131 0 190 -75 190 -162c0 -11 -1 -23 -3 -35l-20 -113c-21 -117 -77 -197 -254 -197zM348 304c1 7 2 14 2 20c0 36 -22 55 -68 55c-53 0 -84 -27 -92 -75l-21 -121c-1 -7 -2 -14 -2 -20
c0 -35 22 -55 68 -55c54 0 84 27 92 75zM313 532c-87 0 -134 61 -133 123l72 24c5 -39 23 -69 73 -69c51 0 77 35 91 76l68 -31c-14 -60 -65 -123 -171 -123z" />
    <glyph glyph-name="Ohungarumlaut" unicode="&#x150;" horiz-adv-x="614" 
d="M261 -10c-157 0 -224 87 -224 177c0 10 1 21 3 31l48 275c22 124 98 203 286 203c158 0 232 -90 232 -181c0 -9 -1 -20 -3 -30l-48 -272c-22 -127 -97 -203 -294 -203zM455 460c1 7 2 14 2 20c0 41 -27 66 -98 66c-76 0 -116 -33 -126 -86l-45 -254c-1 -8 -2 -16 -2 -23
c0 -40 26 -63 98 -63c76 0 116 29 126 86zM302 707l-53 66c47 38 68 56 109 96l59 -73c-44 -40 -73 -60 -115 -89zM492 707l-53 66c47 38 68 56 109 96l59 -73c-44 -40 -73 -60 -115 -89z" />
    <glyph glyph-name="ohungarumlaut" unicode="&#x151;" horiz-adv-x="520" 
d="M214 -10c-124 0 -189 74 -189 163c0 11 1 23 3 34l20 113c22 125 83 197 253 197c131 0 190 -75 190 -162c0 -11 -1 -23 -3 -35l-20 -113c-21 -117 -77 -197 -254 -197zM348 304c1 7 2 14 2 20c0 36 -22 55 -68 55c-53 0 -84 -27 -92 -75l-21 -121c-1 -7 -2 -14 -2 -20
c0 -35 22 -55 68 -55c54 0 84 27 92 75zM213 529l-54 65c47 38 81 67 129 116l59 -73c-44 -40 -92 -79 -134 -108zM403 529l-54 65c47 38 81 67 129 116l59 -73c-44 -40 -92 -79 -134 -108z" />
    <glyph glyph-name="OE" unicode="&#x152;" horiz-adv-x="879" 
d="M263 0c-157 0 -224 87 -224 177c0 10 1 21 3 31l45 255c22 124 98 203 286 203h530l-23 -130h-272l-22 -127h251l-23 -129h-251l-27 -150h272l-22 -130h-523zM188 193c0 -40 26 -63 98 -63h104l71 406h-103c-76 0 -116 -33 -126 -86l-42 -234c-1 -8 -2 -16 -2 -23z" />
    <glyph glyph-name="oe" unicode="&#x153;" horiz-adv-x="769" 
d="M214 -10c-131 0 -189 74 -189 163c0 11 1 23 3 34l20 113c22 125 78 197 248 197c37 0 95 -13 134 -47c38 29 80 47 145 47c107 0 174 -55 174 -146c0 -133 -90 -151 -284 -180c-4 -22 -5 -29 -5 -33c0 -22 14 -33 44 -33c49 0 127 17 188 44l27 -102
c-63 -35 -148 -57 -223 -57c-43 0 -99 14 -130 43c-37 -21 -82 -43 -152 -43zM348 304c1 7 2 14 2 20c0 36 -22 55 -68 55c-53 0 -84 -27 -92 -75l-21 -121c-1 -7 -2 -14 -2 -20c0 -35 22 -55 68 -55c54 0 84 27 92 75zM550 293c54 7 70 23 70 57c0 23 -20 37 -57 37
c-51 0 -65 -31 -72 -69c-2 -10 -3 -14 -6 -33c23 3 33 4 65 8z" />
    <glyph glyph-name="Racute" unicode="&#x154;" horiz-adv-x="646" 
d="M421 0l-117 208h-101l-36 -208h-147l117 666h255c143 0 213 -54 213 -152c0 -13 -2 -26 -4 -41l-14 -80c-14 -83 -44 -136 -127 -165l126 -228h-165zM443 410l9 50c2 11 3 23 3 28c0 34 -21 48 -72 48h-122l-35 -201h126c65 0 82 24 91 75zM337 707l-41 74
c53 29 86 49 143 88l45 -82c-48 -34 -91 -57 -147 -80z" />
    <glyph glyph-name="racute" unicode="&#x155;" horiz-adv-x="338" 
d="M351 496l2 -127c-62 -34 -85 -47 -141 -82l-51 -287h-141l83 475l124 21l-3 -66c47 28 85 48 127 66zM179 538l-41 74c53 29 107 63 164 102l45 -82c-59 -40 -103 -63 -168 -94z" />
    <glyph glyph-name="Rcommaaccent" unicode="&#x156;" horiz-adv-x="646" 
d="M421 0l-117 208h-101l-36 -208h-147l117 666h255c143 0 213 -54 213 -152c0 -13 -2 -26 -4 -41l-14 -80c-14 -83 -44 -136 -127 -165l126 -228h-165zM443 410l9 50c2 11 3 23 3 28c0 34 -21 48 -72 48h-122l-35 -201h126c65 0 82 24 91 75zM316 -197l-86 -106l-45 36
l53 78h-42l25 140h121z" />
    <glyph glyph-name="rcommaaccent" unicode="&#x157;" horiz-adv-x="338" 
d="M351 496l2 -127c-62 -34 -85 -47 -141 -82l-51 -287h-141l83 475l124 21l-3 -66c47 28 85 48 127 66zM118 -197l-86 -106l-45 36l53 78h-42l25 140h121z" />
    <glyph glyph-name="Rcaron" unicode="&#x158;" horiz-adv-x="646" 
d="M421 0l-117 208h-101l-36 -208h-147l117 666h255c143 0 213 -54 213 -152c0 -13 -2 -26 -4 -41l-14 -80c-14 -83 -44 -136 -127 -165l126 -228h-165zM443 410l9 50c2 11 3 23 3 28c0 34 -21 48 -72 48h-122l-35 -201h126c65 0 82 24 91 75zM307 856c39 -19 57 -32 83 -51
c25 20 52 37 85 51l39 -66c-55 -31 -92 -54 -142 -90c-25 28 -63 61 -109 96z" />
    <glyph glyph-name="rcaron" unicode="&#x159;" horiz-adv-x="338" 
d="M351 496l2 -127c-62 -34 -85 -47 -141 -82l-51 -287h-141l83 475l124 21l-3 -66c47 28 85 48 127 66zM160 703c33 -17 66 -42 92 -66c32 25 60 43 104 66l39 -66c-51 -31 -98 -61 -162 -108c-34 41 -73 78 -117 114z" />
    <glyph glyph-name="Sacute" unicode="&#x15a;" horiz-adv-x="539" 
d="M218 -10c-55 0 -152 19 -204 44l32 113c64 -19 117 -33 181 -33c78 0 96 15 106 73c3 14 4 26 4 35c0 30 -20 38 -101 59c-111 28 -152 67 -152 145c0 21 3 45 8 72c29 148 69 178 250 178c51 0 135 -11 194 -26l-26 -123c-59 14 -135 23 -180 23c-72 0 -86 -10 -95 -63
c-2 -15 -4 -27 -4 -36c0 -32 20 -37 98 -57c124 -31 158 -69 158 -137c0 -21 -3 -44 -8 -71c-24 -137 -72 -196 -261 -196zM314 707l-41 74c53 29 86 49 143 88l45 -82c-48 -34 -91 -57 -147 -80z" />
    <glyph glyph-name="sacute" unicode="&#x15b;" horiz-adv-x="413" 
d="M163 -10c-45 0 -108 13 -151 32l27 104c37 -13 79 -25 132 -25c47 0 50 14 54 37c4 22 -10 34 -65 63c-102 54 -106 90 -93 163c19 105 50 133 185 133c46 0 105 -10 145 -23l-23 -106c-36 10 -89 18 -123 18c-42 0 -48 -5 -53 -31c-4 -23 1 -28 48 -53
c112 -60 129 -81 115 -158c-20 -110 -52 -154 -198 -154zM212 538l-41 74c53 29 107 63 164 102l45 -82c-59 -40 -103 -63 -168 -94z" />
    <glyph glyph-name="Scircumflex" unicode="&#x15c;" horiz-adv-x="539" 
d="M218 -10c-55 0 -152 19 -204 44l32 113c64 -19 117 -33 181 -33c78 0 96 15 106 73c3 14 4 26 4 35c0 30 -20 38 -101 59c-111 28 -152 67 -152 145c0 21 3 45 8 72c29 148 69 178 250 178c51 0 135 -11 194 -26l-26 -123c-59 14 -135 23 -180 23c-72 0 -86 -10 -95 -63
c-2 -15 -4 -27 -4 -36c0 -32 20 -37 98 -57c124 -31 158 -69 158 -137c0 -21 -3 -44 -8 -71c-24 -137 -72 -196 -261 -196zM435 709c-39 19 -57 32 -83 51c-25 -20 -52 -37 -85 -51l-39 66c55 31 92 54 142 90c25 -28 63 -61 109 -96z" />
    <glyph glyph-name="scircumflex" unicode="&#x15d;" horiz-adv-x="413" 
d="M163 -10c-45 0 -108 13 -151 32l27 104c37 -13 79 -25 132 -25c47 0 50 14 54 37c4 22 -10 34 -65 63c-102 54 -106 90 -93 163c19 105 50 133 185 133c46 0 105 -10 145 -23l-23 -106c-36 10 -89 18 -123 18c-42 0 -48 -5 -53 -31c-4 -23 1 -28 48 -53
c112 -60 129 -81 115 -158c-20 -110 -52 -154 -198 -154zM369 532c-33 17 -66 42 -92 66c-32 -25 -60 -43 -104 -66l-39 66c51 31 98 61 162 108c34 -41 73 -78 117 -114z" />
    <glyph glyph-name="Scedilla" unicode="&#x15e;" horiz-adv-x="539" 
d="M188 -197c-18 0 -51 7 -71 15l16 52c16 -5 38 -9 57 -9c39 0 54 12 54 31c0 11 -6 18 -21 18c-12 0 -28 0 -54 -2l-16 16l27 68c-55 6 -125 22 -166 42l32 113c64 -19 117 -33 181 -33c78 0 96 15 106 73c3 14 4 26 4 35c0 30 -20 38 -101 59c-111 28 -152 67 -152 145
c0 21 3 45 8 72c29 148 69 178 250 178c51 0 135 -11 194 -26l-26 -123c-59 14 -135 23 -180 23c-72 0 -86 -10 -95 -63c-2 -15 -4 -27 -4 -36c0 -32 20 -37 98 -57c124 -31 158 -69 158 -137c0 -21 -3 -44 -8 -71c-23 -132 -69 -191 -240 -195l-14 -40c13 2 23 3 33 3
c40 0 56 -30 56 -57c0 -62 -39 -94 -126 -94z" />
    <glyph glyph-name="Scedilla" unicode="&#xf6c1;" horiz-adv-x="539" 
d="M188 -197c-18 0 -51 7 -71 15l16 52c16 -5 38 -9 57 -9c39 0 54 12 54 31c0 11 -6 18 -21 18c-12 0 -28 0 -54 -2l-16 16l27 68c-55 6 -125 22 -166 42l32 113c64 -19 117 -33 181 -33c78 0 96 15 106 73c3 14 4 26 4 35c0 30 -20 38 -101 59c-111 28 -152 67 -152 145
c0 21 3 45 8 72c29 148 69 178 250 178c51 0 135 -11 194 -26l-26 -123c-59 14 -135 23 -180 23c-72 0 -86 -10 -95 -63c-2 -15 -4 -27 -4 -36c0 -32 20 -37 98 -57c124 -31 158 -69 158 -137c0 -21 -3 -44 -8 -71c-23 -132 -69 -191 -240 -195l-14 -40c13 2 23 3 33 3
c40 0 56 -30 56 -57c0 -62 -39 -94 -126 -94z" />
    <glyph glyph-name="scedilla" unicode="&#x15f;" horiz-adv-x="413" 
d="M128 -197c-18 0 -51 7 -71 15l16 52c16 -5 38 -9 57 -9c39 0 54 12 54 31c0 11 -6 18 -21 18c-12 0 -28 0 -54 -2l-16 16l27 69c-37 5 -78 15 -108 29l27 104c37 -13 79 -25 132 -25c47 0 50 14 54 37c4 22 -10 34 -65 63c-102 54 -106 90 -93 163c19 105 50 133 185 133
c46 0 105 -10 145 -23l-23 -106c-36 10 -89 18 -123 18c-42 0 -48 -5 -53 -31c-4 -23 1 -28 48 -53c112 -60 129 -81 115 -158c-19 -106 -50 -150 -182 -153l-14 -40c13 2 23 3 33 3c40 0 56 -30 56 -57c0 -62 -39 -94 -126 -94z" />
    <glyph glyph-name="scedilla" unicode="&#xf6c2;" horiz-adv-x="413" 
d="M128 -197c-18 0 -51 7 -71 15l16 52c16 -5 38 -9 57 -9c39 0 54 12 54 31c0 11 -6 18 -21 18c-12 0 -28 0 -54 -2l-16 16l27 69c-37 5 -78 15 -108 29l27 104c37 -13 79 -25 132 -25c47 0 50 14 54 37c4 22 -10 34 -65 63c-102 54 -106 90 -93 163c19 105 50 133 185 133
c46 0 105 -10 145 -23l-23 -106c-36 10 -89 18 -123 18c-42 0 -48 -5 -53 -31c-4 -23 1 -28 48 -53c112 -60 129 -81 115 -158c-19 -106 -50 -150 -182 -153l-14 -40c13 2 23 3 33 3c40 0 56 -30 56 -57c0 -62 -39 -94 -126 -94z" />
    <glyph glyph-name="Scaron" unicode="&#x160;" horiz-adv-x="539" 
d="M218 -10c-55 0 -152 19 -204 44l32 113c64 -19 117 -33 181 -33c78 0 96 15 106 73c3 14 4 26 4 35c0 30 -20 38 -101 59c-111 28 -152 67 -152 145c0 21 3 45 8 72c29 148 69 178 250 178c51 0 135 -11 194 -26l-26 -123c-59 14 -135 23 -180 23c-72 0 -86 -10 -95 -63
c-2 -15 -4 -27 -4 -36c0 -32 20 -37 98 -57c124 -31 158 -69 158 -137c0 -21 -3 -44 -8 -71c-24 -137 -72 -196 -261 -196zM278 856c39 -19 57 -32 83 -51c25 20 52 37 85 51l39 -66c-55 -31 -92 -54 -142 -90c-25 28 -63 61 -109 96z" />
    <glyph glyph-name="scaron" unicode="&#x161;" horiz-adv-x="413" 
d="M163 -10c-45 0 -108 13 -151 32l27 104c37 -13 79 -25 132 -25c47 0 50 14 54 37c4 22 -10 34 -65 63c-102 54 -106 90 -93 163c19 105 50 133 185 133c46 0 105 -10 145 -23l-23 -106c-36 10 -89 18 -123 18c-42 0 -48 -5 -53 -31c-4 -23 1 -28 48 -53
c112 -60 129 -81 115 -158c-20 -110 -52 -154 -198 -154zM182 703c33 -17 66 -42 92 -66c32 25 60 43 104 66l39 -66c-51 -31 -98 -61 -162 -108c-34 41 -73 78 -117 114z" />
    <glyph glyph-name="Tcommaaccent" unicode="&#x162;" horiz-adv-x="530" 
d="M388 536l-94 -536h-148l94 536h-180l23 130h508l-23 -130h-180zM249 -197l-86 -106l-45 36l53 78h-42l25 140h121z" />
    <glyph glyph-name="Tcommaaccent" unicode="&#x21a;" horiz-adv-x="530" 
d="M388 536l-94 -536h-148l94 536h-180l23 130h508l-23 -130h-180zM249 -197l-86 -106l-45 36l53 78h-42l25 140h121z" />
    <glyph glyph-name="tcommaaccent" unicode="&#x163;" horiz-adv-x="376" 
d="M360 374h-108l-43 -243c-1 -5 -2 -10 -2 -13c0 -7 4 -10 14 -10c24 0 51 10 76 20l28 -98c-40 -22 -98 -40 -155 -40c-71 0 -109 34 -109 92c0 7 1 14 2 21l48 271h-72l20 113h72l20 117l145 20l-24 -137h116zM194 -197l-86 -106l-45 36l53 78h-42l25 140h121z" />
    <glyph glyph-name="tcommaaccent" unicode="&#x21b;" horiz-adv-x="376" 
d="M360 374h-108l-43 -243c-1 -5 -2 -10 -2 -13c0 -7 4 -10 14 -10c24 0 51 10 76 20l28 -98c-40 -22 -98 -40 -155 -40c-71 0 -109 34 -109 92c0 7 1 14 2 21l48 271h-72l20 113h72l20 117l145 20l-24 -137h116zM194 -197l-86 -106l-45 36l53 78h-42l25 140h121z" />
    <glyph glyph-name="Tcaron" unicode="&#x164;" horiz-adv-x="530" 
d="M388 536l-94 -536h-148l94 536h-180l23 130h508l-23 -130h-180zM268 856c39 -19 57 -32 83 -51c25 20 52 37 85 51l39 -66c-55 -31 -92 -54 -142 -90c-25 28 -63 61 -109 96z" />
    <glyph glyph-name="tcaron" unicode="&#x165;" horiz-adv-x="391" 
d="M478 592l-57 -67l-34 29l32 45h-50l17 97h110zM360 374h-108l-43 -243c-1 -5 -2 -10 -2 -13c0 -7 4 -10 14 -10c24 0 51 10 76 20l28 -98c-40 -22 -98 -40 -155 -40c-71 0 -109 34 -109 92c0 7 1 14 2 21l48 271h-72l20 113h72l20 117l145 20l-24 -137h116z" />
    <glyph glyph-name="Tbar" unicode="&#x166;" horiz-adv-x="530" 
d="M76 290l13 69h120l31 177h-180l23 130h508l-23 -130h-180l-31 -177h124l-12 -69h-124l-51 -290h-148l51 290h-121z" />
    <glyph glyph-name="tbar" unicode="&#x167;" horiz-adv-x="376" 
d="M16 215l13 69h66l16 90h-72l20 113h72l20 117l145 20l-24 -137h116l-28 -113h-108l-16 -90h95l-12 -69h-95l-15 -84c-1 -5 -2 -10 -2 -13c0 -7 4 -10 14 -10c24 0 51 10 76 20l28 -98c-40 -22 -98 -40 -155 -40c-71 0 -109 34 -109 92c0 7 1 14 2 21l20 112h-67z" />
    <glyph glyph-name="Utilde" unicode="&#x168;" horiz-adv-x="622" 
d="M272 -10c-161 0 -226 81 -226 169c0 11 1 23 3 34l83 473h147l-80 -453c-2 -11 -3 -21 -3 -31c0 -40 21 -62 91 -62c80 0 109 32 119 87l81 459h147l-83 -473c-20 -112 -76 -203 -279 -203zM450 716c-57 0 -71 44 -109 44c-24 0 -44 -27 -58 -45l-51 46
c27 51 71 85 115 85c48 0 81 -45 114 -45c23 0 35 14 46 41l60 -30c-23 -54 -52 -96 -117 -96z" />
    <glyph glyph-name="utilde" unicode="&#x169;" horiz-adv-x="548" 
d="M243 496l-59 -339c-1 -5 -2 -11 -2 -15c0 -10 5 -15 19 -15c26 0 90 28 126 46l53 303l145 20l-87 -496h-120l-1 45c-76 -36 -136 -55 -192 -55c-64 0 -89 38 -89 99c0 20 2 36 5 56l58 331zM389 546c-57 0 -71 44 -109 44c-24 0 -44 -27 -58 -45l-51 46
c27 51 71 85 115 85c48 0 81 -45 114 -45c23 0 35 14 46 41l60 -30c-23 -54 -52 -96 -117 -96z" />
    <glyph glyph-name="Umacron" unicode="&#x16a;" horiz-adv-x="622" 
d="M272 -10c-161 0 -226 81 -226 169c0 11 1 23 3 34l83 473h147l-80 -453c-2 -11 -3 -21 -3 -31c0 -40 21 -62 91 -62c80 0 109 32 119 87l81 459h147l-83 -473c-20 -112 -76 -203 -279 -203zM269 730l16 92h250l-16 -92h-250z" />
    <glyph glyph-name="umacron" unicode="&#x16b;" horiz-adv-x="548" 
d="M243 496l-59 -339c-1 -5 -2 -11 -2 -15c0 -10 5 -15 19 -15c26 0 90 28 126 46l53 303l145 20l-87 -496h-120l-1 45c-76 -36 -136 -55 -192 -55c-64 0 -89 38 -89 99c0 20 2 36 5 56l58 331zM205 554l16 92h250l-16 -92h-250z" />
    <glyph glyph-name="Ubreve" unicode="&#x16c;" horiz-adv-x="622" 
d="M272 -10c-161 0 -226 81 -226 169c0 11 1 23 3 34l83 473h147l-80 -453c-2 -11 -3 -21 -3 -31c0 -40 21 -62 91 -62c80 0 109 32 119 87l81 459h147l-83 -473c-20 -112 -76 -203 -279 -203zM394 707c-75 0 -129 52 -128 114l72 24c5 -39 29 -60 68 -60c40 0 59 23 73 64
l68 -31c-14 -60 -59 -111 -153 -111z" />
    <glyph glyph-name="ubreve" unicode="&#x16d;" horiz-adv-x="548" 
d="M243 496l-59 -339c-1 -5 -2 -11 -2 -15c0 -10 5 -15 19 -15c26 0 90 28 126 46l53 303l145 20l-87 -496h-120l-1 45c-76 -36 -136 -55 -192 -55c-64 0 -89 38 -89 99c0 20 2 36 5 56l58 331zM326 532c-87 0 -134 61 -133 123l72 24c5 -39 23 -69 73 -69c51 0 77 35 91 76
l68 -31c-14 -60 -65 -123 -171 -123z" />
    <glyph glyph-name="Uring" unicode="&#x16e;" horiz-adv-x="622" 
d="M272 -10c-161 0 -226 81 -226 169c0 11 1 23 3 34l83 473h147l-80 -453c-2 -11 -3 -21 -3 -31c0 -40 21 -62 91 -62c80 0 109 32 119 87l81 459h147l-83 -473c-20 -112 -76 -203 -279 -203zM383 707c-43 0 -75 29 -75 69c0 63 38 100 103 100c48 0 78 -29 78 -66
c0 -56 -32 -103 -106 -103zM405 827c-25 0 -41 -16 -41 -45c0 -16 8 -26 27 -26c27 0 42 17 42 45c0 16 -11 26 -28 26z" />
    <glyph glyph-name="uring" unicode="&#x16f;" horiz-adv-x="548" 
d="M243 496l-59 -339c-1 -5 -2 -11 -2 -15c0 -10 5 -15 19 -15c26 0 90 28 126 46l53 303l145 20l-87 -496h-120l-1 45c-76 -36 -136 -55 -192 -55c-64 0 -89 38 -89 99c0 20 2 36 5 56l58 331zM330 535c-46 0 -81 32 -81 76c0 67 44 110 113 110c52 0 81 -34 81 -74
c0 -59 -35 -112 -113 -112zM354 671c-27 0 -48 -23 -48 -53c0 -19 9 -33 32 -33c29 0 48 23 48 53c0 20 -11 33 -32 33z" />
    <glyph glyph-name="Uhungarumlaut" unicode="&#x170;" horiz-adv-x="622" 
d="M272 -10c-161 0 -226 81 -226 169c0 11 1 23 3 34l83 473h147l-80 -453c-2 -11 -3 -21 -3 -31c0 -40 21 -62 91 -62c80 0 109 32 119 87l81 459h147l-83 -473c-20 -112 -76 -203 -279 -203zM292 707l-53 66c47 38 68 56 109 96l59 -73c-44 -40 -73 -60 -115 -89zM482 707
l-53 66c47 38 68 56 109 96l59 -73c-44 -40 -73 -60 -115 -89z" />
    <glyph glyph-name="uhungarumlaut" unicode="&#x171;" horiz-adv-x="548" 
d="M243 496l-59 -339c-1 -5 -2 -11 -2 -15c0 -10 5 -15 19 -15c26 0 90 28 126 46l53 303l145 20l-87 -496h-120l-1 45c-76 -36 -136 -55 -192 -55c-64 0 -89 38 -89 99c0 20 2 36 5 56l58 331zM224 529l-54 65c47 38 81 67 129 116l59 -73c-44 -40 -92 -79 -134 -108z
M414 529l-54 65c47 38 81 67 129 116l59 -73c-44 -40 -92 -79 -134 -108z" />
    <glyph glyph-name="Uogonek" unicode="&#x172;" horiz-adv-x="622" 
d="M272 -10c-161 0 -226 81 -226 169c0 11 1 23 3 34l83 473h147l-80 -453c-2 -11 -3 -21 -3 -31c0 -40 21 -62 91 -62c80 0 109 32 119 87l81 459h147l-83 -473c-15 -83 -49 -154 -148 -186c-82 -31 -127 -71 -127 -106c0 -18 14 -28 43 -28c14 0 26 2 38 5l9 -69
c-24 -10 -52 -16 -86 -16c-63 0 -101 29 -101 81c0 48 45 90 108 116h-15z" />
    <glyph glyph-name="uogonek" unicode="&#x173;" horiz-adv-x="548" 
d="M243 496l-59 -339c-1 -5 -2 -11 -2 -15c0 -10 5 -15 19 -15c26 0 90 28 126 46l53 303l145 20l-87 -496c-50 -31 -90 -64 -90 -99c0 -18 14 -28 43 -28c14 0 26 2 38 5l9 -69c-24 -10 -52 -16 -86 -16c-63 0 -99 31 -99 83c0 55 52 96 127 124h-62l-1 45
c-76 -36 -136 -55 -192 -55c-64 0 -89 38 -89 99c0 20 2 36 5 56l58 331z" />
    <glyph glyph-name="Wcircumflex" unicode="&#x174;" horiz-adv-x="954" 
d="M737 0h-188l-31 493l-205 -493h-183l-53 666h144l36 -485l206 485h168l33 -485l204 485h147zM640 709c-39 19 -57 32 -83 51c-25 -20 -52 -37 -85 -51l-39 66c55 31 92 54 142 90c25 -28 63 -61 109 -96z" />
    <glyph glyph-name="wcircumflex" unicode="&#x175;" horiz-adv-x="713" 
d="M190 491c13 -75 21 -150 21 -235c0 -32 -1 -65 -4 -100l122 236l-17 77l130 20l59 -327l53 205c4 20 6 35 6 50s-2 31 -8 53l136 26c6 -28 10 -52 10 -77c0 -33 -7 -69 -28 -123l-100 -296h-163l-42 221l-120 -221h-158c-1 206 -13 335 -32 470zM486 532
c-33 17 -66 42 -92 66c-32 -25 -60 -43 -104 -66l-39 66c51 31 98 61 162 108c34 -41 73 -78 117 -114z" />
    <glyph glyph-name="Ycircumflex" unicode="&#x176;" horiz-adv-x="535" 
d="M330 192l-33 -192h-148l33 192l-123 474h149l74 -308l175 308h169zM428 709c-39 19 -57 32 -83 51c-25 -20 -52 -37 -85 -51l-39 66c55 31 92 54 142 90c25 -28 63 -61 109 -96z" />
    <glyph glyph-name="ycircumflex" unicode="&#x177;" horiz-adv-x="478" 
d="M307 0c-56 -112 -105 -168 -254 -216l-36 111c67 25 111 56 144 105h-45l-67 472l141 20l37 -363l102 243c9 24 12 44 12 62c0 15 -2 29 -5 42l137 20c4 -14 7 -35 7 -59c0 -28 -4 -60 -16 -88zM380 532c-33 17 -66 42 -92 66c-32 -25 -60 -43 -104 -66l-39 66
c51 31 98 61 162 108c34 -41 73 -78 117 -114z" />
    <glyph glyph-name="Ydieresis" unicode="&#x178;" horiz-adv-x="535" 
d="M330 192l-33 -192h-148l33 192l-123 474h149l74 -308l175 308h169zM298 727h-114l19 109h114zM508 727h-114l19 109h114z" />
    <glyph glyph-name="Zacute" unicode="&#x179;" horiz-adv-x="561" 
d="M39 0l-3 120l353 420h-285l22 126h439l-1 -121l-355 -422h286l-22 -123h-434zM334 707l-41 74c53 29 86 49 143 88l45 -82c-48 -34 -91 -57 -147 -80z" />
    <glyph glyph-name="zacute" unicode="&#x17a;" horiz-adv-x="452" 
d="M31 0l-5 108l232 267h-184l19 112h330l-1 -108l-233 -266h192l-19 -113h-331zM221 538l-41 74c53 29 107 63 164 102l45 -82c-59 -40 -103 -63 -168 -94z" />
    <glyph glyph-name="Zdotaccent" unicode="&#x17b;" horiz-adv-x="561" 
d="M39 0l-3 120l353 420h-285l22 126h439l-1 -121l-355 -422h286l-22 -123h-434zM299 721l26 150l145 20l-27 -150z" />
    <glyph glyph-name="zdotaccent" unicode="&#x17c;" horiz-adv-x="452" 
d="M31 0l-5 108l232 267h-184l19 112h330l-1 -108l-233 -266h192l-19 -113h-331zM203 541l26 150l145 20l-27 -150z" />
    <glyph glyph-name="Zcaron" unicode="&#x17d;" horiz-adv-x="561" 
d="M39 0l-3 120l353 420h-285l22 126h439l-1 -121l-355 -422h286l-22 -123h-434zM275 856c39 -19 57 -32 83 -51c25 20 52 37 85 51l39 -66c-55 -31 -92 -54 -142 -90c-25 28 -63 61 -109 96z" />
    <glyph glyph-name="zcaron" unicode="&#x17e;" horiz-adv-x="452" 
d="M31 0l-5 108l232 267h-184l19 112h330l-1 -108l-233 -266h192l-19 -113h-331zM182 703c33 -17 66 -42 92 -66c32 25 60 43 104 66l39 -66c-51 -31 -98 -61 -162 -108c-34 41 -73 78 -117 114z" />
    <glyph glyph-name="florin" unicode="&#x192;" horiz-adv-x="494" 
d="M503 575c-22 7 -60 14 -81 14c-40 0 -49 -15 -58 -48l-30 -115h118l-28 -115h-121l-96 -363c-26 -100 -62 -145 -173 -145c-27 0 -74 8 -94 18l27 108c18 -5 34 -9 52 -9c35 0 43 10 52 44l92 347h-79l31 115h79l32 125c27 106 62 155 180 155c44 0 93 -11 123 -24z" />
    <glyph glyph-name="Aringacute" unicode="&#x1fa;" horiz-adv-x="632" 
d="M425 0l-14 131h-227l-60 -131h-159l320 666h201l95 -666h-156zM369 543l-131 -290h159zM389 704c-43 0 -75 29 -75 69c0 63 38 100 103 100c48 0 78 -29 78 -66c0 -56 -32 -103 -106 -103zM411 824c-25 0 -41 -16 -41 -45c0 -16 8 -26 27 -26c27 0 42 17 42 45
c0 16 -11 26 -28 26zM423 900l-38 69c40 22 82 47 124 75l42 -77c-37 -22 -87 -49 -128 -67z" />
    <glyph glyph-name="aringacute" unicode="&#x1fb;" horiz-adv-x="527" 
d="M420 0h-119l-4 42c-34 -26 -85 -52 -155 -52c-106 0 -127 64 -108 173l23 131c20 116 66 202 258 202c51 0 118 -9 186 -30zM198 293l-25 -145c-4 -26 2 -36 27 -36c36 0 75 21 107 48l37 211c-19 4 -40 5 -55 5c-73 0 -82 -36 -91 -83zM329 537c-43 0 -75 29 -75 69
c0 63 38 100 103 100c48 0 78 -29 78 -66c0 -56 -32 -103 -106 -103zM351 657c-25 0 -41 -16 -41 -45c0 -16 8 -26 27 -26c27 0 42 17 42 45c0 16 -11 26 -28 26zM353 733l-38 69c40 22 82 47 124 75l42 -77c-37 -22 -87 -49 -128 -67z" />
    <glyph glyph-name="AEacute" unicode="&#x1fc;" horiz-adv-x="853" 
d="M425 0l-14 131h-227l-60 -131h-159l320 666h592l-23 -130h-353l18 -127h292l-23 -129h-250l21 -150h223l-22 -130h-335zM369 543l-131 -290h159zM432 707l-41 74c53 29 86 49 143 88l45 -82c-48 -34 -91 -57 -147 -80z" />
    <glyph glyph-name="aeacute" unicode="&#x1fd;" horiz-adv-x="721" 
d="M251 497c61 0 108 -14 134 -54c31 33 83 54 144 54c107 0 167 -55 167 -143c0 -91 -47 -162 -279 -177l-4 -23c-1 -5 -2 -12 -2 -16c0 -22 14 -33 44 -33c49 0 127 17 188 44l27 -102c-63 -35 -156 -57 -231 -57c-61 0 -108 18 -137 52c-44 -38 -89 -52 -147 -52
c-92 0 -138 59 -138 127c0 110 67 156 171 156h106l7 40c2 11 3 20 3 28c0 30 -17 41 -79 41c-42 0 -91 -6 -138 -15l-14 103c53 16 123 27 178 27zM442 318l-8 -44c113 11 137 34 137 76c0 23 -19 37 -52 37c-41 0 -69 -23 -77 -69zM277 176h-62c-41 0 -65 -11 -65 -46
c0 -17 9 -35 38 -35c28 0 60 9 85 24v15c0 12 1 25 4 42zM394 538l-41 74c53 29 107 63 164 102l45 -82c-59 -40 -103 -63 -168 -94z" />
    <glyph glyph-name="Oslashacute" unicode="&#x1fe;" horiz-adv-x="616" 
d="M2 -23l70 90c-22 29 -32 64 -32 100c0 10 1 21 3 31l48 275c22 124 98 203 286 203c60 0 109 -14 145 -35l67 85l47 -37l-68 -86c27 -32 41 -70 41 -108c0 -9 -1 -20 -3 -30l-48 -272c-22 -127 -97 -203 -294 -203c-63 0 -111 14 -147 36l-67 -86zM458 460v2l-252 -322
c15 -13 41 -20 81 -20c76 0 116 29 126 86zM236 460l-42 -238l241 308c-15 10 -39 16 -73 16c-76 0 -116 -33 -126 -86zM350 707l-41 74c53 29 86 49 143 88l45 -82c-48 -34 -91 -57 -147 -80z" />
    <glyph glyph-name="oslashacute" unicode="&#x1ff;" horiz-adv-x="520" 
d="M0 -18l60 69c-23 28 -35 64 -35 102c0 11 1 23 3 34l20 113c22 125 83 197 253 197c51 0 92 -12 122 -31l62 71l36 -32l-63 -71c22 -28 33 -63 33 -99c0 -11 -1 -23 -3 -35l-20 -113c-21 -117 -77 -197 -254 -197c-49 0 -88 11 -118 30l-61 -69zM169 183
c-1 -3 -1 -6 -2 -9l167 190c-11 10 -29 15 -52 15c-53 0 -84 -27 -92 -75zM348 304c0 1 1 3 1 5l-165 -188c11 -9 28 -13 51 -13c54 0 84 27 92 75zM270 538l-41 74c53 29 107 63 164 102l45 -82c-59 -40 -103 -63 -168 -94z" />
    <glyph glyph-name="Scommaaccent" unicode="&#x218;" horiz-adv-x="539" 
d="M218 -10c-55 0 -152 19 -204 44l32 113c64 -19 117 -33 181 -33c78 0 96 15 106 73c3 14 4 26 4 35c0 30 -20 38 -101 59c-111 28 -152 67 -152 145c0 21 3 45 8 72c29 148 69 178 250 178c51 0 135 -11 194 -26l-26 -123c-59 14 -135 23 -180 23c-72 0 -86 -10 -95 -63
c-2 -15 -4 -27 -4 -36c0 -32 20 -37 98 -57c124 -31 158 -69 158 -137c0 -21 -3 -44 -8 -71c-24 -137 -72 -196 -261 -196zM258 -197l-86 -106l-45 36l53 78h-42l25 140h121z" />
    <glyph glyph-name="scommaaccent" unicode="&#x219;" horiz-adv-x="413" 
d="M163 -10c-45 0 -108 13 -151 32l27 104c37 -13 79 -25 132 -25c47 0 50 14 54 37c4 22 -10 34 -65 63c-102 54 -106 90 -93 163c19 105 50 133 185 133c46 0 105 -10 145 -23l-23 -106c-36 10 -89 18 -123 18c-42 0 -48 -5 -53 -31c-4 -23 1 -28 48 -53
c112 -60 129 -81 115 -158c-20 -110 -52 -154 -198 -154zM188 -197l-86 -106l-45 36l53 78h-42l25 140h121z" />
    <glyph glyph-name="circumflex" unicode="&#x2c6;" horiz-adv-x="374" 
d="M340 532c-33 17 -66 42 -92 66c-32 -25 -60 -43 -104 -66l-39 66c51 31 98 61 162 108c34 -41 73 -78 117 -114z" />
    <glyph glyph-name="caron" unicode="&#x2c7;" horiz-adv-x="379" 
d="M159 703c33 -17 66 -42 92 -66c32 25 60 43 104 66l39 -66c-51 -31 -98 -61 -162 -108c-34 41 -73 78 -117 114z" />
    <glyph glyph-name="breve" unicode="&#x2d8;" horiz-adv-x="395" 
d="M249 532c-87 0 -134 61 -133 123l72 24c5 -39 23 -69 73 -69c51 0 77 35 91 76l68 -31c-14 -60 -65 -123 -171 -123z" />
    <glyph glyph-name="dotaccent" unicode="&#x2d9;" horiz-adv-x="271" 
d="M105 541l26 150l145 20l-27 -150z" />
    <glyph glyph-name="ring" unicode="&#x2da;" horiz-adv-x="294" 
d="M186 535c-46 0 -81 32 -81 76c0 67 44 110 113 110c52 0 81 -34 81 -74c0 -59 -35 -112 -113 -112zM210 671c-27 0 -48 -23 -48 -53c0 -19 9 -33 32 -33c29 0 48 23 48 53c0 20 -11 33 -32 33z" />
    <glyph glyph-name="ogonek" unicode="&#x2db;" horiz-adv-x="282" 
d="M81 -207c-62 0 -101 31 -101 83s41 96 99 124h70c-37 -28 -72 -65 -72 -97c0 -18 13 -30 43 -30c14 0 26 2 38 5l9 -69c-24 -10 -55 -16 -86 -16z" />
    <glyph glyph-name="tilde" unicode="&#x2dc;" horiz-adv-x="430" 
d="M323 546c-57 0 -71 44 -109 44c-24 0 -44 -27 -58 -45l-51 46c27 51 71 85 115 85c48 0 81 -45 114 -45c23 0 35 14 46 41l60 -30c-23 -54 -52 -96 -117 -96z" />
    <glyph glyph-name="hungarumlaut" unicode="&#x2dd;" horiz-adv-x="468" 
d="M159 529l-54 65c47 38 81 67 129 116l59 -73c-44 -40 -92 -79 -134 -108zM349 529l-54 65c47 38 81 67 129 116l59 -73c-44 -40 -92 -79 -134 -108z" />
    <glyph glyph-name="uni03A9" unicode="&#x3a9;" horiz-adv-x="683" 
d="M11 0l17 92h67c-16 22 -26 47 -26 75c0 10 1 21 3 31l48 275c22 124 98 203 286 203c158 0 232 -85 232 -181c0 -9 -1 -20 -3 -30l-48 -272c-8 -44 -27 -79 -58 -101h86l-16 -92h-248l16 93c41 19 66 59 75 113l45 254c1 7 2 14 2 20c0 41 -27 66 -98 66
c-76 0 -116 -33 -126 -86l-45 -254c-1 -8 -2 -16 -2 -23c0 -38 4 -62 37 -90l-16 -93h-228z" />
    <glyph glyph-name="pi" unicode="&#x3c0;" horiz-adv-x="668" 
d="M483 -10c-83 0 -119 39 -119 98c0 9 1 19 3 29l45 254h-125c-18 -111 -47 -252 -99 -371h-136c49 117 81 257 99 371h-103l20 116h593l-20 -116h-93l-42 -236c-1 -6 -2 -11 -2 -17c0 -13 8 -20 26 -20c15 0 35 5 49 11l3 -99c-23 -13 -59 -20 -99 -20z" />
    <glyph glyph-name="Wgrave" unicode="&#x1e80;" horiz-adv-x="954" 
d="M737 0h-188l-31 493l-205 -493h-183l-53 666h144l36 -485l206 485h168l33 -485l204 485h147zM625 773l-53 -66c-51 30 -88 62 -119 90l61 72c34 -35 63 -59 111 -96z" />
    <glyph glyph-name="wgrave" unicode="&#x1e81;" horiz-adv-x="713" 
d="M190 491c13 -75 21 -150 21 -235c0 -32 -1 -65 -4 -100l122 236l-17 77l130 20l59 -327l53 205c4 20 6 35 6 50s-2 31 -8 53l136 26c6 -28 10 -52 10 -77c0 -33 -7 -69 -28 -123l-100 -296h-163l-42 221l-120 -221h-158c-1 206 -13 335 -32 470zM437 604l-53 -66
c-54 35 -94 67 -133 104l61 72c34 -35 76 -72 125 -110z" />
    <glyph glyph-name="Wacute" unicode="&#x1e82;" horiz-adv-x="954" 
d="M737 0h-188l-31 493l-205 -493h-183l-53 666h144l36 -485l206 485h168l33 -485l204 485h147zM549 707l-41 74c53 29 86 49 143 88l45 -82c-48 -34 -91 -57 -147 -80z" />
    <glyph glyph-name="wacute" unicode="&#x1e83;" horiz-adv-x="713" 
d="M190 491c13 -75 21 -150 21 -235c0 -32 -1 -65 -4 -100l122 236l-17 77l130 20l59 -327l53 205c4 20 6 35 6 50s-2 31 -8 53l136 26c6 -28 10 -52 10 -77c0 -33 -7 -69 -28 -123l-100 -296h-163l-42 221l-120 -221h-158c-1 206 -13 335 -32 470zM357 538l-41 74
c53 29 107 63 164 102l45 -82c-59 -40 -103 -63 -168 -94z" />
    <glyph glyph-name="Wdieresis" unicode="&#x1e84;" horiz-adv-x="954" 
d="M737 0h-188l-31 493l-205 -493h-183l-53 666h144l36 -485l206 485h168l33 -485l204 485h147zM516 727h-114l19 109h114zM726 727h-114l19 109h114z" />
    <glyph glyph-name="wdieresis" unicode="&#x1e85;" horiz-adv-x="713" 
d="M190 491c13 -75 21 -150 21 -235c0 -32 -1 -65 -4 -100l122 236l-17 77l130 20l59 -327l53 205c4 20 6 35 6 50s-2 31 -8 53l136 26c6 -28 10 -52 10 -77c0 -33 -7 -69 -28 -123l-100 -296h-163l-42 221l-120 -221h-158c-1 206 -13 335 -32 470zM247 553l21 118l111 5
l-20 -118zM445 553l21 118l111 5l-20 -118z" />
    <glyph glyph-name="Ygrave" unicode="&#x1ef2;" horiz-adv-x="535" 
d="M330 192l-33 -192h-148l33 192l-123 474h149l74 -308l175 308h169zM392 773l-53 -66c-51 30 -88 62 -119 90l61 72c34 -35 63 -59 111 -96z" />
    <glyph glyph-name="ygrave" unicode="&#x1ef3;" horiz-adv-x="478" 
d="M307 0c-56 -112 -105 -168 -254 -216l-36 111c67 25 111 56 144 105h-45l-67 472l141 20l37 -363l102 243c9 24 12 44 12 62c0 15 -2 29 -5 42l137 20c4 -14 7 -35 7 -59c0 -28 -4 -60 -16 -88zM332 604l-53 -66c-54 35 -94 67 -133 104l61 72c34 -35 76 -72 125 -110z
" />
    <glyph glyph-name="endash" unicode="&#x2013;" horiz-adv-x="454" 
d="M34 220l21 120h374l-21 -120h-374z" />
    <glyph glyph-name="emdash" unicode="&#x2014;" horiz-adv-x="604" 
d="M34 220l21 120h524l-21 -120h-524z" />
    <glyph glyph-name="quoteleft" unicode="&#x2018;" horiz-adv-x="269" 
d="M228 705l51 -41l-77 -109h53l-29 -166h-141l32 178z" />
    <glyph glyph-name="quoteright" unicode="&#x2019;" horiz-adv-x="269" 
d="M141 370l-51 41l77 109h-53l29 166h141l-32 -178z" />
    <glyph glyph-name="quotesinglbase" unicode="&#x201a;" horiz-adv-x="274" 
d="M51 -150l-51 41l77 109h-53l29 166h141l-32 -178z" />
    <glyph glyph-name="quotedblleft" unicode="&#x201c;" horiz-adv-x="486" 
d="M445 705l51 -41l-77 -109h53l-29 -166h-141l32 178zM228 705l51 -41l-77 -109h53l-29 -166h-141l32 178z" />
    <glyph glyph-name="quotedblright" unicode="&#x201d;" horiz-adv-x="486" 
d="M141 370l-51 41l77 109h-53l29 166h141l-32 -178zM358 370l-51 41l77 109h-53l29 166h141l-32 -178z" />
    <glyph glyph-name="quotedblbase" unicode="&#x201e;" horiz-adv-x="491" 
d="M51 -150l-51 41l77 109h-53l29 166h141l-32 -178zM268 -150l-51 41l77 109h-53l29 166h141l-32 -178z" />
    <glyph glyph-name="dagger" unicode="&#x2020;" horiz-adv-x="442" 
d="M299 408l-84 -478h-102l84 478h-138l17 92h138l29 166h102l-29 -166h140l-17 -92h-140z" />
    <glyph glyph-name="daggerdbl" unicode="&#x2021;" horiz-adv-x="442" 
d="M243 96l-29 -166h-102l29 166h-138l17 92h138l38 220h-138l17 92h138l29 166h102l-29 -166h140l-17 -92h-140l-38 -220h140l-17 -92h-140z" />
    <glyph glyph-name="bullet" unicode="&#x2022;" horiz-adv-x="354" 
d="M187 189c-73 0 -132 60 -132 134s59 134 132 134s132 -60 132 -134s-59 -134 -132 -134z" />
    <glyph glyph-name="ellipsis" unicode="&#x2026;" horiz-adv-x="828" 
d="M24 0l29 166h141l-29 -166h-141zM300 0l29 166h141l-29 -166h-141zM576 0l29 166h141l-29 -166h-141z" />
    <glyph glyph-name="perthousand" unicode="&#x2030;" horiz-adv-x="1251" 
d="M348 -10l-77 33l277 653l76 -32zM209 314c-125 0 -150 67 -136 144l13 74c18 102 58 144 183 144c111 0 149 -62 134 -148l-12 -70c-15 -87 -49 -144 -182 -144zM298 540c5 32 -6 43 -44 43s-54 -11 -59 -43l-16 -90c-6 -33 4 -44 44 -44s53 12 59 44zM627 -10
c-125 0 -150 67 -136 144l13 74c18 102 58 144 183 144c111 0 149 -62 134 -148l-12 -70c-15 -87 -49 -144 -182 -144zM716 216c5 32 -6 43 -44 43s-54 -11 -59 -43l-16 -90c-6 -33 4 -44 44 -44s53 12 59 44zM1007 -10c-125 0 -150 67 -136 144l13 74
c18 102 58 144 183 144c111 0 149 -62 134 -148l-12 -70c-15 -87 -49 -144 -182 -144zM1096 216c5 32 -6 43 -44 43s-54 -11 -59 -43l-16 -90c-6 -33 4 -44 44 -44s53 12 59 44z" />
    <glyph glyph-name="guilsinglleft" unicode="&#x2039;" horiz-adv-x="280" 
d="M119 52l-94 192l153 192l85 -71l-103 -121l58 -143z" />
    <glyph glyph-name="guilsinglright" unicode="&#x203a;" horiz-adv-x="279" 
d="M166 436l94 -192l-153 -192l-85 71l103 121l-58 143z" />
    <glyph glyph-name="fraction" unicode="&#x2044;" horiz-adv-x="384" 
d="M19 -51l-64 41l434 705l65 -39z" />
    <glyph glyph-name="Euro" unicode="&#x20ac;" horiz-adv-x="524" 
d="M39 356l14 76h80l7 42c19 115 95 182 247 182c54 0 118 -10 172 -26l-27 -119c-40 11 -103 19 -144 19c-67 0 -93 -15 -103 -71l-5 -27h162l-14 -76h-161l-12 -66h163l-14 -76h-162l-5 -30c-1 -6 -1 -13 -1 -15c0 -36 21 -53 84 -53c48 0 91 6 138 16l6 -119
c-46 -15 -110 -23 -166 -23c-145 0 -211 68 -211 162c0 12 0 23 3 39l4 23h-79l14 76h78l12 66h-80z" />
    <glyph glyph-name="uni2113" unicode="&#x2113;" horiz-adv-x="539" 
d="M258 -10c-121 0 -161 64 -161 146v6c-22 -10 -44 -21 -66 -31l-40 100c37 17 80 37 124 58l45 253c22 123 85 184 223 184c103 0 161 -59 161 -142c0 -146 -122 -249 -299 -346l-7 -42c-1 -6 -2 -15 -2 -25c0 -32 16 -44 53 -44c40 0 93 23 152 57l45 -95
c-60 -39 -142 -79 -228 -79zM301 533l-31 -177c80 54 140 119 140 197c0 25 -17 40 -44 40c-36 0 -58 -19 -65 -60z" />
    <glyph glyph-name="uni2116" unicode="&#x2116;" horiz-adv-x="998" 
d="M347 0l-114 435l-76 -435h-137l117 666h166l111 -456l80 456h137l-117 -666h-167zM635 163l15 84h309l-15 -84h-309zM1018 528l-16 -91c-15 -84 -61 -140 -188 -140c-119 0 -153 65 -139 145l17 96c15 86 69 138 188 138c110 0 152 -67 138 -148zM898 437l17 96
c6 34 -8 55 -50 55s-62 -20 -68 -54l-17 -97c-6 -34 4 -52 49 -52c44 0 63 18 69 52z" />
    <glyph glyph-name="trademark" unicode="&#x2122;" horiz-adv-x="453" 
d="M420 462l-2 120l-35 -93h-43l-35 91l-2 -118h-42l8 204h45l48 -129l47 129h46l8 -204h-43zM178 625v-163h-45v163h-53v41h152v-41h-54z" />
    <glyph glyph-name="estimated" unicode="&#x212e;" horiz-adv-x="784" 
d="M771 301h-572v-201c54 -47 127 -76 215 -76c120 0 203 42 291 130l24 -24c-78 -80 -170 -140 -315 -140c-202 0 -357 152 -357 333c0 183 163 333 357 333s357 -150 357 -333v-22zM414 622c-84 0 -159 -31 -215 -80v-209h430v209c-56 49 -131 80 -215 80z" />
    <glyph glyph-name="partialdiff" unicode="&#x2202;" horiz-adv-x="575" 
d="M467 176c-52 -140 -74 -186 -279 -186c-119 0 -169 52 -169 122c0 20 4 42 12 64l30 84c43 119 89 165 236 165c36 0 78 -10 109 -23l13 38c11 31 17 55 17 75c0 42 -28 59 -98 59c-44 0 -88 -7 -144 -23l-15 108c65 24 136 37 202 37c141 0 198 -53 198 -146
c0 -39 -10 -86 -29 -138zM289 308c-62 0 -76 -15 -94 -64l-26 -72c-5 -15 -9 -27 -9 -37c0 -19 16 -27 65 -27c69 0 81 10 100 64l41 118c-19 11 -48 18 -77 18z" />
    <glyph glyph-name="Delta" unicode="&#x2206;" horiz-adv-x="702" 
d="M-18 0l359 666h153l127 -666h-639zM395 504l-194 -378h256z" />
    <glyph glyph-name="product" unicode="&#x220f;" horiz-adv-x="781" 
d="M680 536l-112 -636h-140l112 636h-201l-112 -636h-140l112 636h-116l23 130h713l-23 -130h-116z" />
    <glyph glyph-name="summation" unicode="&#x2211;" horiz-adv-x="534" 
d="M0 -100l23 131l242 257l-158 247l23 131h407l-23 -130h-231l157 -245l-231 -261h233l-23 -130h-419z" />
    <glyph glyph-name="minus" unicode="&#x2212;" horiz-adv-x="374" 
d="M50 178v120h284v-120h-284z" />
    <glyph glyph-name="radical" unicode="&#x221a;" horiz-adv-x="678" 
d="M587 613l-291 -613h-157l-69 458l131 14l39 -297l259 555h247l-14 -117h-145z" />
    <glyph glyph-name="infinity" unicode="&#x221e;" horiz-adv-x="890" 
d="M668 97c-85 0 -147 49 -213 108c-66 -59 -130 -108 -215 -108c-115 0 -200 61 -200 184s81 186 200 186c85 0 149 -49 215 -109c66 60 128 109 213 109c119 0 202 -63 202 -186s-87 -184 -202 -184zM668 354c-45 0 -85 -30 -132 -72c47 -43 87 -72 132 -72
c47 0 79 23 79 71s-32 73 -79 73zM242 354c-50 0 -79 -25 -79 -73s30 -71 79 -71c45 0 85 29 132 72c-47 42 -87 72 -132 72z" />
    <glyph glyph-name="integral" unicode="&#x222b;" horiz-adv-x="410" 
d="M398 543c-14 5 -34 11 -50 11c-22 0 -33 -11 -37 -34l-102 -582c-18 -100 -59 -145 -154 -145c-30 0 -72 10 -101 24l28 100c16 -7 38 -11 50 -11c24 0 33 11 37 34l104 591c18 100 55 145 155 145c35 0 78 -11 104 -24z" />
    <glyph glyph-name="approxequal" unicode="&#x2248;" horiz-adv-x="540" 
d="M358 263c-72 0 -97 58 -164 58c-36 0 -68 -20 -92 -41l-47 86c31 32 87 66 143 66c79 0 122 -61 166 -61c30 0 57 16 79 38l52 -80c-29 -28 -77 -66 -137 -66zM358 61c-72 0 -97 58 -164 58c-36 0 -68 -20 -92 -41l-47 86c31 32 87 66 143 66c79 0 122 -61 166 -61
c30 0 57 16 79 38l52 -80c-29 -28 -77 -66 -137 -66z" />
    <glyph glyph-name="notequal" unicode="&#x2260;" horiz-adv-x="521" 
d="M243 107l-69 -133l-77 40l47 93h-79v93h127l53 102h-180v93h228l73 139l77 -40l-51 -99h84v-93h-132l-53 -102h185v-93h-233z" />
    <glyph glyph-name="lessequal" unicode="&#x2264;" horiz-adv-x="516" 
d="M391 137l-328 176v73l328 171l41 -78l-251 -129l251 -135zM45 0v93h411v-93h-411z" />
    <glyph glyph-name="greaterequal" unicode="&#x2265;" horiz-adv-x="516" 
d="M120 137l-41 78l251 135l-251 129l41 78l328 -171v-73zM55 0v93h411v-93h-411z" />
    <glyph glyph-name="lozenge" unicode="&#x25ca;" horiz-adv-x="568" 
d="M350 0h-88l-212 334l212 332h88l213 -332zM306 539l-133 -205l133 -207l134 207z" />
    <glyph glyph-name="apple" unicode="&#xf8ff;" horiz-adv-x="876" 
d="M491 335v-335h-331v666h666v-331h-335z" />
    <glyph glyph-name="Acute" horiz-adv-x="288" 
d="M186 707l-41 74c53 29 86 49 143 88l45 -82c-48 -34 -91 -57 -147 -80z" />
    <glyph glyph-name="Breve" horiz-adv-x="372" 
d="M254 707c-75 0 -129 52 -128 114l72 24c5 -39 29 -60 68 -60c40 0 59 23 73 64l68 -31c-14 -60 -59 -111 -153 -111z" />
    <glyph glyph-name="Caron" horiz-adv-x="351" 
d="M184 856c39 -19 57 -32 83 -51c25 20 52 37 85 51l39 -66c-55 -31 -92 -54 -142 -90c-25 28 -63 61 -109 96z" />
    <glyph glyph-name="Cedilla" horiz-adv-x="292" 
d="M56 -197c-18 0 -51 7 -71 15l16 52c16 -5 38 -9 57 -9c39 0 54 12 54 31c0 11 -6 18 -21 18c-12 0 -28 0 -54 -2l-16 16l38 96h59l-25 -69c13 2 23 3 33 3c40 0 56 -30 56 -57c0 -62 -39 -94 -126 -94z" />
    <glyph glyph-name="Circumflex" horiz-adv-x="346" 
d="M327 709c-39 19 -57 32 -83 51c-25 -20 -52 -37 -85 -51l-39 66c55 31 92 54 142 90c25 -28 63 -61 109 -96z" />
    <glyph glyph-name="commaaccent" horiz-adv-x="333" 
d="M196 -197l-86 -106l-45 36l53 78h-42l25 140h121z" />
    <glyph glyph-name="Dieresis" horiz-adv-x="448" 
d="M259 727h-114l19 109h114zM469 727h-114l19 109h114z" />
    <glyph glyph-name="Dotaccent" horiz-adv-x="271" 
d="M145 721l26 150l145 20l-27 -150z" />
    <glyph glyph-name="Grave" horiz-adv-x="297" 
d="M302 773l-53 -66c-51 30 -88 62 -119 90l61 72c34 -35 63 -59 111 -96z" />
    <glyph glyph-name="Hungarumlaut" horiz-adv-x="448" 
d="M198 707l-53 66c47 38 68 56 109 96l59 -73c-44 -40 -73 -60 -115 -89zM388 707l-53 66c47 38 68 56 109 96l59 -73c-44 -40 -73 -60 -115 -89z" />
    <glyph glyph-name="Macron" horiz-adv-x="356" 
d="M125 730l16 92h250l-16 -92h-250z" />
    <glyph glyph-name="Ogonek" horiz-adv-x="282" 
d="M81 -207c-62 0 -101 31 -101 83s41 96 99 124h70c-37 -28 -72 -65 -72 -97c0 -18 13 -30 43 -30c14 0 26 2 38 5l9 -69c-24 -10 -55 -16 -86 -16z" />
    <glyph glyph-name="Ring" horiz-adv-x="281" 
d="M205 707c-43 0 -75 29 -75 69c0 63 38 100 103 100c48 0 78 -29 78 -66c0 -56 -32 -103 -106 -103zM227 827c-25 0 -41 -16 -41 -45c0 -16 8 -26 27 -26c27 0 42 17 42 45c0 16 -11 26 -28 26z" />
    <glyph glyph-name="Tilde" horiz-adv-x="425" 
d="M353 716c-57 0 -71 44 -109 44c-24 0 -44 -27 -58 -45l-51 46c27 51 71 85 115 85c48 0 81 -45 114 -45c23 0 35 14 46 41l60 -30c-23 -54 -52 -96 -117 -96z" />
    <glyph glyph-name="ampersand.salt" horiz-adv-x="646" 
d="M519 273l-44 -247c-81 -25 -173 -36 -251 -36c-133 0 -184 54 -184 130c0 11 1 23 3 35l9 54c11 63 39 108 104 135c-38 22 -50 56 -50 92c0 10 1 21 3 32l7 42c19 115 63 166 240 166c65 0 143 -11 199 -28l-26 -112c-56 13 -135 22 -194 22c-54 0 -72 -13 -79 -53
l-9 -51c-1 -7 -2 -13 -2 -19c0 -26 13 -45 50 -45h341l-20 -117h-97zM387 273h-102c-56 0 -86 -20 -93 -64l-6 -37c-1 -6 -2 -14 -2 -18c0 -33 21 -49 65 -49c41 0 73 3 110 11z" />
    <glyph glyph-name="i.turk" horiz-adv-x="271" 
d="M116 541l26 150l145 20l-27 -150zM20 0l84 476l145 20l-88 -496h-141z" />
    <glyph glyph-name="minus.onum" horiz-adv-x="374" 
d="M50 178v120h284v-120h-284z" />
    <glyph glyph-name="multiply.onum" horiz-adv-x="484" 
d="M345 54l-103 104l-103 -104l-79 80l103 104l-103 104l79 80l103 -104l103 104l79 -80l-103 -104l103 -104z" />
    <glyph glyph-name="numbersign.onum" horiz-adv-x="603" 
d="M316 0l22 112h-127l-22 -112h-93l22 112h-92l16 87h92l23 116h-92l17 88h92l21 107h93l-21 -107h127l21 107h93l-21 -107h95l-17 -88h-95l-23 -116h94l-16 -87h-94l-22 -112h-93zM250 315l-23 -116h127l23 116h-127z" />
    <glyph glyph-name="dollar.onum" horiz-adv-x="488" 
d="M126 -105l17 98c-43 5 -88 17 -125 38l25 106c39 -14 107 -32 162 -32c58 0 69 16 74 46s-5 38 -82 55c-130 29 -135 90 -118 184c17 96 64 123 163 128l17 97h116l-18 -99c35 -4 71 -11 102 -21l-27 -113c-52 14 -113 21 -151 21c-41 0 -60 -1 -65 -32
c-6 -35 -3 -43 82 -62c116 -26 141 -56 123 -155c-18 -98 -40 -148 -162 -160l-17 -99h-116z" />
    <glyph glyph-name="percent.onum" horiz-adv-x="764" 
d="M269 -10l-74 49l304 481l74 -48zM340 396l-8 -45c-12 -68 -39 -120 -162 -120c-103 0 -131 56 -119 124l7 41c13 76 47 124 161 124c106 0 133 -55 121 -124zM242 403c3 20 -5 33 -36 33s-42 -11 -46 -33l-9 -53c-4 -22 3 -35 34 -35s43 12 47 32zM718 155l-8 -45
c-12 -68 -39 -120 -162 -120c-103 0 -131 56 -119 124l7 41c13 76 47 124 161 124c106 0 133 -55 121 -124zM620 162c3 20 -5 33 -36 33s-42 -11 -46 -33l-9 -53c-4 -22 3 -35 34 -35s43 12 47 32z" />
    <glyph glyph-name="plus.onum" horiz-adv-x="516" 
d="M315 189v-149h-111v149h-146v108h146v150h111v-150h146v-108h-146z" />
    <glyph glyph-name="zero.onum" horiz-adv-x="547" 
d="M227 -10c-139 0 -190 62 -190 143c0 12 1 25 3 38l30 173c19 109 80 176 247 176c129 0 191 -71 191 -156c0 -11 -1 -23 -3 -34l-28 -164c-17 -99 -64 -176 -250 -176zM342 184l25 142c1 8 2 14 2 23c0 35 -19 50 -70 50c-61 0 -85 -22 -94 -73l-25 -142
c-2 -10 -3 -19 -3 -27c0 -32 17 -46 71 -46c61 0 85 22 94 73z" />
    <glyph glyph-name="one.onum" horiz-adv-x="391" 
d="M135 0l61 347l-117 -58l-48 112l206 109h128l-89 -510h-141z" />
    <glyph glyph-name="two.onum" horiz-adv-x="499" 
d="M8 0l16 96c83 60 107 79 167 123c40 29 61 45 81 62c23 19 30 30 35 60l3 16c6 34 -15 40 -61 40c-39 0 -101 -8 -144 -18l-18 112c47 14 133 29 190 29c139 0 189 -59 173 -151l-4 -23c-13 -78 -25 -109 -101 -166c-41 -31 -51 -37 -84 -63h167l-20 -117h-400z" />
    <glyph glyph-name="three.onum" horiz-adv-x="470" 
d="M152 -146c-54 0 -116 12 -171 30l28 107c38 -11 98 -22 138 -22c67 0 85 9 94 60l3 17c1 7 2 16 2 23c0 44 -31 59 -107 59h-78l21 119h78c85 0 112 19 122 77l5 29c1 6 2 11 2 15c0 32 -26 40 -86 40c-29 0 -81 -6 -116 -13l-9 106c45 11 110 19 168 19
c121 0 186 -41 186 -121c0 -9 0 -18 -2 -28l-10 -61c-10 -64 -33 -105 -113 -124c50 -11 82 -53 82 -108c0 -12 -1 -19 -3 -28l-7 -38c-18 -97 -51 -158 -227 -158z" />
    <glyph glyph-name="four.onum" horiz-adv-x="577" 
d="M431 21l-28 -157h-138l28 157h-297l22 123l303 366h195l-65 -375h91l-20 -114h-91zM355 374l-195 -239h153z" />
    <glyph glyph-name="five.onum" horiz-adv-x="485" 
d="M168 -146c-44 0 -115 9 -175 32l31 112c41 -12 99 -22 146 -22c72 0 87 15 95 63l5 28c1 8 2 13 2 20c0 31 -19 40 -69 42c-80 3 -96 3 -149 5l66 376h354l-21 -122h-214l-25 -140c19 -1 42 -2 72 -5c89 -9 131 -58 131 -127c0 -10 -1 -20 -3 -31l-10 -57
c-21 -119 -69 -174 -236 -174z" />
    <glyph glyph-name="six.onum" 
d="M222 -10c-140 0 -180 58 -180 137c0 17 2 36 5 55l44 250c30 170 86 224 266 224c38 0 105 -6 159 -24l-24 -110c-37 10 -96 16 -128 16c-100 0 -119 -26 -131 -91l-13 -70c42 11 84 15 116 15c94 0 142 -33 142 -116c0 -13 -2 -32 -5 -51l-7 -43
c-19 -117 -54 -192 -244 -192zM323 171l9 49c1 6 2 11 2 16c0 29 -21 36 -44 36c-33 0 -64 -7 -91 -19l-14 -78c-1 -8 -2 -13 -2 -24c0 -29 14 -40 60 -40c57 0 72 16 80 60z" />
    <glyph glyph-name="seven.onum" horiz-adv-x="475" 
d="M134 -135l-109 70l296 451h-268l21 124h416l-22 -126z" />
    <glyph glyph-name="eight.onum" horiz-adv-x="538" 
d="M222 -10c-121 0 -189 37 -189 128c0 10 1 26 4 41l9 51c9 48 32 82 107 119c-39 29 -53 56 -53 89c0 8 1 16 2 24l10 56c20 111 67 158 225 158c112 0 176 -46 176 -127c0 -9 -1 -20 -3 -31l-10 -56c-9 -53 -26 -80 -89 -113c51 -30 67 -57 67 -93c0 -13 -1 -18 -2 -26
l-9 -51c-21 -121 -70 -169 -245 -169zM366 444l8 48c1 5 2 11 2 15c0 24 -15 35 -57 35c-52 0 -67 -14 -73 -50l-8 -48c-1 -7 -2 -12 -2 -17c0 -20 12 -30 56 -48c64 23 68 33 74 65zM338 194c1 7 2 13 2 19c0 22 -13 34 -71 58c-82 -30 -85 -42 -91 -77l-6 -33
c-1 -7 -2 -14 -2 -19c0 -29 19 -37 72 -37c65 0 83 16 90 56z" />
    <glyph glyph-name="nine.onum" 
d="M307 520c136 0 180 -61 180 -142c0 -16 -2 -33 -5 -50l-44 -250c-31 -175 -72 -224 -266 -224c-47 0 -121 13 -162 33l30 108c42 -13 90 -23 130 -23c96 0 112 16 124 81l15 80c-42 -11 -84 -15 -116 -15c-90 0 -141 34 -141 119c0 14 1 31 4 48l7 43
c21 127 53 192 244 192zM206 339l-9 -49c-1 -7 -2 -13 -2 -20c0 -26 15 -32 44 -32c33 0 64 7 91 19l14 78c2 10 3 20 3 25c0 28 -15 39 -61 39c-57 0 -72 -16 -80 -60z" />
    <glyph glyph-name="less.onum" horiz-adv-x="559" 
d="M470 -9l-440 217v72l440 216l41 -82l-354 -170l354 -170z" />
    <glyph glyph-name="equal.onum" horiz-adv-x="521" 
d="M65 303v93h411v-93h-411zM65 106v93h411v-93h-411z" />
    <glyph glyph-name="greater.onum" horiz-adv-x="559" 
d="M89 -9l-41 83l354 170l-354 170l41 82l440 -216v-72z" />
    <glyph glyph-name="cent.onum" horiz-adv-x="436" 
d="M129 -82l16 93c-78 11 -109 48 -109 117c0 27 3 49 9 78l20 98c23 117 70 168 164 182l17 94h90l-16 -90c32 -3 70 -10 93 -19l-34 -114c-22 8 -53 14 -81 14c-64 0 -85 -20 -95 -76l-23 -127c-1 -5 -2 -11 -2 -16c0 -16 8 -24 27 -24c36 0 103 20 137 30l13 -113
c-32 -16 -77 -29 -120 -35l-16 -92h-90z" />
    <glyph glyph-name="sterling.onum" horiz-adv-x="532" 
d="M51 202l17 96h72c-3 19 -7 39 -7 59c0 109 58 163 201 163c55 0 121 -13 170 -37l-27 -102c-50 17 -106 26 -141 26c-46 0 -61 -18 -61 -53c0 -18 5 -37 9 -56h168l-23 -96h-143c-10 -35 -30 -67 -62 -93h241l-19 -109h-415l18 103c41 23 78 59 92 99h-90z" />
    <glyph glyph-name="section.onum" horiz-adv-x="497" 
d="M394 400c-43 11 -99 23 -144 23c-33 0 -48 -13 -53 -43c-6 -34 -9 -71 -9 -110c0 -81 13 -170 36 -254l-106 -26c-28 100 -43 196 -43 286c0 43 3 85 10 126c13 75 50 118 165 118c61 0 128 -14 168 -29zM111 -77c43 -11 99 -23 144 -23c33 0 48 13 53 43
c6 34 9 71 9 110c0 81 -13 170 -36 254l106 26c28 -100 43 -196 43 -286c0 -43 -3 -85 -10 -126c-13 -75 -50 -118 -165 -118c-61 0 -128 14 -168 29z" />
    <glyph glyph-name="yen.onum" horiz-adv-x="549" 
d="M46 231l15 81h70l-61 198h145l64 -234l131 234h161l-129 -198h68l-15 -81h-106l-39 -60h135l-15 -81h-150l-16 -90h-148l16 90h-151l15 81h139l-19 60h-110z" />
    <glyph glyph-name="florin.onum" horiz-adv-x="455" 
d="M444 399c-22 7 -60 14 -81 14c-40 0 -49 -15 -58 -48l-24 -97h117l-27 -115h-121l-55 -205c-26 -100 -52 -145 -163 -145c-27 0 -80 9 -104 21l27 108c16 -7 42 -12 57 -12c30 0 38 11 45 35l53 198h-79l31 115h79l26 107c27 106 64 155 176 155c44 0 97 -11 127 -24z
" />
    <glyph glyph-name="endash.onum" horiz-adv-x="454" 
d="M34 220l21 120h374l-21 -120h-374z" />
    <glyph glyph-name="divide.onum" 
d="M195 354v133h130v-133h-130zM55 200v88h410v-88h-410zM195 0v133h130v-133h-130z" />
    <glyph glyph-name="Euro.onum" horiz-adv-x="472" 
d="M34 282l10 55h58l4 21c20 111 66 162 219 162c51 0 109 -9 151 -22l-26 -115c-38 9 -88 15 -123 15c-57 0 -72 -9 -79 -50l-2 -11h113l-10 -55h-112l-10 -55h114l-10 -55h-114l-2 -11c-8 -43 5 -49 61 -49c37 0 74 4 122 12l6 -113c-36 -12 -104 -21 -149 -21
c-155 0 -204 57 -184 169l2 13h-57l10 55h57l10 55h-59z" />
    <glyph glyph-name="perthousand.onum" horiz-adv-x="1094" 
d="M269 -10l-74 49l304 481l74 -48zM340 396l-8 -45c-12 -68 -39 -120 -162 -120c-103 0 -131 56 -119 124l7 41c13 76 47 124 161 124c106 0 133 -55 121 -124zM242 403c3 20 -5 33 -36 33s-42 -11 -46 -33l-9 -53c-4 -22 3 -35 34 -35s43 12 47 32zM718 155l-8 -45
c-12 -68 -39 -120 -162 -120c-103 0 -131 56 -119 124l7 41c13 76 47 124 161 124c106 0 133 -55 121 -124zM620 162c3 20 -5 33 -36 33s-42 -11 -46 -33l-9 -53c-4 -22 3 -35 34 -35s43 12 47 32zM1048 155l-8 -45c-12 -68 -39 -120 -162 -120c-103 0 -131 56 -119 124
l7 41c13 76 47 124 161 124c106 0 133 -55 121 -124zM950 162c3 20 -5 33 -36 33s-42 -11 -46 -33l-9 -53c-4 -22 3 -35 34 -35s43 12 47 32z" />
    <glyph glyph-name="minus.tnum" 
d="M400 178h-288v120h288v-120z" />
    <glyph glyph-name="multiply.tnum" 
d="M372 53l-103 103l-103 -103l-82 82l103 103l-103 103l82 82l103 -103l103 103l82 -82l-103 -103l103 -103z" />
    <glyph glyph-name="numbersign.tnum" 
d="M264 0l31 159h-110l-32 -159h-89l32 159h-78l17 85h78l33 161h-78l17 85h78l31 156h89l-31 -156h110l30 156h89l-30 -156h76l-17 -85h-76l-33 -161h78l-17 -85h-78l-31 -159h-89zM235 405l-33 -161h110l33 161h-110z" />
    <glyph glyph-name="dollar.tnum" 
d="M273 -6l-20 -115h-111l20 113c-50 4 -95 13 -140 31l34 116c55 -19 111 -28 164 -28c75 0 87 17 97 74c3 16 5 28 5 37c0 29 -18 35 -85 52c-108 27 -142 48 -142 116c0 22 3 48 9 81c25 139 61 172 201 183l20 115h111l-20 -116c35 -3 66 -8 101 -17l-28 -120
c-43 10 -111 17 -160 17c-63 0 -77 -10 -85 -65c-2 -13 -4 -25 -4 -33c0 -27 18 -32 89 -51c110 -29 139 -55 139 -113c0 -23 -4 -50 -10 -85c-19 -114 -57 -176 -185 -192z" />
    <glyph glyph-name="percent.tnum" horiz-adv-x="871" 
d="M348 -10l-77 33l277 653l76 -32zM209 314c-125 0 -150 67 -136 144l13 74c18 102 58 144 183 144c111 0 149 -62 134 -148l-12 -70c-15 -87 -49 -144 -182 -144zM298 540c5 32 -6 43 -44 43s-54 -11 -59 -43l-16 -90c-6 -33 4 -44 44 -44s53 12 59 44zM627 -10
c-125 0 -150 67 -136 144l13 74c18 102 58 144 183 144c111 0 149 -62 134 -148l-12 -70c-15 -87 -49 -144 -182 -144zM716 216c5 32 -6 43 -44 43s-54 -11 -59 -43l-16 -90c-6 -33 4 -44 44 -44s53 12 59 44z" />
    <glyph glyph-name="plus.tnum" 
d="M458 188h-136v-138h-115v138h-136v110h136v139h115v-139h136v-110z" />
    <glyph glyph-name="zero.tnum" 
d="M216 -10c-140 0 -190 61 -190 142c0 13 1 26 3 39l54 309c21 119 83 176 251 176c120 0 188 -64 188 -154c0 -10 -1 -20 -3 -31l-53 -302c-20 -117 -77 -179 -250 -179zM378 460c1 6 2 16 2 23c0 35 -20 50 -69 50c-64 0 -83 -25 -92 -76l-49 -275c-2 -12 -3 -22 -3 -31
c0 -30 16 -38 70 -38c67 0 83 20 93 75z" />
    <glyph glyph-name="one.tnum" 
d="M44 0l20 119h129l65 371l-115 -54l-49 103l204 107h129l-93 -527h127l-21 -119h-396z" />
    <glyph glyph-name="two.tnum" 
d="M21 0l21 121c85 74 98 86 172 154c47 45 75 72 111 111c19 24 25 43 31 78l3 18c6 36 -13 49 -72 49c-47 0 -116 -8 -161 -18l-13 114c60 18 138 29 203 29c140 0 203 -60 185 -162l-4 -22c-15 -85 -14 -111 -124 -221c-58 -59 -91 -90 -133 -128h198l-21 -123h-396z" />
    <glyph glyph-name="three.tnum" 
d="M200 -10c-51 0 -132 12 -177 34l30 106c36 -11 88 -23 143 -23c84 0 94 17 101 58l8 43c7 39 -5 56 -55 56h-140l21 119h136c48 0 60 19 67 59l8 48c7 44 -10 52 -73 52c-39 0 -95 -8 -136 -16l-11 107c52 13 122 23 180 23c151 0 199 -60 184 -150l-9 -54
c-10 -59 -20 -104 -93 -126c51 -25 72 -58 60 -128l-9 -47c-18 -104 -58 -161 -235 -161z" />
    <glyph glyph-name="four.tnum" 
d="M417 138l-24 -138h-138l24 138h-267l22 123l272 385h200l-69 -394h71l-20 -114h-71zM351 541l-191 -289h139z" />
    <glyph glyph-name="five.tnum" 
d="M204 -10c-44 0 -121 10 -184 34l31 112c51 -13 112 -24 159 -24c73 0 87 19 95 63l4 24c2 12 3 19 3 24c0 34 -20 39 -69 42c-20 1 -142 5 -156 5l66 376h361l-21 -122h-221l-25 -141c139 -4 212 -23 212 -119c0 -7 -1 -18 -3 -30l-12 -67c-22 -123 -75 -177 -240 -177z
" />
    <glyph glyph-name="six.tnum" 
d="M220 -10c-140 0 -180 58 -180 137c0 17 2 36 5 55l44 250c30 170 86 224 266 224c47 0 108 -8 162 -26l-27 -109c-45 11 -93 17 -128 17c-100 0 -119 -26 -131 -91l-13 -70c42 11 84 15 116 15c94 0 142 -33 142 -116c0 -15 -2 -32 -5 -51l-7 -43
c-19 -117 -54 -192 -244 -192zM321 171l9 49c1 6 2 11 2 16c0 29 -21 36 -44 36c-33 0 -64 -7 -91 -19l-13 -73c-2 -9 -3 -19 -3 -29c0 -29 14 -40 60 -40c57 0 72 16 80 60z" />
    <glyph glyph-name="seven.tnum" 
d="M201 0h-151l336 522h-289l21 124h437l-21 -120z" />
    <glyph glyph-name="eight.tnum" 
d="M216 -10c-121 0 -189 37 -189 128c0 10 1 26 4 41l9 51c9 48 32 82 107 119c-39 29 -53 56 -53 89c0 8 1 16 2 24l10 56c20 111 67 158 225 158c112 0 176 -46 176 -127c0 -9 -1 -20 -3 -31l-10 -56c-9 -53 -26 -80 -89 -113c51 -30 67 -57 67 -93c0 -8 0 -17 -2 -26
l-9 -51c-21 -121 -70 -169 -245 -169zM368 492c1 5 2 11 2 15c0 24 -15 35 -57 35c-52 0 -67 -14 -73 -50l-8 -48c-1 -7 -2 -12 -2 -17c0 -20 12 -30 56 -48c64 23 69 33 74 65zM332 194c1 7 2 13 2 19c0 22 -13 34 -71 58c-82 -30 -85 -42 -91 -77l-6 -33
c-1 -7 -2 -14 -2 -19c0 -29 19 -37 72 -37c65 0 83 16 90 56z" />
    <glyph glyph-name="nine.tnum" 
d="M328 656c136 0 180 -61 180 -142c0 -16 -2 -33 -5 -50l-44 -250c-31 -175 -72 -224 -266 -224c-47 0 -121 13 -162 33l30 108c42 -13 90 -23 130 -23c96 0 112 16 124 81l15 80c-42 -11 -84 -15 -116 -15c-90 0 -141 34 -141 119c0 14 1 31 4 48l7 43
c21 127 53 192 244 192zM227 475l-9 -49c-1 -7 -2 -14 -2 -20c0 -26 15 -32 44 -32c33 0 64 7 91 19l14 78c1 7 3 18 3 25c0 28 -15 39 -61 39c-57 0 -72 -16 -80 -60z" />
    <glyph glyph-name="less.tnum" 
d="M421 -10l-373 217v74l373 216l45 -83l-304 -170l307 -171z" />
    <glyph glyph-name="equal.tnum" 
d="M447 300h-355v96h355v-96zM447 106h-355v96h355v-96z" />
    <glyph glyph-name="greater.tnum" 
d="M484 207l-373 -217l-48 83l307 171l-304 170l45 83l373 -216v-74z" />
    <glyph glyph-name="cent.tnum" 
d="M188 -10l16 93c-77 10 -108 49 -108 121c0 25 3 46 8 74l24 122c23 117 70 168 164 182l17 94h90l-16 -90c36 -2 69 -10 93 -19l-34 -114c-24 8 -53 14 -81 14c-64 0 -85 -20 -95 -76l-26 -148c-1 -6 -2 -14 -2 -19c0 -16 8 -24 26 -24c36 0 103 20 137 30l13 -113
c-31 -15 -77 -29 -120 -34l-16 -93h-90z" />
    <glyph glyph-name="sterling.tnum" 
d="M14 0l21 118c67 39 118 105 118 165h-101l15 101h72c-8 22 -16 65 -16 95c0 123 67 177 214 177c51 0 119 -9 175 -24l-20 -109c-44 9 -104 16 -149 16c-58 0 -82 -18 -82 -74c0 -29 6 -61 14 -81h175l-16 -101h-150c0 -56 -20 -123 -85 -166h270l-21 -117h-434z" />
    <glyph glyph-name="section.tnum" 
d="M412 556c-43 11 -99 23 -144 23c-32 0 -48 -13 -53 -43c-8 -45 -11 -101 -11 -163c0 -114 11 -245 26 -356l-109 -17c-19 114 -31 250 -31 372c0 69 4 133 13 186c13 75 50 118 165 118c61 0 128 -14 168 -29zM129 -67c43 -11 99 -23 144 -23c32 0 48 13 53 43
c8 45 11 101 11 163c0 114 -11 245 -26 356l109 17c19 -114 31 -250 31 -372c0 -69 -4 -133 -13 -186c-13 -75 -50 -118 -165 -118c-61 0 -128 14 -168 29z" />
    <glyph glyph-name="yen.tnum" 
d="M454 125h-137l-22 -125h-150l22 125h-138l16 87h129l-14 81h-101l16 90h69l-46 263h137l45 -301l137 301h152l-139 -263h70l-16 -90h-101l-43 -81h130z" />
    <glyph glyph-name="florin.tnum" 
d="M539 575c-22 7 -60 14 -81 14c-40 0 -49 -15 -58 -48l-30 -115h118l-28 -115h-121l-96 -363c-26 -100 -62 -145 -173 -145c-27 0 -74 8 -94 18l27 108c18 -5 34 -9 52 -9c35 0 43 10 52 44l92 347h-79l31 115h79l32 125c27 106 62 155 180 155c44 0 93 -11 123 -24z" />
    <glyph glyph-name="endash.tnum" 
d="M73 220l21 120h374l-21 -120h-374z" />
    <glyph glyph-name="divide.tnum" 
d="M200 354v133h130v-133h-130zM60 200v88h410v-88h-410zM200 0v133h130v-133h-130z" />
    <glyph glyph-name="Euro.tnum" 
d="M41 356l14 76h69l8 44c22 128 97 180 242 180c45 0 110 -8 162 -26l-32 -115c-40 13 -88 19 -119 19c-63 0 -96 -5 -108 -74l-5 -28h162l-14 -76h-161l-12 -66h163l-14 -76h-163s-4 -26 -7 -44c-8 -45 11 -58 85 -58c40 0 77 4 118 14l7 -115c-51 -16 -113 -21 -156 -21
c-141 0 -204 55 -204 146c0 12 1 29 4 45l6 33h-69l14 76h68l12 66h-70z" />
    <glyph glyph-name="perthousand.tnum" horiz-adv-x="1251" 
d="M348 -10l-77 33l277 653l76 -32zM209 314c-125 0 -150 67 -136 144l13 74c18 102 58 144 183 144c111 0 149 -62 134 -148l-12 -70c-15 -87 -49 -144 -182 -144zM298 540c5 32 -6 43 -44 43s-54 -11 -59 -43l-16 -90c-6 -33 4 -44 44 -44s53 12 59 44zM627 -10
c-125 0 -150 67 -136 144l13 74c18 102 58 144 183 144c111 0 149 -62 134 -148l-12 -70c-15 -87 -49 -144 -182 -144zM716 216c5 32 -6 43 -44 43s-54 -11 -59 -43l-16 -90c-6 -33 4 -44 44 -44s53 12 59 44zM1007 -10c-125 0 -150 67 -136 144l13 74
c18 102 58 144 183 144c111 0 149 -62 134 -148l-12 -70c-15 -87 -49 -144 -182 -144zM1096 216c5 32 -6 43 -44 43s-54 -11 -59 -43l-16 -90c-6 -33 4 -44 44 -44s53 12 59 44z" />
    <glyph glyph-name="minusonum.tnum" 
d="M120 178v120h284v-120h-284z" />
    <glyph glyph-name="multiplyonum.tnum" 
d="M369 54l-103 104l-103 -104l-79 80l103 104l-103 104l79 80l103 -104l103 104l79 -80l-103 -104l103 -104z" />
    <glyph glyph-name="numbersignonum.tnum" 
d="M274 0l23 116h-110l-23 -116h-89l23 116h-75l17 83h75l22 117h-75l17 83h75l22 111h89l-22 -111h110l22 111h89l-22 -111h73l-17 -83h-73l-22 -117h72l-17 -83h-72l-23 -116h-89zM226 316l-22 -117h110l22 117h-110z" />
    <glyph glyph-name="dollaronum.tnum" 
d="M147 -105l17 98c-43 5 -88 17 -125 38l25 106c39 -14 107 -32 162 -32c58 0 69 16 74 46s-5 38 -82 55c-130 29 -135 90 -118 184c17 96 60 123 163 128l17 97h116l-18 -99c35 -4 71 -11 102 -21l-27 -113c-52 14 -113 21 -151 21c-41 0 -60 -1 -65 -32
c-6 -35 -3 -43 82 -62c116 -26 141 -56 123 -155c-18 -98 -40 -148 -162 -160l-17 -99h-116z" />
    <glyph glyph-name="percentonum.tnum" horiz-adv-x="764" 
d="M269 -10l-74 49l304 481l74 -48zM340 396l-8 -45c-12 -68 -39 -120 -162 -120c-103 0 -131 56 -119 124l7 41c13 76 47 124 161 124c106 0 133 -55 121 -124zM242 403c3 20 -5 33 -36 33s-42 -11 -46 -33l-9 -53c-4 -22 3 -35 34 -35s43 12 47 32zM718 155l-8 -45
c-12 -68 -39 -120 -162 -120c-103 0 -131 56 -119 124l7 41c13 76 47 124 161 124c106 0 133 -55 121 -124zM620 162c3 20 -5 33 -36 33s-42 -11 -46 -33l-9 -53c-4 -22 3 -35 34 -35s43 12 47 32z" />
    <glyph glyph-name="plusonum.tnum" 
d="M456 188h-136v-138h-115v138h-136v110h136v139h115v-139h136v-110z" />
    <glyph glyph-name="zeroonum.tnum" 
d="M216 -10c-139 0 -190 62 -190 143c0 12 1 25 3 38l30 173c19 109 80 176 247 176c129 0 191 -71 191 -156c0 -11 -1 -23 -3 -34l-28 -164c-17 -99 -64 -176 -250 -176zM331 184l25 142c1 8 2 14 2 23c0 35 -19 50 -70 50c-61 0 -85 -22 -94 -73l-25 -142
c-2 -10 -3 -19 -3 -27c0 -32 17 -46 71 -46c61 0 85 22 94 73z" />
    <glyph glyph-name="oneonum.tnum" 
d="M44 0l19 114h135l44 249l-128 -60l-44 105l210 102h129l-70 -396h134l-20 -114h-409z" />
    <glyph glyph-name="twoonum.tnum" 
d="M26 0l16 96c83 60 107 79 167 123c40 29 61 45 81 62c23 19 30 30 35 60l3 16c6 34 -15 40 -61 40c-39 0 -106 -8 -160 -20l-18 112c60 17 149 31 206 31c139 0 189 -59 173 -151l-4 -23c-13 -78 -25 -109 -101 -166c-41 -31 -51 -37 -84 -63h167l-20 -117h-400z" />
    <glyph glyph-name="threeonum.tnum" 
d="M176 -146c-54 0 -116 12 -171 30l28 107c38 -11 98 -22 138 -22c67 0 85 9 94 60l3 17c1 7 2 16 2 23c0 44 -31 59 -107 59h-78l21 119h78c85 0 112 19 122 77l5 29c1 6 2 11 2 15c0 32 -26 40 -86 40c-29 0 -81 -6 -116 -13l-9 106c45 11 110 19 168 19
c121 0 186 -41 186 -121c0 -9 0 -18 -2 -28l-10 -61c-10 -64 -33 -105 -113 -124c50 -11 82 -53 82 -108c0 -12 -1 -19 -3 -28l-7 -38c-18 -97 -51 -158 -227 -158z" />
    <glyph glyph-name="fouronum.tnum" 
d="M467 27h-80l-28 -163h-137l28 163h-260l21 118l281 365h180l-65 -373h80zM270 137l40 229l-168 -229h128z" />
    <glyph glyph-name="fiveonum.tnum" 
d="M181 -146c-44 0 -115 9 -175 32l31 112c41 -12 99 -22 146 -22c72 0 87 15 95 63l5 28c1 8 2 13 2 20c0 31 -19 40 -69 42c-80 3 -96 3 -149 5l66 376h354l-21 -122h-214l-25 -140c19 -1 42 -2 72 -5c89 -9 131 -58 131 -127c0 -10 -1 -20 -3 -31l-10 -57
c-21 -119 -69 -174 -236 -174z" />
    <glyph glyph-name="sixonum.tnum" 
d="M223 -10c-140 0 -180 58 -180 137c0 17 2 36 5 55l44 250c30 170 86 224 266 224c38 0 105 -6 159 -24l-24 -110c-37 10 -96 16 -128 16c-100 0 -119 -26 -131 -91l-13 -70c42 11 84 15 116 15c94 0 142 -33 142 -116c0 -13 -2 -32 -5 -51l-7 -43
c-19 -117 -54 -192 -244 -192zM324 171l9 49c1 6 2 11 2 16c0 29 -21 36 -44 36c-33 0 -64 -7 -91 -19l-14 -78c-1 -8 -2 -13 -2 -24c0 -29 14 -40 60 -40c57 0 72 16 80 60z" />
    <glyph glyph-name="sevenonum.tnum" 
d="M153 -135l-109 70l296 451h-268l21 124h416l-22 -126z" />
    <glyph glyph-name="eightonum.tnum" 
d="M216 -10c-121 0 -189 37 -189 128c0 10 1 26 4 41l9 51c9 48 32 82 107 119c-39 29 -53 56 -53 89c0 8 1 16 2 24l10 56c20 111 67 158 225 158c112 0 176 -46 176 -127c0 -9 -1 -20 -3 -31l-10 -56c-9 -53 -26 -80 -89 -113c51 -30 67 -57 67 -93c0 -13 -1 -18 -2 -26
l-9 -51c-21 -121 -70 -169 -245 -169zM360 444l8 48c1 5 2 11 2 15c0 24 -15 35 -57 35c-52 0 -67 -14 -73 -50l-8 -48c-1 -7 -2 -12 -2 -17c0 -20 12 -30 56 -48c64 23 68 33 74 65zM332 194c1 7 2 13 2 19c0 22 -13 34 -71 58c-82 -30 -85 -42 -91 -77l-6 -33
c-1 -7 -2 -14 -2 -19c0 -29 19 -37 72 -37c65 0 83 16 90 56z" />
    <glyph glyph-name="nineonum.tnum" 
d="M297 520c136 0 180 -61 180 -142c0 -16 -2 -33 -5 -50l-44 -250c-31 -175 -72 -224 -266 -224c-47 0 -121 13 -162 33l30 108c42 -13 90 -23 130 -23c96 0 112 16 124 81l15 80c-42 -11 -84 -15 -116 -15c-90 0 -141 34 -141 119c0 14 1 31 4 48l7 43
c21 127 53 192 244 192zM196 339l-9 -49c-1 -7 -2 -13 -2 -20c0 -26 15 -32 44 -32c33 0 64 7 91 19l14 78c2 10 3 20 3 25c0 28 -15 39 -61 39c-57 0 -72 -16 -80 -60z" />
    <glyph glyph-name="lessonum.tnum" 
d="M421 -10l-373 217v74l373 216l45 -83l-304 -170l307 -171z" />
    <glyph glyph-name="equalonum.tnum" 
d="M440 300h-355v96h355v-96zM440 106h-355v96h355v-96z" />
    <glyph glyph-name="greateronum.tnum" 
d="M477 207l-373 -217l-48 83l307 171l-304 170l45 83l373 -216v-74z" />
    <glyph glyph-name="centonum.tnum" 
d="M174 -82l16 93c-78 11 -109 48 -109 117c0 27 3 49 9 78l20 98c23 117 70 168 164 182l17 94h90l-16 -90c32 -3 70 -10 93 -19l-34 -114c-22 8 -53 14 -81 14c-64 0 -85 -20 -95 -76l-23 -127c-1 -5 -2 -11 -2 -16c0 -16 8 -24 27 -24c36 0 103 20 137 30l13 -113
c-32 -16 -77 -29 -120 -35l-16 -92h-90z" />
    <glyph glyph-name="sterlingonum.tnum" 
d="M53 202l17 96h72c-3 19 -7 39 -7 59c0 109 58 163 201 163c55 0 121 -13 170 -37l-27 -102c-50 17 -106 26 -141 26c-46 0 -61 -18 -61 -53c0 -18 5 -37 9 -56h168l-23 -96h-143c-10 -35 -30 -67 -62 -93h241l-19 -109h-415l18 103c41 23 78 59 92 99h-90z" />
    <glyph glyph-name="sectiononum.tnum" 
d="M411 400c-43 11 -99 23 -144 23c-33 0 -48 -13 -53 -43c-6 -34 -9 -71 -9 -110c0 -81 13 -170 36 -254l-106 -26c-28 100 -43 196 -43 286c0 43 3 85 10 126c13 75 50 118 165 118c61 0 128 -14 168 -29zM128 -77c43 -11 99 -23 144 -23c33 0 48 13 53 43
c6 34 9 71 9 110c0 81 -13 170 -36 254l106 26c28 -100 43 -196 43 -286c0 -43 -3 -85 -10 -126c-13 -75 -50 -118 -165 -118c-61 0 -128 14 -168 29z" />
    <glyph glyph-name="yenonum.tnum" 
d="M44 231l15 81h70l-61 198h145l64 -234l131 234h161l-129 -198h68l-15 -81h-106l-39 -60h135l-15 -81h-150l-16 -90h-148l16 90h-151l15 81h139l-19 60h-110z" />
    <glyph glyph-name="florinonum.tnum" 
d="M486 399c-22 7 -60 14 -81 14c-40 0 -49 -15 -58 -48l-24 -97h117l-27 -115h-121l-55 -205c-26 -100 -52 -145 -163 -145c-27 0 -80 9 -104 21l27 108c16 -7 42 -12 57 -12c30 0 38 11 45 35l53 198h-79l31 115h79l26 107c27 106 64 155 176 155c44 0 97 -11 127 -24z
" />
    <glyph glyph-name="endashonum.tnum" 
d="M65 220l21 120h374l-21 -120h-374z" />
    <glyph glyph-name="divideonum.tnum" 
d="M197 354v133h130v-133h-130zM57 200v88h410v-88h-410zM197 0v133h130v-133h-130z" />
    <glyph glyph-name="Euroonum.tnum" 
d="M64 282l10 55h58l4 21c20 111 66 162 219 162c51 0 109 -9 151 -22l-26 -115c-38 9 -88 15 -123 15c-57 0 -72 -9 -79 -50l-2 -11h113l-10 -55h-112l-10 -55h114l-10 -55h-114l-2 -11c-8 -43 5 -49 61 -49c37 0 74 4 122 12l6 -113c-36 -12 -104 -21 -149 -21
c-155 0 -204 57 -184 169l2 13h-57l10 55h57l10 55h-59z" />
    <glyph glyph-name="perthousandonum.tnum" horiz-adv-x="1094" 
d="M269 -10l-74 49l304 481l74 -48zM340 396l-8 -45c-12 -68 -39 -120 -162 -120c-103 0 -131 56 -119 124l7 41c13 76 47 124 161 124c106 0 133 -55 121 -124zM242 403c3 20 -5 33 -36 33s-42 -11 -46 -33l-9 -53c-4 -22 3 -35 34 -35s43 12 47 32zM718 155l-8 -45
c-12 -68 -39 -120 -162 -120c-103 0 -131 56 -119 124l7 41c13 76 47 124 161 124c106 0 133 -55 121 -124zM620 162c3 20 -5 33 -36 33s-42 -11 -46 -33l-9 -53c-4 -22 3 -35 34 -35s43 12 47 32zM1048 155l-8 -45c-12 -68 -39 -120 -162 -120c-103 0 -131 56 -119 124
l7 41c13 76 47 124 161 124c106 0 133 -55 121 -124zM950 162c3 20 -5 33 -36 33s-42 -11 -46 -33l-9 -53c-4 -22 3 -35 34 -35s43 12 47 32z" />
    <glyph glyph-name="minussmcp.tnum" 
d="M407 178h-288v120h288v-120z" />
    <glyph glyph-name="multiplysmcp.tnum" 
d="M365 53l-103 103l-103 -103l-82 82l103 103l-103 103l82 82l103 -103l103 103l82 -82l-103 -103l103 -103z" />
    <glyph glyph-name="numbersignsmcp.tnum" 
d="M506 329h-75l-33 -133h74l-18 -78h-74l-28 -118h-88l28 118h-128l-28 -118h-88l28 118h-75l18 78h75l33 133h-74l19 78h74l28 113h88l-28 -113h128l28 113h88l-28 -113h75zM215 329l-33 -133h128l33 133h-128z" />
    <glyph glyph-name="dollarsmcp.tnum" 
d="M147 -105l19 105c-43 6 -88 17 -125 34l33 106c42 -16 102 -29 159 -29c56 0 67 9 73 42c6 34 -2 41 -89 58c-91 18 -121 55 -121 116c0 14 2 31 5 49c17 98 58 137 167 145l20 104h109l-20 -105c36 -4 74 -10 104 -19l-23 -111c-52 12 -105 19 -151 19
c-48 0 -61 -7 -66 -38c-6 -34 -1 -42 83 -58c99 -18 128 -46 128 -104c0 -16 -2 -31 -5 -49c-19 -110 -53 -152 -172 -161l-19 -104h-109z" />
    <glyph glyph-name="percentsmcp.tnum" horiz-adv-x="761" 
d="M261 -10l-72 45l314 495l72 -46zM167 238c-113 0 -129 56 -117 124l9 52c15 85 47 116 158 116c90 0 132 -48 119 -122l-9 -51c-14 -78 -46 -119 -160 -119zM228 351l11 64c4 23 -12 32 -35 32c-25 0 -42 -5 -46 -27l-12 -69c-4 -23 9 -31 36 -31c24 0 42 8 46 31z
M544 -10c-113 0 -129 56 -117 124l9 52c15 85 47 116 158 116c90 0 132 -48 119 -122l-9 -51c-14 -78 -46 -119 -160 -119zM605 103l11 64c4 23 -12 32 -35 32c-25 0 -42 -5 -46 -27l-12 -69c-4 -23 9 -31 36 -31c24 0 42 8 46 31z" />
    <glyph glyph-name="plussmcp.tnum" 
d="M456 188h-136v-138h-115v138h-136v110h136v139h115v-139h136v-110z" />
    <glyph glyph-name="zerosmcp.tnum" 
d="M216 -10c-144 0 -190 67 -190 143c0 9 0 20 3 37l33 187c21 120 81 173 249 173c128 0 189 -65 189 -150c0 -11 -1 -22 -3 -34l-32 -183c-17 -99 -66 -173 -249 -173zM329 186l26 149c1 6 2 14 2 21c0 35 -19 51 -68 51c-58 0 -82 -20 -91 -73l-26 -147
c-2 -11 -3 -19 -3 -26c0 -36 20 -48 68 -48c58 0 83 22 92 73z" />
    <glyph glyph-name="onesmcp.tnum" 
d="M45 0l20 116h137l44 251l-117 -58l-48 106l201 105h132l-72 -404h135l-20 -116h-412z" />
    <glyph glyph-name="twosmcp.tnum" 
d="M21 0l20 115c50 33 61 40 125 83c133 89 154 103 160 138l4 22c1 5 1 9 1 11c0 26 -22 36 -84 36c-39 0 -96 -8 -142 -19l-13 114c58 19 141 30 192 30c123 0 192 -34 191 -123c0 -10 -1 -21 -3 -33l-3 -18c-14 -78 -26 -119 -97 -167c-64 -43 -69 -46 -110 -72h179
l-20 -117h-400z" />
    <glyph glyph-name="threesmcp.tnum" 
d="M206 -10c-49 0 -115 6 -165 27l30 101c46 -13 94 -18 139 -18c68 0 88 13 94 47l3 18c0 1 1 6 1 13c0 21 -13 29 -63 29h-136l19 109h117c55 0 71 6 77 41l4 23c1 6 1 10 1 12c0 22 -17 29 -76 29c-37 0 -88 -5 -129 -13l-7 102c49 13 121 20 165 20
c139 0 190 -42 190 -106c0 -9 -2 -20 -3 -26l-8 -46c-8 -44 -20 -68 -72 -86c41 -14 59 -35 59 -74c0 -10 -2 -21 -4 -34l-6 -32c-18 -99 -77 -136 -230 -136z" />
    <glyph glyph-name="foursmcp.tnum" 
d="M401 117l-20 -117h-130l20 117h-266l20 108l262 295h185l-53 -304h71l-17 -99h-72zM322 402l-159 -186h126z" />
    <glyph glyph-name="fivesmcp.tnum" 
d="M188 -10c-44 0 -107 8 -158 26l26 106c58 -14 107 -18 155 -18c61 0 85 9 91 43l4 23c5 31 -11 37 -60 39c-80 3 -95 3 -165 5l54 306h354l-20 -116h-218l-15 -85c162 -5 213 -24 213 -98c0 -15 -2 -29 -5 -45l-6 -33c-20 -113 -66 -153 -250 -153z" />
    <glyph glyph-name="sixsmcp.tnum" 
d="M224 -10c-154 0 -191 73 -176 157l36 203c26 151 108 180 247 180c51 0 109 -6 170 -23l-26 -106c-61 14 -106 19 -144 19c-75 0 -98 -19 -108 -72l-6 -38c28 6 73 12 103 12c95 0 144 -28 144 -101c0 -13 -1 -24 -3 -34l-9 -53c-17 -92 -67 -144 -228 -144zM315 148
l6 33c4 24 -11 30 -38 30c-29 0 -58 -6 -86 -14l-9 -50c-6 -33 16 -44 56 -44c44 0 65 11 71 45z" />
    <glyph glyph-name="sevensmcp.tnum" 
d="M211 0h-155l292 404h-272l22 116h422l-21 -110z" />
    <glyph glyph-name="eightsmcp.tnum" 
d="M218 -10c-136 0 -204 40 -187 137l7 40c8 48 41 76 98 99c-46 29 -55 63 -48 102l7 41c15 85 76 121 218 121c128 0 190 -53 175 -139l-5 -28c-7 -36 -24 -66 -89 -98c48 -21 76 -56 67 -105l-6 -33c-17 -97 -73 -137 -237 -137zM351 385c5 28 -19 39 -57 39
s-63 -4 -69 -39l-3 -17c-7 -38 16 -47 52 -60c35 11 67 21 73 54zM322 141l2 13c6 33 -22 47 -66 62c-44 -12 -79 -18 -86 -57l-2 -12c-6 -33 10 -50 67 -50c56 0 79 12 85 44z" />
    <glyph glyph-name="ninesmcp.tnum" 
d="M303 530c143 0 191 -70 175 -161l-36 -204c-27 -151 -114 -175 -246 -175c-51 0 -112 8 -169 27l25 103c51 -14 103 -20 144 -20c76 0 98 19 108 72l6 38c-28 -6 -73 -12 -103 -12c-94 0 -144 28 -144 100c0 11 1 22 3 35l9 53c17 92 67 144 228 144zM212 372l-6 -33
c-4 -24 10 -30 38 -30c29 0 58 6 86 14l9 50c6 33 -16 44 -56 44c-48 0 -65 -11 -71 -45z" />
    <glyph glyph-name="lesssmcp.tnum" 
d="M421 -10l-373 217v74l373 216l45 -83l-304 -170l307 -171z" />
    <glyph glyph-name="equalsmcp.tnum" 
d="M440 300h-355v96h355v-96zM440 106h-355v96h355v-96z" />
    <glyph glyph-name="greatersmcp.tnum" 
d="M477 207l-373 -217l-48 83l307 171l-304 170l45 83l373 -216v-74z" />
    <glyph glyph-name="centsmcp.tnum" 
d="M300 11l-20 -116h-115l21 121c-81 15 -115 55 -115 121c0 13 1 27 4 42l31 178c17 98 56 135 166 147l22 121h115l-21 -118c24 -2 62 -10 89 -18l-25 -107c-44 10 -92 16 -128 16c-50 0 -73 -14 -81 -62l-27 -155c-7 -39 5 -56 60 -56c40 0 87 4 131 13l-4 -111
c-35 -8 -65 -12 -103 -16z" />
    <glyph glyph-name="sterlingsmcp.tnum" 
d="M48 207l17 96h72c-4 22 -7 44 -7 64c0 109 58 163 201 163c55 0 119 -12 170 -37l-27 -102c-50 17 -106 26 -141 26c-48 0 -61 -18 -61 -53c0 -18 3 -38 9 -61h168l-23 -96h-143c-10 -35 -25 -66 -62 -98h241l-19 -109h-415l18 103c49 28 78 64 92 104h-90z" />
    <glyph glyph-name="sectionsmcp.tnum" 
d="M396 410c-43 13 -99 23 -144 23c-33 0 -48 -13 -53 -43c-6 -34 -9 -71 -9 -110c0 -81 15 -180 38 -264l-106 -26c-28 100 -45 206 -45 296c0 43 3 85 10 126c13 75 50 118 165 118c61 0 124 -13 164 -28zM130 -77c43 -11 99 -23 144 -23c33 0 48 13 53 43
c6 34 9 71 9 110c0 81 -13 170 -36 254l106 26c28 -100 43 -196 43 -286c0 -43 -3 -85 -10 -126c-13 -75 -43 -118 -165 -118c-61 0 -128 14 -168 29z" />
    <glyph glyph-name="yensmcp.tnum" 
d="M39 233l13 77h71l-64 210h144l64 -239l133 239h158l-133 -210h72l-13 -77h-108l-42 -66h138l-13 -76h-152l-16 -91h-144l16 91h-149l13 76h140l-20 66h-108z" />
    <glyph glyph-name="florinsmcp.tnum" 
d="M476 399c-22 7 -60 14 -81 14c-40 0 -49 -15 -58 -48l-24 -97h117l-27 -115h-121l-55 -205c-26 -100 -52 -145 -163 -145c-27 0 -80 9 -104 21l27 108c16 -7 42 -12 57 -12c30 0 38 11 45 35l53 198h-79l31 115h79l26 107c27 106 64 155 176 155c44 0 97 -11 127 -24z
" />
    <glyph glyph-name="endashsmcp.tnum" 
d="M74 220l21 120h374l-21 -120h-374z" />
    <glyph glyph-name="dividesmcp.tnum" 
d="M200 354v133h130v-133h-130zM60 200v88h410v-88h-410zM200 0v133h130v-133h-130z" />
    <glyph glyph-name="Eurosmcp.tnum" 
d="M54 289l9 52h58l5 26c24 134 99 163 233 163c45 0 105 -9 153 -23l-27 -109c-54 11 -98 16 -138 16c-54 0 -75 -17 -83 -62l-2 -11h132l-9 -52h-132l-11 -62h133l-9 -52h-133l-2 -11c-1 -6 -2 -14 -2 -22c0 -28 16 -39 62 -39c44 0 84 4 138 14l8 -107
c-54 -13 -106 -20 -162 -20c-132 0 -190 47 -190 130c0 12 2 27 4 39l3 16h-57l9 52h57l11 62h-58z" />
    <glyph glyph-name="perthousandsmcp.tnum" horiz-adv-x="1089" 
d="M261 -10l-72 45l314 495l72 -46zM167 238c-113 0 -129 56 -117 124l9 52c15 85 47 116 158 116c90 0 132 -48 119 -122l-9 -51c-14 -78 -46 -119 -160 -119zM228 351l11 64c4 23 -12 32 -35 32c-25 0 -42 -5 -46 -27l-12 -69c-4 -23 9 -31 36 -31c24 0 42 8 46 31z
M544 -10c-113 0 -129 56 -117 124l9 52c15 85 47 116 158 116c90 0 132 -48 119 -122l-9 -51c-14 -78 -46 -119 -160 -119zM605 103l11 64c4 23 -12 32 -35 32c-25 0 -42 -5 -46 -27l-12 -69c-4 -23 9 -31 36 -31c24 0 42 8 46 31zM872 -10c-113 0 -129 56 -117 124l9 52
c15 85 47 116 158 116c90 0 132 -48 119 -122l-9 -51c-14 -78 -46 -119 -160 -119zM933 103l11 64c4 23 -12 32 -35 32c-25 0 -42 -5 -46 -27l-12 -69c-4 -23 9 -31 36 -31c24 0 42 8 46 31z" />
    <glyph glyph-name="minus.smcp" horiz-adv-x="374" 
d="M50 178v120h284v-120h-284z" />
    <glyph glyph-name="multiply.smcp" horiz-adv-x="484" 
d="M345 54l-103 104l-103 -104l-79 80l103 104l-103 104l79 80l103 -104l103 104l79 -80l-103 -104l103 -104z" />
    <glyph glyph-name="exclam.smcp" horiz-adv-x="296" 
d="M175 183h-80l-10 131l36 206h146l-36 -206zM30 0l23 134h146l-23 -134h-146z" />
    <glyph glyph-name="numbersign.smcp" horiz-adv-x="613" 
d="M584 321h-105l-28 -117h104l-21 -86h-104l-28 -118h-91l28 118h-129l-28 -118h-91l28 118h-101l21 86h101l28 117h-100l21 86h100l28 113h91l-28 -113h129l28 113h91l-28 -113h105zM259 321l-28 -117h129l28 117h-129z" />
    <glyph glyph-name="dollar.smcp" horiz-adv-x="492" 
d="M127 -105l19 105c-43 6 -88 17 -125 34l33 106c42 -16 102 -29 159 -29c56 0 67 9 73 42c6 34 -2 41 -89 58c-91 18 -121 55 -121 116c0 14 2 31 5 49c17 98 58 137 167 145l20 104h109l-20 -105c36 -4 74 -10 104 -19l-23 -111c-52 12 -105 19 -151 19
c-48 0 -61 -7 -66 -38c-6 -34 -1 -42 83 -58c99 -18 128 -46 128 -104c0 -16 -2 -31 -5 -49c-19 -110 -53 -152 -172 -161l-19 -104h-109z" />
    <glyph glyph-name="percent.smcp" horiz-adv-x="761" 
d="M261 -10l-72 45l314 495l72 -46zM167 238c-113 0 -129 56 -117 124l9 52c15 85 47 116 158 116c90 0 132 -48 119 -122l-9 -51c-14 -78 -46 -119 -160 -119zM228 351l11 64c4 23 -12 32 -35 32c-25 0 -42 -5 -46 -27l-12 -69c-4 -23 9 -31 36 -31c24 0 42 8 46 31z
M544 -10c-113 0 -129 56 -117 124l9 52c15 85 47 116 158 116c90 0 132 -48 119 -122l-9 -51c-14 -78 -46 -119 -160 -119zM605 103l11 64c4 23 -12 32 -35 32c-25 0 -42 -5 -46 -27l-12 -69c-4 -23 9 -31 36 -31c24 0 42 8 46 31z" />
    <glyph glyph-name="ampersand.smcp" horiz-adv-x="598" 
d="M484 208l-31 -181c-68 -27 -156 -37 -229 -37c-138 0 -182 34 -182 96c0 11 1 22 3 33l10 57c10 58 30 80 84 94c-33 19 -43 44 -43 70c0 8 1 17 2 23l7 40c18 103 73 127 215 127c53 0 118 -9 175 -23l-21 -107c-60 10 -125 15 -175 15c-38 0 -51 -5 -55 -28l-6 -35
c-1 -6 -1 -12 -1 -14c0 -19 10 -26 36 -26h310l-19 -104h-80zM355 208h-106c-34 0 -48 -9 -54 -43l-5 -29c-1 -7 -1 -10 -1 -12c0 -20 7 -30 52 -30c36 0 67 4 96 10z" />
    <glyph glyph-name="plus.smcp" horiz-adv-x="516" 
d="M315 189v-149h-111v149h-146v108h146v150h111v-150h146v-108h-146z" />
    <glyph glyph-name="zero.smcp" horiz-adv-x="537" 
d="M222 -10c-144 0 -190 67 -190 143c0 9 0 20 3 37l33 187c21 120 81 173 249 173c128 0 189 -65 189 -150c0 -11 -1 -22 -3 -34l-32 -183c-17 -99 -66 -173 -249 -173zM335 186l26 149c1 6 2 14 2 21c0 35 -19 51 -68 51c-58 0 -82 -20 -91 -73l-26 -147
c-2 -11 -3 -19 -3 -26c0 -36 20 -48 68 -48c58 0 83 22 92 73z" />
    <glyph glyph-name="one.smcp" horiz-adv-x="378" 
d="M128 0l64 363l-125 -66l-52 104l213 119h132l-92 -520h-140z" />
    <glyph glyph-name="two.smcp" horiz-adv-x="498" 
d="M5 0l20 115c50 33 61 40 125 83c133 89 154 103 160 138l4 22c1 5 1 9 1 11c0 26 -14 36 -84 36c-39 0 -96 -8 -142 -19l-13 114c58 19 141 30 192 30c123 0 191 -36 191 -123c0 -10 -1 -21 -3 -33l-3 -18c-14 -78 -29 -118 -97 -167c-56 -40 -64 -46 -103 -72h172
l-20 -117h-400z" />
    <glyph glyph-name="three.smcp" horiz-adv-x="480" 
d="M174 -10c-49 0 -115 6 -165 27l30 101c46 -13 94 -18 139 -18c68 0 88 13 94 47l3 18c0 1 1 6 1 13c0 21 -13 29 -63 29h-136l19 109h117c55 0 71 6 77 41l4 23c1 6 1 10 1 12c0 22 -17 29 -76 29c-37 0 -88 -5 -129 -13l-7 102c49 13 121 20 165 20
c139 0 190 -42 190 -106c0 -9 -2 -20 -3 -26l-8 -46c-8 -44 -20 -68 -72 -86c41 -14 59 -35 59 -74c0 -10 -2 -21 -4 -34l-6 -32c-18 -99 -77 -136 -230 -136z" />
    <glyph glyph-name="four.smcp" horiz-adv-x="540" 
d="M410 115l-20 -115h-130l20 115h-272l13 110l288 295h172l-53 -304h83l-19 -101h-82zM331 402l-172 -186h139z" />
    <glyph glyph-name="five.smcp" horiz-adv-x="480" 
d="M165 -10c-44 0 -107 8 -158 26l26 106c58 -14 107 -18 155 -18c61 0 85 9 91 43l4 23c5 31 -11 37 -60 39c-80 3 -95 3 -165 5l54 306h354l-20 -116h-218l-15 -85c162 -5 213 -24 213 -98c0 -15 -2 -29 -5 -45l-6 -33c-20 -113 -66 -153 -250 -153z" />
    <glyph glyph-name="six.smcp" horiz-adv-x="498" 
d="M207 -10c-154 0 -191 73 -176 157l36 203c26 151 108 180 247 180c51 0 109 -6 170 -23l-26 -106c-61 14 -106 19 -144 19c-75 0 -98 -19 -108 -72l-6 -38c28 6 73 12 103 12c95 0 144 -28 144 -101c0 -13 -1 -24 -3 -34l-9 -53c-17 -92 -67 -144 -228 -144zM298 148
l6 33c4 24 -11 30 -38 30c-29 0 -58 -6 -86 -14l-9 -50c-6 -33 16 -44 56 -44c44 0 65 11 71 45z" />
    <glyph glyph-name="seven.smcp" horiz-adv-x="445" 
d="M166 0h-155l292 404h-262l22 116h401l-10 -110z" />
    <glyph glyph-name="eight.smcp" horiz-adv-x="516" 
d="M213 -10c-136 0 -204 40 -187 137l7 40c8 48 41 76 98 99c-46 29 -55 63 -48 102l7 41c15 85 76 121 218 121c128 0 190 -53 175 -139l-5 -28c-7 -36 -24 -66 -89 -98c48 -21 76 -56 67 -105l-6 -33c-17 -97 -73 -137 -237 -137zM346 385c5 28 -19 39 -57 39
s-63 -4 -69 -39l-3 -17c-7 -38 16 -47 52 -60c35 11 67 21 73 54zM317 141l2 13c6 33 -22 47 -66 62c-44 -12 -79 -18 -86 -57l-2 -12c-6 -33 10 -50 67 -50c56 0 79 12 85 44z" />
    <glyph glyph-name="nine.smcp" horiz-adv-x="497" 
d="M292 530c143 0 191 -70 175 -161l-36 -204c-27 -151 -114 -175 -246 -175c-51 0 -112 8 -169 27l25 103c51 -14 103 -20 144 -20c76 0 98 19 108 72l6 38c-28 -6 -73 -12 -103 -12c-94 0 -144 28 -144 100c0 11 1 22 3 35l9 53c17 92 67 144 228 144zM201 372l-6 -33
c-4 -24 10 -30 38 -30c29 0 58 6 86 14l9 50c6 33 -16 44 -56 44c-48 0 -65 -11 -71 -45z" />
    <glyph glyph-name="less.smcp" horiz-adv-x="559" 
d="M470 -9l-440 217v72l440 216l41 -82l-354 -170l354 -170z" />
    <glyph glyph-name="equal.smcp" horiz-adv-x="521" 
d="M65 303v93h411v-93h-411zM65 106v93h411v-93h-411z" />
    <glyph glyph-name="greater.smcp" horiz-adv-x="559" 
d="M89 -9l-41 83l354 170l-354 170l41 82l440 -216v-72z" />
    <glyph glyph-name="question.smcp" horiz-adv-x="436" 
d="M218 165l-64 99c115 69 119 71 126 112c1 5 1 10 1 13c0 23 -16 27 -63 27c-37 0 -77 -4 -121 -11l-12 107c46 10 112 18 167 18c116 0 172 -32 172 -111c0 -12 -2 -25 -4 -39c-17 -98 -18 -103 -202 -215zM98 0l23 136h146l-23 -136h-146z" />
    <glyph glyph-name="at.smcp" horiz-adv-x="612" 
d="M344 173c-22 -13 -52 -22 -78 -22c-55 0 -71 36 -63 81l13 73c11 62 38 84 109 84c34 0 75 -9 108 -23l-30 -167c4 -2 10 -3 15 -3c67 0 89 69 89 135c0 72 -53 124 -150 124c-151 0 -234 -85 -234 -247c0 -95 57 -143 187 -143c36 0 77 7 123 19l12 -67
c-45 -17 -108 -27 -153 -27c-171 0 -255 89 -255 214c0 198 101 326 322 326c152 0 231 -88 231 -188c0 -128 -55 -203 -168 -203c-37 0 -66 13 -78 34zM322 332c-24 0 -33 -6 -36 -25l-13 -76c-2 -12 0 -22 19 -22c17 0 39 9 50 17l17 99c-9 4 -23 7 -37 7z" />
    <glyph glyph-name="a.smcp" horiz-adv-x="552" 
d="M350 0l-9 79h-183l-35 -79h-147l253 520h186l73 -520h-138zM308 409l-98 -219h119z" />
    <glyph glyph-name="b.smcp" horiz-adv-x="539" 
d="M303 0h-278l92 520h267c97 0 128 -30 128 -84c0 -11 -1 -21 -3 -34l-9 -51c-6 -34 -25 -62 -76 -79c44 -14 68 -37 68 -76c0 -6 -1 -15 -3 -25l-8 -46c-13 -75 -46 -125 -178 -125zM360 339l9 52c3 17 -5 25 -28 25h-99l-19 -107h97c23 0 36 7 40 30zM344 136l7 40
c0 1 1 5 1 12c0 17 -11 23 -30 23h-116l-19 -107h112c31 0 41 10 45 32z" />
    <glyph glyph-name="c.smcp" horiz-adv-x="479" 
d="M224 -10c-132 0 -190 47 -190 130c0 12 1 22 4 39l37 208c24 134 99 163 233 163c59 0 106 -7 161 -23l-25 -112c-50 10 -107 15 -147 15c-50 0 -73 -13 -81 -59l-32 -180c-1 -8 -2 -14 -2 -20c0 -30 16 -41 62 -41c38 0 86 1 147 12l6 -114c-59 -13 -117 -18 -173 -18z
" />
    <glyph glyph-name="d.smcp" horiz-adv-x="556" 
d="M272 0h-247l92 520h231c133 0 177 -54 177 -134c0 -16 -2 -33 -5 -51l-29 -164c-19 -108 -56 -171 -219 -171zM351 180l28 161c1 6 2 12 2 18c0 28 -17 41 -54 41h-88l-49 -280h85c48 0 69 21 76 60z" />
    <glyph glyph-name="e.smcp" horiz-adv-x="497" 
d="M25 0l92 520h371l-21 -115h-227l-15 -84h211l-21 -114h-210l-16 -92h228l-20 -115h-372z" />
    <glyph glyph-name="f.smcp" horiz-adv-x="478" 
d="M240 405l-19 -107h214l-20 -115h-214l-32 -183h-144l92 520h374l-20 -115h-231z" />
    <glyph glyph-name="g.smcp" horiz-adv-x="546" 
d="M224 -10c-132 0 -189 52 -189 134c0 11 1 23 3 36l37 208c22 124 78 162 228 162c64 0 138 -11 196 -30l-24 -108c-59 11 -127 18 -177 18c-51 0 -73 -12 -80 -53l-33 -187c-1 -6 -2 -13 -2 -22c0 -26 11 -41 62 -41c18 0 45 1 80 6l25 140h130l-41 -237
c-48 -14 -144 -26 -215 -26z" />
    <glyph glyph-name="h.smcp" horiz-adv-x="599" 
d="M340 0l35 199h-171l-35 -199h-144l92 520h144l-35 -197h171l35 197h144l-92 -520h-144z" />
    <glyph glyph-name="i.smcp" horiz-adv-x="294" 
d="M30 0l92 520h144l-92 -520h-144z" />
    <glyph glyph-name="j.smcp" horiz-adv-x="285" 
d="M14 -176l-76 96c83 69 91 74 95 97l89 503h144l-90 -514c-10 -54 -27 -76 -162 -182z" />
    <glyph glyph-name="k.smcp" horiz-adv-x="575" 
d="M352 0l-118 266l185 254h177l-207 -258l123 -262h-160zM25 0l92 520h144l-92 -520h-144z" />
    <glyph glyph-name="l.smcp" horiz-adv-x="467" 
d="M25 0l91 520h144l-69 -396h218l-22 -124h-362z" />
    <glyph glyph-name="m.smcp" horiz-adv-x="718" 
d="M474 0l38 272l-123 -208h-124l-51 208l-56 -272h-142l115 520h146l74 -312l183 312h145l-64 -520h-141z" />
    <glyph glyph-name="n.smcp" horiz-adv-x="625" 
d="M337 0l-119 325l-57 -325h-136l91 520h173l119 -326l58 326h136l-92 -520h-173z" />
    <glyph glyph-name="o.smcp" horiz-adv-x="564" 
d="M236 -10c-143 0 -200 67 -200 145c0 10 1 21 3 31l35 196c21 120 95 168 257 168c138 0 198 -68 198 -147c0 -8 -1 -19 -3 -29l-34 -196c-18 -106 -72 -168 -256 -168zM350 168l32 181c1 5 1 10 1 13c0 31 -23 48 -74 48c-57 0 -86 -16 -93 -57l-32 -180
c-7 -42 10 -63 72 -63c57 0 87 17 94 58z" />
    <glyph glyph-name="p.smcp" horiz-adv-x="531" 
d="M292 134h-100l-23 -134h-144l92 520h243c122 0 168 -39 168 -110c0 -13 -1 -26 -4 -40l-14 -81c-20 -114 -65 -155 -218 -155zM370 296l11 62c1 6 2 11 2 18c0 23 -14 28 -47 28h-96l-27 -155h95c44 0 57 17 62 47z" />
    <glyph glyph-name="q.smcp" horiz-adv-x="564" 
d="M401 -76l-20 -96c-74 12 -175 20 -272 23l16 97c103 0 192 -13 276 -24zM236 -10c-143 0 -200 67 -200 145c0 10 1 21 3 31l35 196c21 120 95 168 257 168c138 0 198 -68 198 -147c0 -8 -1 -19 -3 -29l-34 -196c-18 -106 -72 -168 -256 -168zM350 168l32 181
c1 5 1 10 1 13c0 31 -23 48 -74 48c-57 0 -86 -16 -93 -57l-32 -180c-7 -42 10 -63 72 -63c57 0 87 17 94 58z" />
    <glyph glyph-name="r.smcp" horiz-adv-x="579" 
d="M358 0l-68 140h-97l-24 -140h-144l92 520h251c122 0 166 -40 166 -111c0 -13 0 -24 -4 -46l-12 -68c-10 -59 -28 -91 -86 -125l84 -170h-158zM378 300l10 59c1 6 2 13 2 18c0 19 -12 27 -42 27h-108l-27 -151h107c39 0 53 19 58 47z" />
    <glyph glyph-name="s.smcp" horiz-adv-x="488" 
d="M200 -10c-63 0 -133 16 -187 38l34 109c42 -14 101 -31 165 -31c59 0 69 10 75 43c1 6 2 11 2 16c0 21 -19 31 -93 45c-94 18 -124 58 -124 121c0 15 3 34 6 51c22 122 65 148 219 148c49 0 122 -10 174 -26l-23 -114c-59 16 -113 23 -160 23c-50 0 -62 -6 -68 -39
c-1 -6 -2 -13 -2 -16c0 -22 16 -30 88 -43c101 -18 131 -53 131 -108c0 -15 -2 -31 -5 -49c-24 -130 -60 -168 -232 -168z" />
    <glyph glyph-name="t.smcp" horiz-adv-x="484" 
d="M339 395l-70 -395h-144l69 395h-151l22 125h446l-22 -125h-150z" />
    <glyph glyph-name="u.smcp" horiz-adv-x="578" 
d="M243 -10c-153 0 -198 67 -198 137c0 11 1 22 3 32l64 361h144l-62 -350c-7 -40 12 -55 71 -55c55 0 82 15 90 59l61 346h144l-65 -367c-18 -103 -70 -163 -252 -163z" />
    <glyph glyph-name="v.smcp" horiz-adv-x="552" 
d="M339 0h-209l-67 520h142l43 -410l177 410h154z" />
    <glyph glyph-name="w.smcp" horiz-adv-x="821" 
d="M629 0h-175l-32 329l-154 -329h-163l-46 520h139l24 -348l154 348h153l38 -348l143 348h147z" />
    <glyph glyph-name="x.smcp" horiz-adv-x="568" 
d="M-18 0l221 263l-120 257h153l72 -159l122 159h170l-224 -265l125 -255h-154l-73 149l-124 -149h-168z" />
    <glyph glyph-name="y.smcp" horiz-adv-x="498" 
d="M303 136l-24 -136h-144l26 148l-114 372h144l64 -239l133 239h158z" />
    <glyph glyph-name="z.smcp" horiz-adv-x="523" 
d="M37 0l5 102l281 308h-225l19 110h387l-5 -103l-281 -307h231l-19 -110h-393z" />
    <glyph glyph-name="cent.smcp" horiz-adv-x="446" 
d="M262 11l-20 -116h-115l21 121c-81 15 -115 55 -115 121c0 13 1 27 4 42l31 178c17 98 56 135 166 147l22 121h115l-21 -118c24 -2 62 -10 89 -18l-25 -107c-44 10 -92 16 -128 16c-50 0 -73 -14 -81 -62l-27 -155c-7 -39 5 -56 60 -56c40 0 87 4 131 13l-4 -111
c-35 -8 -65 -12 -103 -16z" />
    <glyph glyph-name="sterling.smcp" horiz-adv-x="531" 
d="M46 207l17 96h72c-4 22 -7 44 -7 64c0 109 58 163 201 163c55 0 119 -12 170 -37l-27 -102c-50 17 -106 26 -141 26c-48 0 -61 -18 -61 -53c0 -18 3 -38 9 -61h168l-23 -96h-143c-10 -35 -25 -66 -62 -98h241l-19 -109h-415l18 103c49 28 78 64 92 104h-90z" />
    <glyph glyph-name="section.smcp" horiz-adv-x="508" 
d="M383 410c-43 13 -99 23 -144 23c-33 0 -48 -13 -53 -43c-6 -34 -9 -71 -9 -110c0 -81 15 -180 38 -264l-106 -26c-28 100 -45 206 -45 296c0 43 3 85 10 126c13 75 50 118 165 118c61 0 124 -13 164 -28zM117 -77c43 -11 99 -23 144 -23c33 0 48 13 53 43
c6 34 9 71 9 110c0 81 -13 170 -36 254l106 26c28 -100 43 -196 43 -286c0 -43 -3 -85 -10 -126c-13 -75 -43 -118 -165 -118c-61 0 -128 14 -168 29z" />
    <glyph glyph-name="paragraph.smcp" horiz-adv-x="535" 
d="M375 -79c-57 -48 -86 -71 -158 -127l-58 74c55 45 82 66 128 105c22 18 23 29 27 53l87 494h106l-91 -516c-6 -36 -12 -58 -41 -83zM50 253c0 155 101 267 264 267l-79 -447c-110 0 -185 75 -185 180z" />
    <glyph glyph-name="germandbls.smcp" horiz-adv-x="976" 
d="M200 -10c-63 0 -133 16 -187 38l34 109c42 -14 101 -31 165 -31c59 0 69 10 75 43c1 6 2 11 2 16c0 21 -19 31 -93 45c-94 18 -124 58 -124 121c0 15 3 34 6 51c22 122 65 148 219 148c49 0 122 -10 174 -26l-23 -114c-59 16 -113 23 -160 23c-50 0 -62 -6 -68 -39
c-1 -6 -2 -13 -2 -16c0 -22 16 -30 88 -43c101 -18 131 -53 131 -108c0 -15 -2 -31 -5 -49c-24 -130 -60 -168 -232 -168zM688 -10c-63 0 -133 16 -187 38l34 109c42 -14 101 -31 165 -31c59 0 69 10 75 43c1 6 2 11 2 16c0 21 -19 31 -93 45c-94 18 -124 58 -124 121
c0 15 3 34 6 51c22 122 65 148 219 148c49 0 122 -10 174 -26l-23 -114c-59 16 -113 23 -160 23c-50 0 -62 -6 -68 -39c-1 -6 -2 -13 -2 -16c0 -22 16 -30 88 -43c101 -18 131 -53 131 -108c0 -15 -2 -31 -5 -49c-24 -130 -60 -168 -232 -168z" />
    <glyph glyph-name="yen.smcp" horiz-adv-x="545" 
d="M51 233l13 77h71l-64 210h144l64 -239l133 239h158l-133 -210h72l-13 -77h-108l-42 -66h138l-13 -76h-152l-16 -91h-144l16 91h-149l13 76h140l-20 66h-108z" />
    <glyph glyph-name="ae.smcp" horiz-adv-x="752" 
d="M349 0l-9 79h-183l-35 -79h-146l253 520h514l-21 -115h-292l12 -84h249l-21 -114h-212l13 -92h201l-20 -115h-303zM307 409l-98 -219h119z" />
    <glyph glyph-name="oslash.smcp" horiz-adv-x="564" 
d="M20 -32l56 69c-28 26 -40 59 -40 96c0 10 1 21 3 31l35 198c21 120 95 168 257 168c51 0 92 -9 123 -25l60 74l34 -27l-59 -73c27 -26 40 -60 40 -96c0 -8 -1 -19 -3 -29l-34 -196c-18 -106 -77 -168 -256 -168c-52 0 -93 9 -123 23l-59 -73zM185 175c0 0 -1 -3 -1 -4
l181 224c-12 9 -31 13 -56 13c-57 0 -86 -16 -93 -57zM351 170l31 176l-181 -223c12 -7 30 -11 56 -11c57 0 87 17 94 58z" />
    <glyph glyph-name="questiondown.smcp" horiz-adv-x="442" 
d="M230 355l64 -99c-115 -69 -119 -71 -126 -112c-1 -5 -1 -10 -1 -13c0 -23 16 -27 63 -27c37 0 77 4 121 11l12 -107c-46 -10 -112 -18 -167 -18c-116 0 -172 32 -172 111c0 12 2 25 4 39c17 98 18 103 202 215zM350 520l-23 -136h-146l23 136h146z" />
    <glyph glyph-name="exclamdown.smcp" horiz-adv-x="297" 
d="M123 337h80l10 -131l-36 -206h-146l36 206zM268 520l-23 -134h-146l23 134h146z" />
    <glyph glyph-name="florin.smcp" horiz-adv-x="465" 
d="M454 399c-22 7 -60 14 -81 14c-40 0 -49 -15 -58 -48l-24 -97h117l-27 -115h-121l-55 -205c-26 -100 -52 -145 -163 -145c-27 0 -80 9 -104 21l27 108c16 -7 42 -12 57 -12c30 0 38 11 45 35l53 198h-79l31 115h79l26 107c27 106 64 155 176 155c44 0 97 -11 127 -24z
" />
    <glyph glyph-name="oe.smcp" horiz-adv-x="802" 
d="M238 0c-143 0 -200 65 -200 143c0 10 1 21 3 31l31 178c21 120 95 168 257 168h464l-21 -115h-227l-15 -84h211l-21 -114h-210l-16 -92h228l-20 -115h-464zM186 178c-7 -42 10 -63 72 -63h92l51 288h-93c-57 0 -86 -16 -93 -57z" />
    <glyph glyph-name="endash.smcp" horiz-adv-x="454" 
d="M34 220l21 120h374l-21 -120h-374z" />
    <glyph glyph-name="divide.smcp" 
d="M195 354v133h130v-133h-130zM55 200v88h410v-88h-410zM195 0v133h130v-133h-130z" />
    <glyph glyph-name="Euro.smcp" horiz-adv-x="486" 
d="M33 289l9 52h58l5 26c24 134 99 163 233 163c45 0 105 -9 153 -23l-27 -109c-54 11 -98 16 -138 16c-54 0 -75 -17 -83 -62l-2 -11h132l-9 -52h-132l-11 -62h133l-9 -52h-133l-2 -11c-1 -6 -2 -14 -2 -22c0 -28 16 -39 62 -39c44 0 84 4 138 14l8 -107
c-54 -13 -106 -20 -162 -20c-132 0 -190 47 -190 130c0 12 2 27 4 39l3 16h-57l9 52h57l11 62h-58z" />
    <glyph glyph-name="fi.smcp" horiz-adv-x="771" 
d="M240 405l-19 -107h214l-20 -115h-214l-32 -183h-144l92 520h374l-20 -115h-231zM507 0l92 520h144l-92 -520h-144z" />
    <glyph glyph-name="fl.smcp" horiz-adv-x="945" 
d="M240 405l-19 -107h214l-20 -115h-214l-32 -183h-144l92 520h374l-20 -115h-231zM503 0l91 520h144l-69 -396h218l-22 -124h-362z" />
    <glyph glyph-name="perthousand.smcp" horiz-adv-x="1089" 
d="M261 -10l-72 45l314 495l72 -46zM167 238c-113 0 -129 56 -117 124l9 52c15 85 47 116 158 116c90 0 132 -48 119 -122l-9 -51c-14 -78 -46 -119 -160 -119zM228 351l11 64c4 23 -12 32 -35 32c-25 0 -42 -5 -46 -27l-12 -69c-4 -23 9 -31 36 -31c24 0 42 8 46 31z
M544 -10c-113 0 -129 56 -117 124l9 52c15 85 47 116 158 116c90 0 132 -48 119 -122l-9 -51c-14 -78 -46 -119 -160 -119zM605 103l11 64c4 23 -12 32 -35 32c-25 0 -42 -5 -46 -27l-12 -69c-4 -23 9 -31 36 -31c24 0 42 8 46 31zM872 -10c-113 0 -129 56 -117 124l9 52
c15 85 47 116 158 116c90 0 132 -48 119 -122l-9 -51c-14 -78 -46 -119 -160 -119zM933 103l11 64c4 23 -12 32 -35 32c-25 0 -42 -5 -46 -27l-12 -69c-4 -23 9 -31 36 -31c24 0 42 8 46 31z" />
    <glyph glyph-name="dotlessi.smcp" horiz-adv-x="294" 
d="M30 0l92 520h144l-92 -520h-144z" />
    <glyph glyph-name="acute.smcp" horiz-adv-x="293" 
d="M171 566l-41 74c53 29 86 49 143 88l45 -82c-48 -34 -91 -57 -147 -80z" />
    <glyph glyph-name="breve.smcp" horiz-adv-x="397" 
d="M239 566c-75 0 -129 52 -128 114l72 24c5 -39 29 -60 68 -60c40 0 59 23 73 64l68 -31c-14 -60 -59 -111 -153 -111z" />
    <glyph glyph-name="caron.smcp" horiz-adv-x="376" 
d="M164 713c39 -19 57 -32 83 -51c25 20 52 37 85 51l39 -66c-55 -31 -92 -54 -142 -90c-25 28 -63 61 -109 96z" />
    <glyph glyph-name="cedilla.smcp" horiz-adv-x="292" 
d="M56 -197c-18 0 -51 7 -71 15l16 52c16 -5 38 -9 57 -9c39 0 54 12 54 31c0 11 -6 18 -21 18c-12 0 -28 0 -54 -2l-16 16l38 96h59l-25 -69c13 2 23 3 33 3c40 0 56 -30 56 -57c0 -62 -39 -94 -126 -94z" />
    <glyph glyph-name="circumflex.smcp" horiz-adv-x="351" 
d="M312 568c-39 19 -57 32 -83 51c-25 -20 -52 -37 -85 -51l-39 66c55 31 92 54 142 90c25 -28 63 -61 109 -96z" />
    <glyph glyph-name="commaaccent.smcp" horiz-adv-x="333" 
d="M196 -197l-86 -106l-45 36l53 78h-42l25 140h121z" />
    <glyph glyph-name="dieresis.smcp" horiz-adv-x="413" 
d="M214 578h-114l19 112h114zM424 578h-114l19 112h114z" />
    <glyph glyph-name="dotaccent.smcp" horiz-adv-x="216" 
d="M95 577l26 150l145 20l-27 -150z" />
    <glyph glyph-name="grave.smcp" horiz-adv-x="297" 
d="M272 631l-53 -66c-61 36 -93 62 -124 94l61 72c34 -35 66 -64 116 -100z" />
    <glyph glyph-name="hungarumlaut.smcp" horiz-adv-x="461" 
d="M163 565l-53 66c47 38 76 63 117 103l59 -73c-44 -40 -81 -67 -123 -96zM353 565l-53 66c47 38 76 63 117 103l59 -73c-44 -40 -81 -67 -123 -96z" />
    <glyph glyph-name="macron.smcp" horiz-adv-x="341" 
d="M95 576l16 92h250l-16 -92h-250z" />
    <glyph glyph-name="ogonek.smcp" horiz-adv-x="282" 
d="M81 -207c-62 0 -101 31 -101 83s41 96 99 124h70c-37 -28 -72 -65 -72 -97c0 -18 13 -30 43 -30c14 0 26 2 38 5l9 -69c-24 -10 -55 -16 -86 -16z" />
    <glyph glyph-name="ring.smcp" horiz-adv-x="279" 
d="M189 558c-46 0 -79 30 -79 72c0 67 39 105 108 105c52 0 81 -33 81 -69c0 -58 -30 -108 -110 -108zM211 683c-25 0 -42 -16 -42 -46c0 -17 8 -27 28 -27c28 0 43 17 43 46c0 17 -11 27 -29 27z" />
    <glyph glyph-name="tilde.smcp" horiz-adv-x="420" 
d="M318 572c-57 0 -71 44 -109 44c-24 0 -44 -27 -58 -45l-51 46c27 51 71 85 115 85c48 0 81 -45 114 -45c23 0 35 14 46 41l60 -30c-23 -54 -52 -96 -117 -96z" />
    <glyph glyph-name="aacute.smcp" horiz-adv-x="552" 
d="M350 0l-9 79h-183l-35 -79h-147l253 520h186l73 -520h-138zM308 409l-98 -219h119zM314 566l-41 74c53 29 86 49 143 88l45 -82c-48 -34 -91 -57 -147 -80z" />
    <glyph glyph-name="aeacute.smcp" horiz-adv-x="752" 
d="M349 0l-9 79h-183l-35 -79h-146l253 520h514l-21 -115h-292l12 -84h249l-21 -114h-212l13 -92h201l-20 -115h-303zM307 409l-98 -219h119zM363 566l-41 74c53 29 86 49 143 88l45 -82c-48 -34 -91 -57 -147 -80z" />
    <glyph glyph-name="abreve.smcp" horiz-adv-x="552" 
d="M350 0l-9 79h-183l-35 -79h-147l253 520h186l73 -520h-138zM308 409l-98 -219h119zM327 566c-75 0 -129 52 -128 114l72 24c5 -39 29 -60 68 -60c40 0 59 23 73 64l68 -31c-14 -60 -59 -111 -153 -111z" />
    <glyph glyph-name="acircumflex.smcp" horiz-adv-x="552" 
d="M350 0l-9 79h-183l-35 -79h-147l253 520h186l73 -520h-138zM308 409l-98 -219h119zM419 568c-39 19 -57 32 -83 51c-25 -20 -52 -37 -85 -51l-39 66c55 31 92 54 142 90c25 -28 63 -61 109 -96z" />
    <glyph glyph-name="adieresis.smcp" horiz-adv-x="552" 
d="M350 0l-9 79h-183l-35 -79h-147l253 520h186l73 -520h-138zM308 409l-98 -219h119zM284 578h-114l19 112h114zM494 578h-114l19 112h114z" />
    <glyph glyph-name="agrave.smcp" horiz-adv-x="552" 
d="M350 0l-9 79h-183l-35 -79h-147l253 520h186l73 -520h-138zM308 409l-98 -219h119zM390 631l-53 -66c-61 36 -93 62 -124 94l61 72c34 -35 66 -64 116 -100z" />
    <glyph glyph-name="amacron.smcp" horiz-adv-x="552" 
d="M350 0l-9 79h-183l-35 -79h-147l253 520h186l73 -520h-138zM308 409l-98 -219h119zM205 576l16 92h250l-16 -92h-250z" />
    <glyph glyph-name="aogonek.smcp" horiz-adv-x="552" 
d="M350 0l-9 79h-183l-35 -79h-147l253 520h186l73 -520h-29c-37 -28 -72 -61 -72 -97c0 -18 13 -30 43 -30c14 0 26 2 38 5l9 -69c-24 -10 -55 -16 -86 -16c-62 0 -101 31 -101 83c0 57 51 99 119 124h-59zM308 409l-98 -219h119z" />
    <glyph glyph-name="aring.smcp" horiz-adv-x="552" 
d="M350 0l-9 79h-183l-35 -79h-147l253 520h186l73 -520h-138zM308 409l-98 -219h119zM332 558c-46 0 -79 30 -79 72c0 67 39 105 108 105c52 0 81 -33 81 -69c0 -58 -30 -108 -110 -108zM354 683c-25 0 -42 -16 -42 -46c0 -17 8 -27 28 -27c28 0 43 17 43 46
c0 17 -11 27 -29 27z" />
    <glyph glyph-name="aringacute.smcp" horiz-adv-x="552" 
d="M350 0l-9 79h-183l-35 -79h-147l253 520h186l73 -520h-138zM308 409l-98 -219h119zM328 543c-46 0 -79 30 -79 72c0 67 39 105 108 105c52 0 81 -33 81 -69c0 -58 -30 -108 -110 -108zM350 668c-25 0 -42 -16 -42 -46c0 -17 8 -27 28 -27c28 0 43 17 43 46
c0 17 -11 27 -29 27zM361 739l-38 68c41 22 67 37 124 76l42 -76c-50 -32 -85 -48 -128 -68z" />
    <glyph glyph-name="atilde.smcp" horiz-adv-x="552" 
d="M350 0l-9 79h-183l-35 -79h-147l253 520h186l73 -520h-138zM308 409l-98 -219h119zM384 572c-57 0 -71 44 -109 44c-24 0 -44 -27 -58 -45l-51 46c27 51 71 85 115 85c48 0 81 -45 114 -45c23 0 35 14 46 41l60 -30c-23 -54 -52 -96 -117 -96z" />
    <glyph glyph-name="cacute.smcp" horiz-adv-x="479" 
d="M224 -10c-132 0 -190 47 -190 130c0 12 1 22 4 39l37 208c24 134 99 163 233 163c59 0 106 -7 161 -23l-25 -112c-50 10 -107 15 -147 15c-50 0 -73 -13 -81 -59l-32 -180c-1 -8 -2 -14 -2 -20c0 -30 16 -41 62 -41c38 0 86 1 147 12l6 -114c-59 -13 -117 -18 -173 -18z
M270 566l-41 74c53 29 86 49 143 88l45 -82c-48 -34 -91 -57 -147 -80z" />
    <glyph glyph-name="ccircumflex.smcp" horiz-adv-x="479" 
d="M224 -10c-132 0 -190 47 -190 130c0 12 1 22 4 39l37 208c24 134 99 163 233 163c59 0 106 -7 161 -23l-25 -112c-50 10 -107 15 -147 15c-50 0 -73 -13 -81 -59l-32 -180c-1 -8 -2 -14 -2 -20c0 -30 16 -41 62 -41c38 0 86 1 147 12l6 -114c-59 -13 -117 -18 -173 -18z
M393 568c-39 19 -57 32 -83 51c-25 -20 -52 -37 -85 -51l-39 66c55 31 92 54 142 90c25 -28 63 -61 109 -96z" />
    <glyph glyph-name="ccaron.smcp" horiz-adv-x="479" 
d="M224 -10c-132 0 -190 47 -190 130c0 12 1 22 4 39l37 208c24 134 99 163 233 163c59 0 106 -7 161 -23l-25 -112c-50 10 -107 15 -147 15c-50 0 -73 -13 -81 -59l-32 -180c-1 -8 -2 -14 -2 -20c0 -30 16 -41 62 -41c38 0 86 1 147 12l6 -114c-59 -13 -117 -18 -173 -18z
M249 713c39 -19 57 -32 83 -51c25 20 52 37 85 51l39 -66c-55 -31 -92 -54 -142 -90c-25 28 -63 61 -109 96z" />
    <glyph glyph-name="cdotaccent.smcp" horiz-adv-x="479" 
d="M224 -10c-132 0 -190 47 -190 130c0 12 1 22 4 39l37 208c24 134 99 163 233 163c59 0 106 -7 161 -23l-25 -112c-50 10 -107 15 -147 15c-50 0 -73 -13 -81 -59l-32 -180c-1 -8 -2 -14 -2 -20c0 -30 16 -41 62 -41c38 0 86 1 147 12l6 -114c-59 -13 -117 -18 -173 -18z
M228 577l26 150l145 20l-27 -150z" />
    <glyph glyph-name="ccedilla.smcp" horiz-adv-x="479" 
d="M203 -197c-18 0 -51 7 -71 15l16 52c16 -5 38 -9 57 -9c39 0 54 12 54 31c0 11 -6 18 -21 18c-12 0 -28 0 -54 -2l-16 16l26 67c-111 7 -160 52 -160 129c0 12 1 22 4 39l37 208c24 134 99 163 233 163c59 0 106 -7 161 -23l-25 -112c-50 10 -107 15 -147 15
c-50 0 -73 -13 -81 -59l-32 -180c-1 -8 -2 -14 -2 -20c0 -30 16 -41 62 -41c38 0 86 1 147 12l6 -114c-49 -10 -96 -16 -143 -17l-14 -40c13 2 23 3 33 3c40 0 56 -30 56 -57c0 -62 -39 -94 -126 -94z" />
    <glyph glyph-name="dcaron.smcp" horiz-adv-x="556" 
d="M272 0h-247l92 520h231c133 0 177 -54 177 -134c0 -16 -2 -33 -5 -51l-29 -164c-19 -108 -56 -171 -219 -171zM351 180l28 161c1 6 2 12 2 18c0 28 -17 41 -54 41h-88l-49 -280h85c48 0 69 21 76 60zM254 713c39 -19 57 -32 83 -51c25 20 52 37 85 51l39 -66
c-55 -31 -92 -54 -142 -90c-25 28 -63 61 -109 96z" />
    <glyph glyph-name="dcroat.smcp" horiz-adv-x="572" 
d="M32 213l17 95h46l38 212h231c133 0 177 -54 177 -134c0 -16 -2 -33 -5 -51l-29 -164c-19 -108 -56 -171 -219 -171h-247l37 213h-46zM367 182l28 157c1 6 2 12 2 18c0 28 -17 41 -54 41h-88l-16 -90h72l-17 -95h-72l-16 -91h85c48 0 69 21 76 60z" />
    <glyph glyph-name="eacute.smcp" horiz-adv-x="497" 
d="M25 0l92 520h371l-21 -115h-227l-15 -84h211l-21 -114h-210l-16 -92h228l-20 -115h-372zM272 566l-41 74c53 29 86 49 143 88l45 -82c-48 -34 -91 -57 -147 -80z" />
    <glyph glyph-name="ebreve.smcp" horiz-adv-x="497" 
d="M25 0l92 520h371l-21 -115h-227l-15 -84h211l-21 -114h-210l-16 -92h228l-20 -115h-372zM308 566c-75 0 -129 52 -128 114l72 24c5 -39 29 -60 68 -60c40 0 59 23 73 64l68 -31c-14 -60 -59 -111 -153 -111z" />
    <glyph glyph-name="ecaron.smcp" horiz-adv-x="497" 
d="M25 0l92 520h371l-21 -115h-227l-15 -84h211l-21 -114h-210l-16 -92h228l-20 -115h-372zM247 713c39 -19 57 -32 83 -51c25 20 52 37 85 51l39 -66c-55 -31 -92 -54 -142 -90c-25 28 -63 61 -109 96z" />
    <glyph glyph-name="ecircumflex.smcp" horiz-adv-x="497" 
d="M25 0l92 520h371l-21 -115h-227l-15 -84h211l-21 -114h-210l-16 -92h228l-20 -115h-372zM400 568c-39 19 -57 32 -83 51c-25 -20 -52 -37 -85 -51l-39 66c55 31 92 54 142 90c25 -28 63 -61 109 -96z" />
    <glyph glyph-name="edieresis.smcp" horiz-adv-x="497" 
d="M25 0l92 520h371l-21 -115h-227l-15 -84h211l-21 -114h-210l-16 -92h228l-20 -115h-372zM267 578h-114l19 112h114zM477 578h-114l19 112h114z" />
    <glyph glyph-name="edotaccent.smcp" horiz-adv-x="497" 
d="M25 0l92 520h371l-21 -115h-227l-15 -84h211l-21 -114h-210l-16 -92h228l-20 -115h-372zM240 577l26 150l145 20l-27 -150z" />
    <glyph glyph-name="egrave.smcp" horiz-adv-x="497" 
d="M25 0l92 520h371l-21 -115h-227l-15 -84h211l-21 -114h-210l-16 -92h228l-20 -115h-372zM382 631l-53 -66c-61 36 -93 62 -124 94l61 72c34 -35 66 -64 116 -100z" />
    <glyph glyph-name="emacron.smcp" horiz-adv-x="497" 
d="M25 0l92 520h371l-21 -115h-227l-15 -84h211l-21 -114h-210l-16 -92h228l-20 -115h-372zM179 576l16 92h250l-16 -92h-250z" />
    <glyph glyph-name="eng.smcp" horiz-adv-x="625" 
d="M337 0l-119 325l-57 -325h-136l91 520h173l119 -326l58 326h136l-94 -531c-14 -80 -46 -108 -216 -196l-46 90c103 56 118 70 123 101l2 16h-34z" />
    <glyph glyph-name="eogonek.smcp" horiz-adv-x="497" 
d="M25 0l92 520h371l-21 -115h-227l-15 -84h211l-21 -114h-210l-16 -92h228l-20 -115h-37c-37 -28 -72 -65 -72 -97c0 -18 13 -30 43 -30c14 0 26 2 38 5l9 -69c-24 -10 -55 -16 -86 -16c-62 0 -101 31 -101 83c0 55 47 96 105 124h-271z" />
    <glyph glyph-name="eth.smcp" horiz-adv-x="572" 
d="M32 213l17 95h46l38 212h231c133 0 177 -54 177 -134c0 -16 -2 -33 -5 -51l-29 -164c-19 -108 -56 -171 -219 -171h-247l37 213h-46zM367 182l28 157c1 6 2 12 2 18c0 28 -17 41 -54 41h-88l-16 -90h72l-17 -95h-72l-16 -91h85c48 0 69 21 76 60z" />
    <glyph glyph-name="gbreve.smcp" horiz-adv-x="546" 
d="M224 -10c-132 0 -189 52 -189 134c0 11 1 23 3 36l37 208c22 124 78 162 228 162c64 0 138 -11 196 -30l-24 -108c-59 11 -127 18 -177 18c-51 0 -73 -12 -80 -53l-33 -187c-1 -6 -2 -13 -2 -22c0 -26 11 -41 62 -41c18 0 45 1 80 6l25 140h130l-41 -237
c-48 -14 -144 -26 -215 -26zM324 566c-75 0 -129 52 -128 114l72 24c5 -39 29 -60 68 -60c40 0 59 23 73 64l68 -31c-14 -60 -59 -111 -153 -111z" />
    <glyph glyph-name="gcircumflex.smcp" horiz-adv-x="546" 
d="M224 -10c-132 0 -189 52 -189 134c0 11 1 23 3 36l37 208c22 124 78 162 228 162c64 0 138 -11 196 -30l-24 -108c-59 11 -127 18 -177 18c-51 0 -73 -12 -80 -53l-33 -187c-1 -6 -2 -13 -2 -22c0 -26 11 -41 62 -41c18 0 45 1 80 6l25 140h130l-41 -237
c-48 -14 -144 -26 -215 -26zM409 568c-39 19 -57 32 -83 51c-25 -20 -52 -37 -85 -51l-39 66c55 31 92 54 142 90c25 -28 63 -61 109 -96z" />
    <glyph glyph-name="gcommaaccent.smcp" horiz-adv-x="546" 
d="M224 -10c-132 0 -189 52 -189 134c0 11 1 23 3 36l37 208c22 124 78 162 228 162c64 0 138 -11 196 -30l-24 -108c-59 11 -127 18 -177 18c-51 0 -73 -12 -80 -53l-33 -187c-1 -6 -2 -13 -2 -22c0 -26 11 -41 62 -41c18 0 45 1 80 6l25 140h130l-41 -237
c-48 -14 -144 -26 -215 -26zM273 -197l-86 -106l-45 36l53 78h-42l25 140h121z" />
    <glyph glyph-name="gdotaccent.smcp" horiz-adv-x="546" 
d="M224 -10c-132 0 -189 52 -189 134c0 11 1 23 3 36l37 208c22 124 78 162 228 162c64 0 138 -11 196 -30l-24 -108c-59 11 -127 18 -177 18c-51 0 -73 -12 -80 -53l-33 -187c-1 -6 -2 -13 -2 -22c0 -26 11 -41 62 -41c18 0 45 1 80 6l25 140h130l-41 -237
c-48 -14 -144 -26 -215 -26zM247 577l26 150l145 20l-27 -150z" />
    <glyph glyph-name="hbar.smcp" horiz-adv-x="609" 
d="M46 389l11 61h52l13 70h144l-13 -70h171l13 70h144l-13 -70h55l-11 -61h-54l-69 -389h-144l35 199h-171l-35 -199h-144l69 389h-53zM231 323h171l11 66h-171z" />
    <glyph glyph-name="hcircumflex.smcp" horiz-adv-x="599" 
d="M340 0l35 199h-171l-35 -199h-144l92 520h144l-35 -197h171l35 197h144l-92 -520h-144zM439 568c-39 19 -57 32 -83 51c-25 -20 -52 -37 -85 -51l-39 66c55 31 92 54 142 90c25 -28 63 -61 109 -96z" />
    <glyph glyph-name="iacute.smcp" horiz-adv-x="294" 
d="M30 0l92 520h144l-92 -520h-144zM190 566l-41 74c53 29 86 49 143 88l45 -82c-48 -34 -91 -57 -147 -80z" />
    <glyph glyph-name="ibreve.smcp" horiz-adv-x="294" 
d="M204 566c-75 0 -129 52 -128 114l72 24c5 -39 29 -60 68 -60c40 0 59 23 73 64l68 -31c-14 -60 -59 -111 -153 -111zM30 0l92 520h144l-92 -520h-144z" />
    <glyph glyph-name="icircumflex.smcp" horiz-adv-x="294" 
d="M30 0l92 520h144l-92 -520h-144zM292 568c-39 19 -57 32 -83 51c-25 -20 -52 -37 -85 -51l-39 66c55 31 92 54 142 90c25 -28 63 -61 109 -96z" />
    <glyph glyph-name="idieresis.smcp" horiz-adv-x="294" 
d="M30 0l92 520h144l-92 -520h-144zM159 578h-114l19 112h114zM369 578h-114l19 112h114z" />
    <glyph glyph-name="idotaccent.smcp" horiz-adv-x="294" 
d="M30 0l92 520h144l-92 -520h-144zM133 577l26 150l145 20l-27 -150z" />
    <glyph glyph-name="igrave.smcp" horiz-adv-x="294" 
d="M30 0l92 520h144l-92 -520h-144zM266 631l-53 -66c-61 36 -93 62 -124 94l61 72c34 -35 66 -64 116 -100z" />
    <glyph glyph-name="imacron.smcp" horiz-adv-x="294" 
d="M79 576l16 92h250l-16 -92h-250zM30 0l92 520h144l-92 -520h-144z" />
    <glyph glyph-name="iogonek.smcp" horiz-adv-x="294" 
d="M30 0l91 520h144l-91 -520c-48 -28 -100 -61 -100 -99c0 -18 11 -28 40 -28c8 0 20 1 31 4l9 -69c-24 -10 -45 -15 -76 -15c-62 0 -101 31 -101 83c0 53 57 98 130 124h-77z" />
    <glyph glyph-name="itilde.smcp" horiz-adv-x="294" 
d="M262 572c-57 0 -71 44 -109 44c-24 0 -44 -27 -58 -45l-51 46c27 51 71 85 115 85c48 0 81 -45 114 -45c23 0 35 14 46 41l60 -30c-23 -54 -52 -96 -117 -96zM30 0l92 520h144l-92 -520h-144z" />
    <glyph glyph-name="ij.smcp" horiz-adv-x="579" 
d="M30 0l92 520h144l-92 -520h-144zM308 -176l-76 96c83 69 91 74 95 97l89 503h144l-90 -514c-10 -54 -27 -76 -162 -182z" />
    <glyph glyph-name="jcircumflex.smcp" horiz-adv-x="285" 
d="M14 -176l-76 96c83 69 91 74 95 97l89 503h144l-90 -514c-10 -54 -27 -76 -162 -182zM290 568c-39 19 -57 32 -83 51c-25 -20 -52 -37 -85 -51l-39 66c55 31 92 54 142 90c25 -28 63 -61 109 -96z" />
    <glyph glyph-name="kcommaaccent.smcp" horiz-adv-x="575" 
d="M352 0l-118 266l185 254h177l-207 -258l123 -262h-160zM25 0l92 520h144l-92 -520h-144zM285 -197l-86 -106l-45 36l53 78h-42l25 140h121z" />
    <glyph glyph-name="lacute.smcp" horiz-adv-x="467" 
d="M25 0l91 520h144l-69 -396h218l-22 -124h-362zM192 566l-41 74c53 29 86 49 143 88l45 -82c-48 -34 -91 -57 -147 -80z" />
    <glyph glyph-name="lcaron.smcp" horiz-adv-x="467" 
d="M25 0l91 520h144l-69 -396h218l-22 -124h-362zM442 411l-78 -94l-34 29l51 72h-48l18 102h110z" />
    <glyph glyph-name="lcommaaccent.smcp" horiz-adv-x="467" 
d="M25 0l91 520h144l-69 -396h218l-22 -124h-362zM236 -197l-86 -106l-45 36l53 78h-42l25 140h121z" />
    <glyph glyph-name="ldot.smcp" horiz-adv-x="467" 
d="M397 215h-129l26 143h129zM25 0l91 520h144l-69 -396h218l-22 -124h-362z" />
    <glyph glyph-name="lslash.smcp" horiz-adv-x="485" 
d="M17 161l-24 80l102 38l42 241h144l-32 -182l124 47l27 -79l-168 -64l-20 -118h218l-22 -124h-362l32 184z" />
    <glyph glyph-name="nacute.smcp" horiz-adv-x="625" 
d="M337 0l-119 325l-57 -325h-136l91 520h173l119 -326l58 326h136l-92 -520h-173zM337 566l-41 74c53 29 86 49 143 88l45 -82c-48 -34 -91 -57 -147 -80z" />
    <glyph glyph-name="ncaron.smcp" horiz-adv-x="625" 
d="M337 0l-119 325l-57 -325h-136l91 520h173l119 -326l58 326h136l-92 -520h-173zM296 713c39 -19 57 -32 83 -51c25 20 52 37 85 51l39 -66c-55 -31 -92 -54 -142 -90c-25 28 -63 61 -109 96z" />
    <glyph glyph-name="ncommaaccent.smcp" horiz-adv-x="625" 
d="M337 0l-119 325l-57 -325h-136l91 520h173l119 -326l58 326h136l-92 -520h-173zM297 -197l-86 -106l-45 36l53 78h-42l25 140h121z" />
    <glyph glyph-name="ntilde.smcp" horiz-adv-x="625" 
d="M337 0l-119 325l-57 -325h-136l91 520h173l119 -326l58 326h136l-92 -520h-173zM428 572c-57 0 -71 44 -109 44c-24 0 -44 -27 -58 -45l-51 46c27 51 71 85 115 85c48 0 81 -45 114 -45c23 0 35 14 46 41l60 -30c-23 -54 -52 -96 -117 -96z" />
    <glyph glyph-name="oacute.smcp" horiz-adv-x="564" 
d="M236 -10c-143 0 -200 67 -200 145c0 10 1 21 3 31l35 196c21 120 95 168 257 168c138 0 198 -68 198 -147c0 -8 -1 -19 -3 -29l-34 -196c-18 -106 -72 -168 -256 -168zM350 168l32 181c1 5 1 10 1 13c0 31 -23 48 -74 48c-57 0 -86 -16 -93 -57l-32 -180
c-7 -42 10 -63 72 -63c57 0 87 17 94 58zM307 566l-41 74c53 29 86 49 143 88l45 -82c-48 -34 -91 -57 -147 -80z" />
    <glyph glyph-name="obreve.smcp" horiz-adv-x="564" 
d="M236 -10c-143 0 -200 67 -200 145c0 10 1 21 3 31l35 196c21 120 95 168 257 168c138 0 198 -68 198 -147c0 -8 -1 -19 -3 -29l-34 -196c-18 -106 -72 -168 -256 -168zM350 168l32 181c1 5 1 10 1 13c0 31 -23 48 -74 48c-57 0 -86 -16 -93 -57l-32 -180
c-7 -42 10 -63 72 -63c57 0 87 17 94 58zM349 566c-75 0 -129 52 -128 114l72 24c5 -39 29 -60 68 -60c40 0 59 23 73 64l68 -31c-14 -60 -59 -111 -153 -111z" />
    <glyph glyph-name="ocircumflex.smcp" horiz-adv-x="564" 
d="M236 -10c-143 0 -200 67 -200 145c0 10 1 21 3 31l35 196c21 120 95 168 257 168c138 0 198 -68 198 -147c0 -8 -1 -19 -3 -29l-34 -196c-18 -106 -72 -168 -256 -168zM350 168l32 181c1 5 1 10 1 13c0 31 -23 48 -74 48c-57 0 -86 -16 -93 -57l-32 -180
c-7 -42 10 -63 72 -63c57 0 87 17 94 58zM426 568c-39 19 -57 32 -83 51c-25 -20 -52 -37 -85 -51l-39 66c55 31 92 54 142 90c25 -28 63 -61 109 -96z" />
    <glyph glyph-name="odieresis.smcp" horiz-adv-x="564" 
d="M236 -10c-143 0 -200 67 -200 145c0 10 1 21 3 31l35 196c21 120 95 168 257 168c138 0 198 -68 198 -147c0 -8 -1 -19 -3 -29l-34 -196c-18 -106 -72 -168 -256 -168zM350 168l32 181c1 5 1 10 1 13c0 31 -23 48 -74 48c-57 0 -86 -16 -93 -57l-32 -180
c-7 -42 10 -63 72 -63c57 0 87 17 94 58zM292 578h-114l19 112h114zM502 578h-114l19 112h114z" />
    <glyph glyph-name="ograve.smcp" horiz-adv-x="564" 
d="M236 -10c-143 0 -200 67 -200 145c0 10 1 21 3 31l35 196c21 120 95 168 257 168c138 0 198 -68 198 -147c0 -8 -1 -19 -3 -29l-34 -196c-18 -106 -72 -168 -256 -168zM350 168l32 181c1 5 1 10 1 13c0 31 -23 48 -74 48c-57 0 -86 -16 -93 -57l-32 -180
c-7 -42 10 -63 72 -63c57 0 87 17 94 58zM393 631l-53 -66c-61 36 -93 62 -124 94l61 72c34 -35 66 -64 116 -100z" />
    <glyph glyph-name="ohungarumlaut.smcp" horiz-adv-x="564" 
d="M236 -10c-143 0 -200 67 -200 145c0 10 1 21 3 31l35 196c21 120 95 168 257 168c138 0 198 -68 198 -147c0 -8 -1 -19 -3 -29l-34 -196c-18 -106 -72 -168 -256 -168zM350 168l32 181c1 5 1 10 1 13c0 31 -23 48 -74 48c-57 0 -86 -16 -93 -57l-32 -180
c-7 -42 10 -63 72 -63c57 0 87 17 94 58zM244 565l-53 66c47 38 76 63 117 103l59 -73c-44 -40 -81 -67 -123 -96zM434 565l-53 66c47 38 76 63 117 103l59 -73c-44 -40 -81 -67 -123 -96z" />
    <glyph glyph-name="omacron.smcp" horiz-adv-x="564" 
d="M236 -10c-143 0 -200 67 -200 145c0 10 1 21 3 31l35 196c21 120 95 168 257 168c138 0 198 -68 198 -147c0 -8 -1 -19 -3 -29l-34 -196c-18 -106 -72 -168 -256 -168zM350 168l32 181c1 5 1 10 1 13c0 31 -23 48 -74 48c-57 0 -86 -16 -93 -57l-32 -180
c-7 -42 10 -63 72 -63c57 0 87 17 94 58zM211 576l16 92h250l-16 -92h-250z" />
    <glyph glyph-name="oslashacute.smcp" horiz-adv-x="564" 
d="M20 -32l56 69c-28 26 -40 59 -40 96c0 10 1 21 3 31l35 198c21 120 95 168 257 168c51 0 92 -9 123 -25l60 74l34 -27l-59 -73c27 -26 40 -60 40 -96c0 -8 -1 -19 -3 -29l-34 -196c-18 -106 -77 -168 -256 -168c-52 0 -93 9 -123 23l-59 -73zM185 175c0 0 -1 -3 -1 -4
l181 224c-12 9 -31 13 -56 13c-57 0 -86 -16 -93 -57zM351 170l31 176l-181 -223c12 -7 30 -11 56 -11c57 0 87 17 94 58zM291 566l-41 74c53 29 86 49 143 88l45 -82c-48 -34 -91 -57 -147 -80z" />
    <glyph glyph-name="otilde.smcp" horiz-adv-x="564" 
d="M236 -10c-143 0 -200 67 -200 145c0 10 1 21 3 31l35 196c21 120 95 168 257 168c138 0 198 -68 198 -147c0 -8 -1 -19 -3 -29l-34 -196c-18 -106 -72 -168 -256 -168zM350 168l32 181c1 5 1 10 1 13c0 31 -23 48 -74 48c-57 0 -86 -16 -93 -57l-32 -180
c-7 -42 10 -63 72 -63c57 0 87 17 94 58zM390 572c-57 0 -71 44 -109 44c-24 0 -44 -27 -58 -45l-51 46c27 51 71 85 115 85c48 0 81 -45 114 -45c23 0 35 14 46 41l60 -30c-23 -54 -52 -96 -117 -96z" />
    <glyph glyph-name="racute.smcp" horiz-adv-x="579" 
d="M358 0l-68 140h-97l-24 -140h-144l92 520h251c122 0 166 -40 166 -111c0 -13 0 -24 -4 -46l-12 -68c-10 -59 -28 -91 -86 -125l84 -170h-158zM378 300l10 59c1 6 2 13 2 18c0 19 -12 27 -42 27h-108l-27 -151h107c39 0 53 19 58 47zM306 566l-41 74c53 29 86 49 143 88
l45 -82c-48 -34 -91 -57 -147 -80z" />
    <glyph glyph-name="rcaron.smcp" horiz-adv-x="579" 
d="M358 0l-68 140h-97l-24 -140h-144l92 520h251c122 0 166 -40 166 -111c0 -13 0 -24 -4 -46l-12 -68c-10 -59 -28 -91 -86 -125l84 -170h-158zM378 300l10 59c1 6 2 13 2 18c0 19 -12 27 -42 27h-108l-27 -151h107c39 0 53 19 58 47zM264 713c39 -19 57 -32 83 -51
c25 20 52 37 85 51l39 -66c-55 -31 -92 -54 -142 -90c-25 28 -63 61 -109 96z" />
    <glyph glyph-name="rcommaaccent.smcp" horiz-adv-x="579" 
d="M358 0l-68 140h-97l-24 -140h-144l92 520h251c122 0 166 -40 166 -111c0 -13 0 -24 -4 -46l-12 -68c-10 -59 -28 -91 -86 -125l84 -170h-158zM378 300l10 59c1 6 2 13 2 18c0 19 -12 27 -42 27h-108l-27 -151h107c39 0 53 19 58 47zM285 -197l-86 -106l-45 36l53 78h-42
l25 140h121z" />
    <glyph glyph-name="sacute.smcp" horiz-adv-x="488" 
d="M200 -10c-63 0 -133 16 -187 38l34 109c42 -14 101 -31 165 -31c59 0 69 10 75 43c1 6 2 11 2 16c0 21 -19 31 -93 45c-94 18 -124 58 -124 121c0 15 3 34 6 51c22 122 65 148 219 148c49 0 122 -10 174 -26l-23 -114c-59 16 -113 23 -160 23c-50 0 -62 -6 -68 -39
c-1 -6 -2 -13 -2 -16c0 -22 16 -30 88 -43c101 -18 131 -53 131 -108c0 -15 -2 -31 -5 -49c-24 -130 -60 -168 -232 -168zM276 566l-41 74c53 29 86 49 143 88l45 -82c-48 -34 -91 -57 -147 -80z" />
    <glyph glyph-name="scaron.smcp" horiz-adv-x="488" 
d="M200 -10c-63 0 -133 16 -187 38l34 109c42 -14 101 -31 165 -31c59 0 69 10 75 43c1 6 2 11 2 16c0 21 -19 31 -93 45c-94 18 -124 58 -124 121c0 15 3 34 6 51c22 122 65 148 219 148c49 0 122 -10 174 -26l-23 -114c-59 16 -113 23 -160 23c-50 0 -62 -6 -68 -39
c-1 -6 -2 -13 -2 -16c0 -22 16 -30 88 -43c101 -18 131 -53 131 -108c0 -15 -2 -31 -5 -49c-24 -130 -60 -168 -232 -168zM237 713c39 -19 57 -32 83 -51c25 20 52 37 85 51l39 -66c-55 -31 -92 -54 -142 -90c-25 28 -63 61 -109 96z" />
    <glyph glyph-name="scedilla.smcp" horiz-adv-x="488" 
d="M171 -197c-18 0 -51 7 -71 15l16 52c16 -5 38 -9 57 -9c39 0 54 12 54 31c0 11 -6 18 -21 18c-12 0 -28 0 -54 -2l-16 16l27 68c-53 5 -107 18 -150 36l34 109c42 -14 101 -31 165 -31c59 0 69 10 75 43c1 6 2 11 2 16c0 21 -19 31 -93 45c-94 18 -124 58 -124 121
c0 15 3 34 6 51c22 122 65 148 219 148c49 0 122 -10 174 -26l-23 -114c-59 16 -113 23 -160 23c-50 0 -62 -6 -68 -39c-1 -6 -2 -13 -2 -16c0 -22 16 -30 88 -43c101 -18 131 -53 131 -108c0 -15 -2 -31 -5 -49c-23 -124 -57 -164 -210 -168l-14 -39c13 2 23 3 33 3
c40 0 56 -30 56 -57c0 -62 -39 -94 -126 -94z" />
    <glyph glyph-name="scircumflex.smcp" horiz-adv-x="488" 
d="M200 -10c-63 0 -133 16 -187 38l34 109c42 -14 101 -31 165 -31c59 0 69 10 75 43c1 6 2 11 2 16c0 21 -19 31 -93 45c-94 18 -124 58 -124 121c0 15 3 34 6 51c22 122 65 148 219 148c49 0 122 -10 174 -26l-23 -114c-59 16 -113 23 -160 23c-50 0 -62 -6 -68 -39
c-1 -6 -2 -13 -2 -16c0 -22 16 -30 88 -43c101 -18 131 -53 131 -108c0 -15 -2 -31 -5 -49c-24 -130 -60 -168 -232 -168zM390 568c-39 19 -57 32 -83 51c-25 -20 -52 -37 -85 -51l-39 66c55 31 92 54 142 90c25 -28 63 -61 109 -96z" />
    <glyph glyph-name="scommaaccent.smcp" horiz-adv-x="488" 
d="M200 -10c-63 0 -133 16 -187 38l34 109c42 -14 101 -31 165 -31c59 0 69 10 75 43c1 6 2 11 2 16c0 21 -19 31 -93 45c-94 18 -124 58 -124 121c0 15 3 34 6 51c22 122 65 148 219 148c49 0 122 -10 174 -26l-23 -114c-59 16 -113 23 -160 23c-50 0 -62 -6 -68 -39
c-1 -6 -2 -13 -2 -16c0 -22 16 -30 88 -43c101 -18 131 -53 131 -108c0 -15 -2 -31 -5 -49c-24 -130 -60 -168 -232 -168zM226 -197l-86 -106l-45 36l53 78h-42l25 140h121z" />
    <glyph glyph-name="tbar.smcp" horiz-adv-x="484" 
d="M44 199l11 66h116l23 130h-151l22 125h446l-22 -125h-150l-23 -130h114l-11 -66h-115l-35 -199h-144l35 199h-116z" />
    <glyph glyph-name="tcaron.smcp" horiz-adv-x="484" 
d="M339 395l-70 -395h-144l69 395h-151l22 125h446l-22 -125h-150zM224 713c39 -19 57 -32 83 -51c25 20 52 37 85 51l39 -66c-55 -31 -92 -54 -142 -90c-25 28 -63 61 -109 96z" />
    <glyph glyph-name="tcommaaccent.smcp" horiz-adv-x="484" 
d="M339 395l-70 -395h-144l69 395h-151l22 125h446l-22 -125h-150zM222 -197l-86 -106l-45 36l53 78h-42l25 140h121z" />
    <glyph glyph-name="thorn.smcp" horiz-adv-x="524" 
d="M281 69h-100l-12 -69h-144l92 520h144l-12 -65h100c122 0 168 -39 168 -110c0 -16 -2 -27 -4 -40l-14 -81c-18 -107 -65 -155 -218 -155zM359 231l12 67c1 5 1 9 1 13c0 23 -14 28 -47 28h-96l-27 -155h95c43 0 57 18 62 47z" />
    <glyph glyph-name="uacute.smcp" horiz-adv-x="578" 
d="M243 -10c-153 0 -198 67 -198 137c0 11 1 22 3 32l64 361h144l-62 -350c-7 -40 12 -55 71 -55c55 0 82 15 90 59l61 346h144l-65 -367c-18 -103 -70 -163 -252 -163zM324 566l-41 74c53 29 86 49 143 88l45 -82c-48 -34 -91 -57 -147 -80z" />
    <glyph glyph-name="ubreve.smcp" horiz-adv-x="578" 
d="M243 -10c-153 0 -198 67 -198 137c0 11 1 22 3 32l64 361h144l-62 -350c-7 -40 12 -55 71 -55c55 0 82 15 90 59l61 346h144l-65 -367c-18 -103 -70 -163 -252 -163zM345 566c-75 0 -129 52 -128 114l72 24c5 -39 29 -60 68 -60c40 0 59 23 73 64l68 -31
c-14 -60 -59 -111 -153 -111z" />
    <glyph glyph-name="ucircumflex.smcp" horiz-adv-x="578" 
d="M243 -10c-153 0 -198 67 -198 137c0 11 1 22 3 32l64 361h144l-62 -350c-7 -40 12 -55 71 -55c55 0 82 15 90 59l61 346h144l-65 -367c-18 -103 -70 -163 -252 -163zM431 568c-39 19 -57 32 -83 51c-25 -20 -52 -37 -85 -51l-39 66c55 31 92 54 142 90
c25 -28 63 -61 109 -96z" />
    <glyph glyph-name="udieresis.smcp" horiz-adv-x="578" 
d="M243 -10c-153 0 -198 67 -198 137c0 11 1 22 3 32l64 361h144l-62 -350c-7 -40 12 -55 71 -55c55 0 82 15 90 59l61 346h144l-65 -367c-18 -103 -70 -163 -252 -163zM298 578h-114l19 112h114zM508 578h-114l19 112h114z" />
    <glyph glyph-name="ugrave.smcp" horiz-adv-x="578" 
d="M243 -10c-153 0 -198 67 -198 137c0 11 1 22 3 32l64 361h144l-62 -350c-7 -40 12 -55 71 -55c55 0 82 15 90 59l61 346h144l-65 -367c-18 -103 -70 -163 -252 -163zM404 631l-53 -66c-61 36 -93 62 -124 94l61 72c34 -35 66 -64 116 -100z" />
    <glyph glyph-name="uhungarumlaut.smcp" horiz-adv-x="583" 
d="M243 -10c-153 0 -198 67 -198 137c0 11 1 22 3 32l64 361h144l-62 -350c-7 -40 12 -55 71 -55c55 0 82 15 90 59l61 346h144l-65 -367c-18 -103 -70 -163 -252 -163zM242 565l-53 66c47 38 76 63 117 103l59 -73c-44 -40 -81 -67 -123 -96zM432 565l-53 66
c47 38 76 63 117 103l59 -73c-44 -40 -81 -67 -123 -96z" />
    <glyph glyph-name="umacron.smcp" horiz-adv-x="578" 
d="M243 -10c-153 0 -198 67 -198 137c0 11 1 22 3 32l64 361h144l-62 -350c-7 -40 12 -55 71 -55c55 0 82 15 90 59l61 346h144l-65 -367c-18 -103 -70 -163 -252 -163zM222 576l16 92h250l-16 -92h-250z" />
    <glyph glyph-name="uogonek.smcp" horiz-adv-x="578" 
d="M243 -10c-153 0 -198 67 -198 137c0 11 1 22 3 32l64 361h144l-62 -350c-7 -40 12 -55 71 -55c55 0 82 15 90 59l61 346h144l-65 -367c-13 -74 -43 -125 -126 -149c-66 -23 -111 -57 -111 -101c0 -18 13 -30 43 -30c14 0 26 2 38 5l9 -69c-24 -10 -55 -16 -86 -16
c-62 0 -101 31 -101 83c0 46 37 88 88 114h-6z" />
    <glyph glyph-name="uring.smcp" horiz-adv-x="578" 
d="M243 -10c-153 0 -198 67 -198 137c0 11 1 22 3 32l64 361h144l-62 -350c-7 -40 12 -55 71 -55c55 0 82 15 90 59l61 346h144l-65 -367c-18 -103 -70 -163 -252 -163zM338 558c-46 0 -79 30 -79 72c0 67 39 105 108 105c52 0 81 -33 81 -69c0 -58 -30 -108 -110 -108z
M360 683c-25 0 -42 -16 -42 -46c0 -17 8 -27 28 -27c28 0 43 17 43 46c0 17 -11 27 -29 27z" />
    <glyph glyph-name="utilde.smcp" horiz-adv-x="578" 
d="M243 -10c-153 0 -198 67 -198 137c0 11 1 22 3 32l64 361h144l-62 -350c-7 -40 12 -55 71 -55c55 0 82 15 90 59l61 346h144l-65 -367c-18 -103 -70 -163 -252 -163zM407 572c-57 0 -71 44 -109 44c-24 0 -44 -27 -58 -45l-51 46c27 51 71 85 115 85c48 0 81 -45 114 -45
c23 0 35 14 46 41l60 -30c-23 -54 -52 -96 -117 -96z" />
    <glyph glyph-name="wacute.smcp" horiz-adv-x="821" 
d="M629 0h-175l-32 329l-154 -329h-163l-46 520h139l24 -348l154 348h153l38 -348l143 348h147zM454 566l-41 74c53 29 86 49 143 88l45 -82c-48 -34 -91 -57 -147 -80z" />
    <glyph glyph-name="wcircumflex.smcp" horiz-adv-x="821" 
d="M629 0h-175l-32 329l-154 -329h-163l-46 520h139l24 -348l154 348h153l38 -348l143 348h147zM550 568c-39 19 -57 32 -83 51c-25 -20 -52 -37 -85 -51l-39 66c55 31 92 54 142 90c25 -28 63 -61 109 -96z" />
    <glyph glyph-name="wdieresis.smcp" horiz-adv-x="821" 
d="M629 0h-175l-32 329l-154 -329h-163l-46 520h139l24 -348l154 348h153l38 -348l143 348h147zM418 578h-114l19 112h114zM628 578h-114l19 112h114z" />
    <glyph glyph-name="wgrave.smcp" horiz-adv-x="821" 
d="M629 0h-175l-32 329l-154 -329h-163l-46 520h139l24 -348l154 348h153l38 -348l143 348h147zM517 631l-53 -66c-61 36 -93 62 -124 94l61 72c34 -35 66 -64 116 -100z" />
    <glyph glyph-name="yacute.smcp" horiz-adv-x="498" 
d="M303 136l-24 -136h-144l26 148l-114 372h144l64 -239l133 239h158zM273 566l-41 74c53 29 86 49 143 88l45 -82c-48 -34 -91 -57 -147 -80z" />
    <glyph glyph-name="ycircumflex.smcp" horiz-adv-x="498" 
d="M303 136l-24 -136h-144l26 148l-114 372h144l64 -239l133 239h158zM390 568c-39 19 -57 32 -83 51c-25 -20 -52 -37 -85 -51l-39 66c55 31 92 54 142 90c25 -28 63 -61 109 -96z" />
    <glyph glyph-name="ydieresis.smcp" horiz-adv-x="498" 
d="M303 136l-24 -136h-144l26 148l-114 372h144l64 -239l133 239h158zM258 578h-114l19 112h114zM468 578h-114l19 112h114z" />
    <glyph glyph-name="ygrave.smcp" horiz-adv-x="498" 
d="M303 136l-24 -136h-144l26 148l-114 372h144l64 -239l133 239h158zM357 631l-53 -66c-61 36 -93 62 -124 94l61 72c34 -35 66 -64 116 -100z" />
    <glyph glyph-name="zacute.smcp" horiz-adv-x="523" 
d="M37 0l5 102l281 308h-225l19 110h387l-5 -103l-281 -307h231l-19 -110h-393zM287 566l-41 74c53 29 86 49 143 88l45 -82c-48 -34 -91 -57 -147 -80z" />
    <glyph glyph-name="zcaron.smcp" horiz-adv-x="523" 
d="M37 0l5 102l281 308h-225l19 110h387l-5 -103l-281 -307h231l-19 -110h-393zM250 713c39 -19 57 -32 83 -51c25 20 52 37 85 51l39 -66c-55 -31 -92 -54 -142 -90c-25 28 -63 61 -109 96z" />
    <glyph glyph-name="zdotaccent.smcp" horiz-adv-x="523" 
d="M37 0l5 102l281 308h-225l19 110h387l-5 -103l-281 -307h231l-19 -110h-393zM253 577l26 150l145 20l-27 -150z" />
    </font>
</defs>
</svg>
