<?xml version="1.0" standalone="no"?>
<!DOCTYPE svg PUBLIC "-//W3C//DTD SVG 1.1//EN" "http://www.w3.org/Graphics/SVG/1.1/DTD/svg11.dtd" >
<svg xmlns="http://www.w3.org/2000/svg" xmlns:xlink="http://www.w3.org/1999/xlink" version="1.1">
<metadata>
Created by FontForge 20190801 at Wed Feb 22 10:42:31 2012
 By Jimmy Wärting
Copyright (c) 2004 by Process Type Foundry. All rights reserved.
</metadata>
<defs>
<font id="Klavika-Bold" horiz-adv-x="525" >
  <font-face 
    font-family="Klavika Bold"
    font-weight="700"
    font-stretch="normal"
    units-per-em="1000"
    panose-1="2 11 8 6 4 0 0 2 0 4"
    ascent="750"
    descent="-250"
    x-height="487"
    cap-height="666"
    bbox="-26 -303 1245 1055"
    underline-thickness="50"
    underline-position="-100"
    stemh="125"
    stemv="144"
    unicode-range="U+0020-FB04"
  />
<missing-glyph horiz-adv-x="616" 
d="M75 0v666h466v-666h-466zM492 616h-340l340 -527v527zM124 576v-527h339z" />
    <glyph glyph-name="fi" unicode="fi" horiz-adv-x="647" 
d="M582 0h-144v372h-200v-372h-144v372h-74v115h74v63c0 100 47 156 165 156c41 0 72 -5 100 -13l-18 -113c-20 4 -37 6 -54 6c-46 0 -49 -20 -49 -52v-47h344v-487zM582 548h-144v153h144v-153z" />
    <glyph glyph-name="fl" unicode="fl" horiz-adv-x="643" 
d="M578 0h-144v686l144 20v-706zM363 693l-18 -113c-20 4 -41 6 -58 6c-46 0 -49 -20 -49 -52v-57h109l-10 -118h-99v-359h-144v359h-74v118h74v73c0 100 47 156 165 156c41 0 70 -4 104 -13z" />
    <glyph glyph-name="f_f" unicode="ff" horiz-adv-x="738" 
d="M738 692l-18 -113c-20 4 -47 7 -64 7c-46 0 -49 -20 -49 -52v-47h115l-10 -115h-105v-372h-144v372h-225v-372h-144v372h-74v115h74v63c0 100 47 156 165 156c41 0 76 -5 105 -13l-18 -113c-20 4 -42 6 -59 6c-46 0 -49 -20 -49 -52v-47h225v63c0 100 47 156 165 156
c41 0 71 -6 110 -14z" />
    <glyph glyph-name="f_f_i" unicode="ffi" horiz-adv-x="1016" 
d="M951 0h-144v372h-200v-372h-144v372h-225v-372h-144v372h-74v115h74v63c0 100 47 156 165 156c41 0 76 -5 105 -13l-18 -113c-20 4 -42 6 -59 6c-46 0 -49 -20 -49 -52v-47h225v63c0 100 47 156 165 156c41 0 72 -5 100 -13l-18 -113c-20 4 -37 6 -54 6
c-46 0 -49 -20 -49 -52v-47h344v-487zM951 548h-144v153h144v-153z" />
    <glyph glyph-name="f_j" unicode="fj" horiz-adv-x="644" 
d="M452 -207l-87 94c49 46 75 62 75 109v376h-202v-372h-144v372h-74v115h74v63c0 100 47 156 165 156c41 0 72 -5 100 -13l-18 -113c-20 4 -37 6 -54 6c-46 0 -49 -20 -49 -52v-47h346v-510c0 -58 -43 -110 -132 -184zM584 548h-144v153h144v-153z" />
    <glyph glyph-name="f_f_j" unicode="ffj" horiz-adv-x="1013" 
d="M821 -207l-87 94c49 46 75 62 75 109v376h-202v-372h-144v372h-225v-372h-144v372h-74v115h74v63c0 100 47 156 165 156c41 0 76 -5 105 -13l-18 -113c-20 4 -42 6 -59 6c-46 0 -49 -20 -49 -52v-47h225v63c0 100 47 156 165 156c41 0 72 -5 100 -13l-18 -113
c-20 4 -37 6 -54 6c-46 0 -49 -20 -49 -52v-47h346v-510c0 -58 -43 -110 -132 -184zM953 548h-144v153h144v-153z" />
    <glyph glyph-name="f_f_l" unicode="ffl" horiz-adv-x="1012" 
d="M947 0h-144v686l144 20v-706zM738 692l-18 -113c-20 4 -47 7 -64 7c-46 0 -49 -20 -49 -52v-47h115l-10 -115h-105v-372h-144v372h-225v-372h-144v372h-74v115h74v63c0 100 47 156 165 156c41 0 76 -5 105 -13l-18 -113c-20 4 -42 6 -59 6c-46 0 -49 -20 -49 -52v-47h225
v63c0 100 47 156 165 156c41 0 71 -6 110 -14z" />
    <glyph glyph-name=".notdef" horiz-adv-x="616" 
d="M75 0v666h466v-666h-466zM492 616h-340l340 -527v527zM124 576v-527h339z" />
    <glyph glyph-name="space" unicode=" " horiz-adv-x="210" 
 />
    <glyph glyph-name="exclam" unicode="!" horiz-adv-x="284" 
d="M184 231h-84l-30 174v281h144v-281zM214 0h-144v166h144v-166z" />
    <glyph glyph-name="quotedbl" unicode="&#x22;" horiz-adv-x="379" 
d="M50 438v248h99v-248h-99zM230 438v248h99v-248h-99z" />
    <glyph glyph-name="numbersign" unicode="#" horiz-adv-x="678" 
d="M392 0l8 157h-142l-8 -157h-103l8 157h-120l5 96h119l7 144h-122l5 96h122l8 153h103l-8 -153h142l8 153h103l-8 -153h114l-5 -96h-114l-7 -144h117l-5 -96h-116l-8 -157h-103zM269 397l-7 -144h142l7 144h-142z" />
    <glyph glyph-name="dollar" unicode="$" horiz-adv-x="502" 
d="M191 -121v113c-50 4 -98 14 -146 32l26 117c55 -16 106 -27 159 -27c69 0 83 16 83 72c0 55 -5 65 -95 83c-146 29 -169 71 -169 201c0 114 40 173 168 184v115h115v-116c38 -3 77 -8 113 -17l-15 -123c-45 10 -105 17 -165 17c-62 0 -72 -11 -72 -63c0 -56 4 -57 98 -81
c162 -41 166 -80 166 -199c0 -114 -26 -177 -151 -193v-115h-115z" />
    <glyph glyph-name="percent" unicode="%" horiz-adv-x="872" 
d="M356 457c0 -83 -34 -145 -160 -145s-161 62 -161 145v74c0 83 35 145 161 145s160 -62 160 -145v-74zM245 539c0 30 -12 41 -49 41s-50 -11 -50 -41v-90c0 -30 13 -41 50 -41s49 11 49 41v90zM253 26l268 650l88 -35l-268 -651zM832 135c0 -83 -34 -145 -160 -145
s-161 62 -161 145v74c0 83 35 145 161 145s160 -62 160 -145v-74zM721 217c0 30 -12 41 -49 41s-50 -11 -50 -41v-90c0 -30 13 -41 50 -41s49 11 49 41v90z" />
    <glyph glyph-name="ampersand" unicode="&#x26;" horiz-adv-x="646" 
d="M616 392v-121h-97v-245c-78 -25 -168 -36 -247 -36c-154 0 -212 72 -212 166v54c0 63 19 109 77 134c-51 27 -66 76 -66 123v42c0 97 55 167 212 167c83 0 162 -11 217 -24l-18 -116c-59 12 -137 19 -199 19c-47 0 -68 -17 -68 -53v-49c0 -35 13 -61 58 -61h343zM204 210
v-37c0 -43 29 -65 73 -65c41 0 72 3 106 11v152h-100c-47 0 -79 -19 -79 -61z" />
    <glyph glyph-name="quotesingle" unicode="'" horiz-adv-x="199" 
d="M50 438v248h99v-248h-99z" />
    <glyph glyph-name="parenleft" unicode="(" horiz-adv-x="326" 
d="M316 -94l-106 -60c-89 110 -155 261 -155 458s66 348 155 458l106 -60c-72 -119 -117 -230 -117 -398s45 -279 117 -398z" />
    <glyph glyph-name="parenright" unicode=")" horiz-adv-x="326" 
d="M116 -154l-106 60c72 119 117 230 117 398s-45 279 -117 398l106 60c89 -110 155 -261 155 -458s-66 -348 -155 -458z" />
    <glyph glyph-name="asterisk" unicode="*" horiz-adv-x="467" 
d="M100 370l70 109h-130v67h132l-72 113l56 37l77 -120l77 120l56 -37l-73 -113h134v-67h-131l70 -109l-57 -36l-76 118l-76 -118z" />
    <glyph glyph-name="plus" unicode="+" horiz-adv-x="517" 
d="M462 188h-146v-148h-115v148h-146v110h146v149h115v-149h146v-110z" />
    <glyph glyph-name="comma" unicode="," horiz-adv-x="273" 
d="M208 -10l-88 -139l-65 37l57 112h-48v166h144v-176z" />
    <glyph glyph-name="hyphen" unicode="-" horiz-adv-x="338" 
d="M298 220h-258v120h258v-120z" />
    <glyph glyph-name="period" unicode="." horiz-adv-x="274" 
d="M209 0h-144v166h144v-166z" />
    <glyph glyph-name="slash" unicode="/" horiz-adv-x="462" 
d="M422 676l-249 -793h-128l249 793h128z" />
    <glyph glyph-name="zero" unicode="0" horiz-adv-x="552" 
d="M497 479v-312c0 -100 -52 -177 -221 -177s-221 77 -221 177v312c0 100 52 177 221 177s221 -77 221 -177zM199 459v-272c0 -50 14 -71 77 -71s77 21 77 71v272c0 50 -14 71 -77 71s-77 -21 -77 -71z" />
    <glyph glyph-name="one" unicode="1" horiz-adv-x="389" 
d="M319 0h-144v479l-113 -61l-62 119l189 109h130v-646z" />
    <glyph glyph-name="two" unicode="2" horiz-adv-x="503" 
d="M355 250c-48 -58 -78 -93 -107 -124h205v-126h-404v123c72 74 85 86 145 154c98 112 109 118 109 186v18c0 35 -23 47 -79 47c-48 0 -122 -8 -165 -19l-19 121c62 16 133 26 191 26c154 0 216 -48 216 -157v-26c0 -95 -1 -113 -92 -223z" />
    <glyph glyph-name="three" unicode="3" horiz-adv-x="487" 
d="M88 385h111c64 0 82 18 82 62v41c0 42 -18 51 -81 51c-44 0 -88 -5 -138 -14l-15 113c57 12 107 18 166 18c167 0 212 -50 212 -150v-47c0 -59 -20 -104 -67 -133c56 -25 79 -60 79 -123v-51c0 -98 -46 -162 -228 -162c-61 0 -112 5 -164 22l15 111c49 -9 86 -13 144 -13
c70 0 89 14 89 53v46c0 37 -23 53 -73 53h-132v123z" />
    <glyph glyph-name="four" unicode="4" horiz-adv-x="562" 
d="M532 137h-81v-137h-142v137h-294v125l247 384h189v-392h81v-117zM309 254v249l-153 -249h153z" />
    <glyph glyph-name="five" unicode="5" horiz-adv-x="498" 
d="M309 203c0 45 -12 57 -76 60c-72 3 -105 4 -159 5v378h365v-125h-221v-136c34 -1 52 -2 90 -4c115 -7 145 -63 145 -142v-71c-1 -114 -43 -178 -225 -178c-45 0 -123 8 -178 25l21 116c50 -11 108 -16 156 -16c68 0 82 19 82 61v27z" />
    <glyph glyph-name="six" unicode="6" horiz-adv-x="518" 
d="M261 -10c-173 0 -211 88 -211 193v244c0 181 123 229 307 229c29 0 66 -3 98 -8l-10 -118c-21 3 -53 5 -68 5c-134 0 -183 -24 -183 -107v-49c36 11 69 15 110 15c112 0 169 -48 169 -168v-43c0 -100 -39 -193 -212 -193zM261 114c52 0 68 19 68 62v44
c0 41 -23 50 -49 50c-33 0 -62 -7 -86 -18v-76c0 -46 15 -62 67 -62z" />
    <glyph glyph-name="seven" unicode="7" horiz-adv-x="457" 
d="M437 524l-215 -524h-148l213 519h-267v127h417v-122z" />
    <glyph glyph-name="eight" unicode="8" horiz-adv-x="534" 
d="M50 211c0 48 19 83 84 118c-52 34 -68 67 -68 112v56c0 101 52 159 201 159s201 -58 201 -159v-56c0 -48 -16 -79 -68 -112c65 -35 84 -69 84 -118v-51c0 -122 -58 -170 -217 -170s-217 48 -217 170v51zM189 162c0 -42 18 -54 78 -54s78 16 78 54v33c0 33 -4 45 -80 74
c-76 -29 -76 -41 -76 -74v-33zM205 443c0 -30 5 -40 64 -62c59 22 60 32 60 62v48c0 32 -11 48 -62 48s-62 -16 -62 -48v-48z" />
    <glyph glyph-name="nine" unicode="9" horiz-adv-x="513" 
d="M252 656c173 0 211 -88 211 -193v-244c0 -181 -123 -229 -307 -229c-33 0 -73 4 -98 8l8 118c19 -2 45 -5 70 -5c130 0 183 24 183 107v49c-36 -11 -69 -15 -110 -15c-112 0 -169 48 -169 168v43c0 100 39 193 212 193zM252 532c-52 0 -68 -19 -68 -62v-44
c0 -41 23 -50 49 -50c33 0 62 7 86 18v76c0 46 -15 62 -67 62z" />
    <glyph glyph-name="colon" unicode=":" horiz-adv-x="274" 
d="M209 0h-144v166h144v-166zM209 291h-144v166h144v-166z" />
    <glyph glyph-name="semicolon" unicode=";" horiz-adv-x="273" 
d="M208 291h-144v166h144v-166zM208 -10l-88 -139l-65 37l57 112h-48v166h144v-176z" />
    <glyph glyph-name="less" unicode="&#x3c;" horiz-adv-x="566" 
d="M473 -10l-443 217v74l443 216l43 -85l-352 -168l352 -168z" />
    <glyph glyph-name="equal" unicode="=" 
d="M470 300h-415v96h415v-96zM470 106h-415v96h415v-96z" />
    <glyph glyph-name="greater" unicode="&#x3e;" horiz-adv-x="566" 
d="M536 207l-443 -217l-43 86l352 168l-352 168l43 85l443 -216v-74z" />
    <glyph glyph-name="question" unicode="?" horiz-adv-x="485" 
d="M296 0h-144v166h144v-166zM243 228l-81 110c128 95 134 108 134 160c0 45 -19 70 -94 70c-45 0 -97 -7 -147 -16l-20 124c69 14 121 20 183 20c179 0 222 -72 222 -190c0 -122 -10 -141 -197 -278z" />
    <glyph glyph-name="at" unicode="@" horiz-adv-x="722" 
d="M536 100l26 -77c-47 -22 -113 -33 -165 -33c-216 0 -357 144 -357 343c0 194 128 343 333 343c197 0 309 -128 309 -274c0 -112 -58 -221 -190 -221c-47 0 -87 22 -100 56c-24 -16 -68 -27 -100 -27c-48 0 -71 29 -71 75c0 10 1 21 3 33l15 73c12 69 53 108 130 108
c51 0 93 -13 138 -33l-42 -198c6 -5 18 -9 34 -9c64 0 93 68 93 141c0 100 -68 193 -219 193c-145 0 -240 -109 -240 -260c0 -162 114 -257 261 -257c51 0 95 9 142 24zM394 309l25 106c-12 5 -41 10 -58 10c-23 0 -33 -14 -37 -33l-16 -71c-4 -20 3 -33 26 -33
c17 0 47 13 60 21z" />
    <glyph glyph-name="A" unicode="A" horiz-adv-x="627" 
d="M413 666l204 -666h-156l-36 130h-223l-36 -130h-156l203 666h200zM313 534l-77 -279h153z" />
    <glyph glyph-name="B" unicode="B" horiz-adv-x="572" 
d="M542 159c0 -94 -60 -159 -193 -159h-284v666h263c139 0 190 -56 190 -146v-68c0 -48 -21 -82 -74 -105c55 -13 98 -61 98 -123v-65zM368 440v58c0 29 -18 47 -60 47h-93v-152h93c40 0 60 20 60 47zM392 179v41c0 37 -23 56 -63 56h-114v-155h93c47 0 84 10 84 58z" />
    <glyph glyph-name="C" unicode="C" horiz-adv-x="521" 
d="M200 448v-230c0 -58 19 -92 93 -92c48 0 114 6 172 16l21 -131c-66 -14 -126 -21 -193 -21c-168 0 -243 83 -243 204v278c0 121 75 204 243 204c67 0 127 -7 193 -21l-21 -131c-58 10 -124 16 -172 16c-74 0 -93 -34 -93 -92z" />
    <glyph glyph-name="D" unicode="D" horiz-adv-x="598" 
d="M548 173c0 -89 -61 -173 -225 -173h-258v666h258c164 0 225 -83 225 -173v-320zM398 214v238c0 52 -18 81 -93 81h-90v-400h90c75 0 93 29 93 81z" />
    <glyph glyph-name="E" unicode="E" horiz-adv-x="534" 
d="M484 0h-419v666h419v-133h-269v-122h248v-133h-248v-145h269v-133z" />
    <glyph glyph-name="F" unicode="F" horiz-adv-x="518" 
d="M215 0h-150v666h423v-133h-273v-142h252v-133h-252v-258z" />
    <glyph glyph-name="G" unicode="G" horiz-adv-x="584" 
d="M524 22c-73 -21 -153 -32 -230 -32c-162 0 -244 83 -244 204v278c0 123 82 204 244 204c77 0 156 -10 213 -21l-18 -131c-58 9 -147 16 -195 16c-75 0 -94 -39 -94 -91v-229c0 -52 19 -95 94 -95c30 0 50 1 89 6v204h141v-313z" />
    <glyph glyph-name="H" unicode="H" horiz-adv-x="645" 
d="M580 0h-150v268h-215v-268h-150v666h150v-265h215v265h150v-666z" />
    <glyph glyph-name="I" unicode="I" horiz-adv-x="290" 
d="M220 0h-150v666h150v-666z" />
    <glyph glyph-name="J" unicode="J" horiz-adv-x="275" 
d="M73 -211l-89 106c73 59 81 70 81 105v666h150v-689c0 -63 -53 -119 -142 -188z" />
    <glyph glyph-name="K" unicode="K" horiz-adv-x="617" 
d="M65 0v666h150v-666h-150zM428 0l-194 340l180 326h169l-187 -326l201 -340h-169z" />
    <glyph glyph-name="L" unicode="L" horiz-adv-x="499" 
d="M479 0h-414v666h150v-533h264v-133z" />
    <glyph glyph-name="M" unicode="M" horiz-adv-x="786" 
d="M326 86l-116 284l-10 -370h-145l28 666h150l160 -424l160 424h150l28 -666h-145l-10 370l-116 -284h-134z" />
    <glyph glyph-name="N" unicode="N" horiz-adv-x="676" 
d="M426 0l-218 438v-438h-143v666h184l219 -459v459h143v-666h-185z" />
    <glyph glyph-name="O" unicode="O" horiz-adv-x="616" 
d="M566 472v-278c0 -101 -70 -204 -258 -204s-258 103 -258 204v278c0 101 70 204 258 204s258 -103 258 -204zM416 207v252c0 52 -33 84 -108 84s-108 -32 -108 -84v-252c0 -52 33 -84 108 -84s108 32 108 84z" />
    <glyph glyph-name="P" unicode="P" horiz-adv-x="584" 
d="M559 390c0 -125 -68 -188 -230 -188h-114v-202h-150v666h272c162 0 222 -64 222 -189v-87zM409 405v58c0 48 -17 70 -80 70h-114v-201h114c66 0 80 25 80 73z" />
    <glyph glyph-name="Q" unicode="Q" horiz-adv-x="616" 
d="M335 -176l-71 168c-155 14 -214 109 -214 202v278c0 101 70 204 258 204s258 -103 258 -204v-278c0 -78 -42 -157 -148 -189l53 -124zM416 207v252c0 52 -33 84 -108 84s-108 -32 -108 -84v-252c0 -52 33 -84 108 -84s108 32 108 84z" />
    <glyph glyph-name="R" unicode="R" horiz-adv-x="643" 
d="M450 0l-147 207h-88v-207h-150v666h277c162 0 222 -64 222 -189v-82c0 -83 -30 -139 -97 -167l161 -228h-178zM414 410v53c0 50 -19 70 -80 70h-119v-196h119c64 0 80 23 80 73z" />
    <glyph glyph-name="S" unicode="S" horiz-adv-x="544" 
d="M504 187c0 -132 -43 -197 -244 -197c-77 0 -158 17 -215 43l25 116c61 -19 123 -32 192 -32c77 0 92 15 92 71c0 60 -3 67 -112 91c-161 35 -185 67 -185 211c0 133 47 186 230 186c58 0 128 -6 202 -22l-15 -126c-76 13 -125 19 -185 19c-67 0 -82 -12 -82 -61
c0 -64 3 -65 108 -90c180 -43 189 -78 189 -209z" />
    <glyph glyph-name="T" unicode="T" horiz-adv-x="532" 
d="M520 533h-179v-533h-150v533h-179v133h508v-133z" />
    <glyph glyph-name="U" unicode="U" horiz-adv-x="622" 
d="M412 666h150v-472c0 -101 -63 -204 -251 -204s-251 103 -251 204v472h150v-458c0 -54 26 -85 101 -85s101 31 101 85v458z" />
    <glyph glyph-name="V" unicode="V" horiz-adv-x="590" 
d="M590 666l-188 -666h-214l-188 666h154l141 -530l141 530h154z" />
    <glyph glyph-name="W" unicode="W" horiz-adv-x="944" 
d="M939 666l-163 -666h-191l-112 506l-113 -506h-191l-164 666h148l113 -476l116 476h183l114 -476l112 476h148z" />
    <glyph glyph-name="X" unicode="X" horiz-adv-x="612" 
d="M585 666l-195 -328l202 -338h-157l-129 220l-129 -220h-157l201 338l-194 328h157l122 -210l122 210h157z" />
    <glyph glyph-name="Y" unicode="Y" horiz-adv-x="564" 
d="M564 666l-207 -474v-192h-150v192l-207 474h157l125 -309l125 309h157z" />
    <glyph glyph-name="Z" unicode="Z" horiz-adv-x="566" 
d="M511 543l-290 -420h295v-123h-466v122l293 421h-280v123h448v-123z" />
    <glyph glyph-name="bracketleft" unicode="[" horiz-adv-x="319" 
d="M299 -126h-224v916h224v-115h-80v-686h80v-115z" />
    <glyph glyph-name="backslash" unicode="\" horiz-adv-x="462" 
d="M289 -117l-249 793h128l249 -793h-128z" />
    <glyph glyph-name="bracketright" unicode="]" horiz-adv-x="319" 
d="M244 -126h-224v115h80v686h-80v115h224v-916z" />
    <glyph glyph-name="asciicircum" unicode="^" horiz-adv-x="466" 
d="M431 419l-86 -52l-113 201l-113 -201l-84 52l151 267h92z" />
    <glyph glyph-name="underscore" unicode="_" horiz-adv-x="444" 
d="M445 -125h-446v50h446v-50z" />
    <glyph glyph-name="grave" unicode="`" horiz-adv-x="310" 
d="M260 613l-50 -76c-56 31 -95 55 -155 94l54 84c53 -39 102 -71 151 -102z" />
    <glyph glyph-name="a" unicode="a" horiz-adv-x="499" 
d="M444 0h-118l-10 31c-56 -31 -106 -41 -139 -41c-90 0 -127 65 -127 148c0 98 45 137 145 137h105v37c0 50 -9 67 -86 67c-43 0 -86 -5 -132 -14l-19 108c46 14 119 24 175 24c169 0 206 -51 206 -186v-311zM300 119v56h-69c-31 0 -43 -8 -43 -35s11 -38 39 -38
c30 0 51 7 73 17z" />
    <glyph glyph-name="b" unicode="b" horiz-adv-x="537" 
d="M497 195c0 -116 -33 -205 -234 -205c-52 0 -131 5 -198 16v680l144 20v-236c39 15 85 27 138 27c108 0 150 -67 150 -176v-126zM209 345v-228c21 -2 39 -2 59 -2c72 0 85 33 85 79v126c0 32 -14 52 -52 52c-31 0 -65 -13 -92 -27z" />
    <glyph glyph-name="c" unicode="c" horiz-adv-x="406" 
d="M179 301v-115c0 -50 21 -73 79 -73c37 0 65 4 100 12l18 -120c-49 -11 -84 -15 -118 -15c-158 0 -223 59 -223 198v111c0 139 65 198 223 198c34 0 69 -4 118 -15l-18 -120c-30 7 -72 12 -100 12c-58 0 -79 -23 -79 -73z" />
    <glyph glyph-name="d" unicode="d" horiz-adv-x="537" 
d="M40 170v147c0 115 50 180 164 180c40 0 91 -6 124 -14v203l144 20v-706h-113l-15 39c-34 -22 -97 -49 -150 -49c-99 0 -154 61 -154 180zM328 153v207c-25 6 -62 12 -92 12c-38 0 -52 -23 -52 -55v-147c0 -34 14 -55 52 -55c33 0 71 20 92 38z" />
    <glyph glyph-name="e" unicode="e" horiz-adv-x="486" 
d="M446 193h-262v-14c0 -56 22 -71 88 -71c45 0 105 8 148 21l21 -108c-44 -16 -115 -31 -183 -31c-158 0 -218 78 -218 198v114c0 105 47 195 209 195s197 -96 197 -202v-102zM310 301v21c0 34 -10 62 -60 62s-66 -28 -66 -62v-21h126z" />
    <glyph glyph-name="f" unicode="f" horiz-adv-x="369" 
d="M369 692l-18 -113c-20 4 -47 7 -64 7c-46 0 -49 -20 -49 -52v-57h115l-10 -118h-105v-359h-144v359h-74v118h74v73c0 100 47 156 165 156c41 0 71 -6 110 -14z" />
    <glyph glyph-name="g" unicode="g" horiz-adv-x="484" 
d="M35 279v59c2 98 56 159 199 159c32 0 59 -4 83 -10h152v-68l-49 -18c8 -19 12 -41 13 -63v-59c0 -93 -65 -155 -199 -155h-15c-10 -6 -21 -13 -21 -27c0 -11 7 -19 16 -20c65 -7 85 -9 121 -12c82 -7 118 -35 118 -119c0 -117 -73 -153 -224 -153c-48 0 -130 8 -194 25
l21 105c58 -14 117 -20 160 -20c75 0 105 3 105 35c0 19 -9 24 -38 27c-55 5 -64 6 -124 12c-66 7 -104 21 -104 88c0 39 18 65 42 89c-42 25 -62 67 -62 125zM234 238c47 0 65 15 65 48v46c0 32 -17 51 -65 51s-65 -19 -65 -51v-46c0 -33 18 -48 65 -48z" />
    <glyph glyph-name="h" unicode="h" horiz-adv-x="553" 
d="M493 0h-144v322c0 22 -10 35 -35 35c-26 0 -74 -20 -105 -36v-321h-144v686l142 20v-254c59 27 118 45 174 45c83 0 112 -62 112 -156v-341z" />
    <glyph glyph-name="i" unicode="i" horiz-adv-x="274" 
d="M209 548h-144v153h144v-153zM209 0h-144v487h144v-487z" />
    <glyph glyph-name="j" unicode="j" horiz-adv-x="264" 
d="M204 548h-144v153h144v-153zM72 -207l-87 94c45 42 75 66 75 109v491h144v-510c0 -58 -43 -110 -132 -184z" />
    <glyph glyph-name="k" unicode="k" horiz-adv-x="527" 
d="M209 0h-144v686l144 20v-706zM228 245l124 242h154l-128 -242l134 -245h-154z" />
    <glyph glyph-name="l" unicode="l" horiz-adv-x="274" 
d="M209 0h-144v686l144 20v-706z" />
    <glyph glyph-name="m" unicode="m" horiz-adv-x="837" 
d="M493 0h-144v322c0 22 -10 35 -35 35c-26 0 -74 -18 -105 -35v-322h-144v487h107l15 -37c60 29 138 47 194 47c43 0 72 -17 89 -47c55 27 128 47 195 47c83 0 112 -62 112 -156v-341h-144v322c0 22 -10 35 -35 35c-26 0 -74 -18 -105 -35v-322z" />
    <glyph glyph-name="n" unicode="n" horiz-adv-x="553" 
d="M493 0h-144v322c0 22 -10 35 -35 35c-26 0 -74 -18 -105 -35v-322h-144v487h107l15 -37c60 29 138 47 194 47c83 0 112 -62 112 -156v-341z" />
    <glyph glyph-name="o" unicode="o" horiz-adv-x="520" 
d="M260 -10c-173 0 -220 97 -220 197v113c0 100 47 197 220 197s220 -97 220 -197v-113c0 -100 -47 -197 -220 -197zM260 111c52 0 76 26 76 72v121c0 46 -24 72 -76 72s-76 -26 -76 -72v-121c0 -46 24 -72 76 -72z" />
    <glyph glyph-name="p" unicode="p" horiz-adv-x="537" 
d="M497 317v-147c0 -115 -50 -180 -164 -180c-40 0 -91 6 -124 14v-201l-144 -20v704h113l15 -39c34 22 97 49 150 49c99 0 154 -61 154 -180zM209 334v-207c25 -6 62 -12 92 -12c38 0 52 23 52 55v147c0 34 -14 55 -52 55c-33 0 -71 -20 -92 -38z" />
    <glyph glyph-name="q" unicode="q" horiz-adv-x="537" 
d="M40 292c0 116 33 205 234 205c61 0 138 -7 198 -17v-677l-144 -20v234c-39 -15 -85 -27 -138 -27c-108 0 -150 67 -150 176v126zM328 142v228c-21 2 -39 2 -59 2c-72 0 -85 -33 -85 -79v-126c0 -32 14 -52 52 -52c31 0 65 13 92 27z" />
    <glyph glyph-name="r" unicode="r" horiz-adv-x="345" 
d="M338 361c-43 -17 -98 -42 -129 -64v-297h-144v487h120l10 -47c30 20 92 49 131 57z" />
    <glyph glyph-name="s" unicode="s" horiz-adv-x="433" 
d="M398 145c0 -100 -42 -155 -181 -155c-53 0 -129 13 -177 29l23 107c40 -12 93 -22 147 -22c43 0 50 12 50 41c0 31 -1 35 -79 54c-118 29 -129 61 -129 152c0 103 40 146 186 146c37 0 105 -5 148 -16l-13 -112c-43 8 -96 14 -134 14c-42 0 -52 -11 -52 -33
c0 -30 4 -34 62 -47c139 -31 149 -61 149 -158z" />
    <glyph glyph-name="t" unicode="t" horiz-adv-x="360" 
d="M332 8c-32 -11 -71 -18 -104 -18c-93 0 -147 35 -147 125v256h-66v116h66v117l144 20v-137h111l-8 -116h-103v-236c0 -20 12 -27 30 -27c16 0 39 2 60 9z" />
    <glyph glyph-name="u" unicode="u" horiz-adv-x="553" 
d="M60 487h144v-322c0 -22 10 -35 35 -35c26 0 74 18 105 35v322h144v-487h-107l-15 37c-60 -29 -138 -47 -194 -47c-83 0 -112 62 -112 156v341z" />
    <glyph glyph-name="v" unicode="v" horiz-adv-x="500" 
d="M495 487l-153 -487h-184l-153 487h146l99 -345l99 345h146z" />
    <glyph glyph-name="w" unicode="w" horiz-adv-x="705" 
d="M447 0l-95 318l-94 -318h-156l-84 487h132l46 -285l85 285h144l84 -285l46 285h132l-84 -487h-156z" />
    <glyph glyph-name="x" unicode="x" horiz-adv-x="492" 
d="M473 487l-151 -242l155 -245h-145l-86 135l-86 -135h-145l155 245l-151 242h142l85 -133l85 133h142z" />
    <glyph glyph-name="y" unicode="y" horiz-adv-x="495" 
d="M280 -197h-136l57 197h-46l-150 487h146l99 -345l99 345h146l-153 -487z" />
    <glyph glyph-name="z" unicode="z" horiz-adv-x="460" 
d="M46 377v110h368v-110l-202 -267h208v-110h-375v110l201 267h-200z" />
    <glyph glyph-name="braceleft" unicode="{" horiz-adv-x="340" 
d="M40 324v54h26c26 0 36 13 36 34v229c0 99 47 149 141 149h87v-114h-44c-27 0 -40 -11 -40 -42v-205c0 -64 -28 -103 -95 -105c67 -2 95 -42 95 -105v-205c0 -31 13 -42 40 -42h44v-114h-87c-94 0 -141 50 -141 149v229c0 21 -10 34 -36 34h-26v54z" />
    <glyph glyph-name="bar" unicode="|" horiz-adv-x="260" 
d="M180 -210h-100v1000h100v-1000z" />
    <glyph glyph-name="braceright" unicode="}" horiz-adv-x="340" 
d="M300 378v-54v-54h-26c-26 0 -36 -13 -36 -34v-229c0 -99 -47 -149 -141 -149h-87v114h44c27 0 40 11 40 42v205c0 63 28 103 95 105c-67 2 -95 41 -95 105v205c0 31 -13 42 -40 42h-44v114h87c94 0 141 -50 141 -149v-229c0 -21 10 -34 36 -34h26z" />
    <glyph glyph-name="asciitilde" unicode="~" horiz-adv-x="461" 
d="M305 187c-66 0 -108 62 -139 62c-33 0 -51 -33 -63 -62l-78 45c30 77 72 126 141 126c49 0 103 -62 139 -62c32 0 54 35 63 62l78 -45c-23 -68 -66 -126 -141 -126z" />
    <glyph glyph-name="uni00A0" unicode="&#xa0;" horiz-adv-x="210" 
 />
    <glyph glyph-name="exclamdown" unicode="&#xa1;" horiz-adv-x="284" 
d="M100 256h84l30 -174v-279h-144v279zM70 487h144v-166h-144v166z" />
    <glyph glyph-name="cent" unicode="&#xa2;" horiz-adv-x="426" 
d="M188 -10v95c-108 16 -153 76 -153 193v111c0 116 45 176 153 193v94h93v-90c27 -1 57 -6 95 -14l-18 -120c-30 7 -72 12 -100 12c-58 0 -79 -23 -79 -73v-115c0 -50 21 -73 79 -73c37 0 65 4 100 12l18 -120c-38 -9 -68 -13 -95 -15v-90h-93z" />
    <glyph glyph-name="sterling" unicode="&#xa3;" horiz-adv-x="543" 
d="M55 281v103h72c-8 33 -17 72 -17 107c0 116 63 165 204 165c62 0 122 -9 181 -24l-19 -113c-45 10 -115 17 -161 17c-47 0 -61 -21 -61 -57c0 -34 8 -67 16 -95h175l-10 -103h-153c1 -7 1 -14 1 -20c0 -52 -23 -97 -62 -138h277v-123h-438v123c40 31 79 73 79 140
c0 6 0 12 -1 18h-83z" />
    <glyph glyph-name="currency" unicode="&#xa4;" horiz-adv-x="584" 
d="M529 521l-68 -68c7 -16 10 -33 10 -51v-134c0 -19 -3 -36 -10 -52l68 -67l-85 -85l-78 77c-21 -5 -46 -8 -74 -8c-29 0 -54 3 -75 8l-77 -77l-85 85l68 68c-6 15 -9 33 -9 51v134c0 18 3 35 9 51l-68 68l85 85l77 -78c21 6 46 9 75 9c28 0 53 -3 74 -9l78 78zM236 386
v-102c0 -38 25 -42 56 -42s57 4 57 42v102c0 38 -26 42 -57 42s-56 -4 -56 -42z" />
    <glyph glyph-name="yen" unicode="&#xa5;" horiz-adv-x="548" 
d="M492 120h-143v-120h-150v120h-142v89h134l-34 78h-100v93h60l-117 266h157l117 -289l117 289h157l-117 -266h61v-93h-102l-34 -78h136v-89z" />
    <glyph glyph-name="brokenbar" unicode="&#xa6;" horiz-adv-x="260" 
d="M180 -210h-100v417h100v-417zM180 790v-417h-100v417h100z" />
    <glyph glyph-name="section" unicode="&#xa7;" horiz-adv-x="535" 
d="M264 25l-112 -25c-53 175 -107 408 -107 557c0 76 51 119 146 119c62 0 144 -17 184 -29l-17 -95c-42 10 -105 23 -150 23c-29 0 -43 -12 -43 -40c0 -127 54 -347 99 -510zM276 464l112 25c53 -175 107 -408 107 -557c0 -76 -51 -119 -146 -119c-62 0 -144 17 -184 29
l17 95c42 -10 105 -23 150 -23c29 0 43 12 43 40c0 127 -54 347 -99 510z" />
    <glyph glyph-name="dieresis" unicode="&#xa8;" horiz-adv-x="434" 
d="M169 554h-114v118h114v-118zM379 554h-114v118h114v-118z" />
    <glyph glyph-name="copyright" unicode="&#xa9;" horiz-adv-x="766" 
d="M350 374v-77c0 -32 14 -46 49 -46c24 0 51 2 78 8l13 -88c-25 -7 -64 -11 -91 -11c-109 0 -154 45 -154 128v94c0 83 45 127 154 127c28 0 67 -4 91 -11l-13 -88c-21 5 -59 9 -78 9c-35 0 -49 -15 -49 -45zM40 333c0 190 136 344 343 344s343 -154 343 -344
c0 -189 -136 -343 -343 -343s-343 154 -343 343zM137 333c0 -140 97 -249 246 -249s246 109 246 249c0 141 -97 250 -246 250s-246 -109 -246 -250z" />
    <glyph glyph-name="ordfeminine" unicode="&#xaa;" horiz-adv-x="377" 
d="M317 378h-76l-6 20c-36 -20 -68 -26 -89 -26c-57 0 -81 42 -81 94c0 64 29 88 93 88h67v24c0 32 -6 43 -55 43c-28 0 -55 -3 -84 -9l-13 69c30 9 76 15 112 15c108 0 132 -33 132 -119v-199zM225 454v36h-44c-20 0 -28 -5 -28 -22c0 -18 7 -25 25 -25c20 0 33 5 47 11z
" />
    <glyph glyph-name="guillemotleft" unicode="&#xab;" horiz-adv-x="560" 
d="M172 51l-127 193l127 193l91 -57l-89 -136l89 -136zM394 51l-127 193l127 193l91 -57l-89 -136l89 -136z" />
    <glyph glyph-name="logicalnot" unicode="&#xac;" horiz-adv-x="507" 
d="M322 104v154h-282v110h402v-264h-120z" />
    <glyph glyph-name="registered" unicode="&#xae;" horiz-adv-x="451" 
d="M45 515c0 101 71 181 180 181c110 0 181 -80 181 -181s-71 -182 -181 -182c-109 0 -180 81 -180 182zM104 515c0 -68 38 -126 121 -126s122 58 122 126s-39 125 -122 125s-121 -57 -121 -125zM262 436l-38 54h-20v-54h-40v166h69c38 0 55 -16 55 -48v-16
c0 -20 -8 -34 -22 -41l42 -61h-46zM249 542v8c0 11 -6 15 -19 15h-26v-39h26c14 0 19 6 19 16z" />
    <glyph glyph-name="macron" unicode="&#xaf;" horiz-adv-x="344" 
d="M299 560h-254v92h254v-92z" />
    <glyph glyph-name="degree" unicode="&#xb0;" horiz-adv-x="373" 
d="M323 522c0 -74 -51 -134 -136 -134c-86 0 -137 60 -137 134s52 134 137 134s136 -60 136 -134zM246 522c0 37 -19 66 -59 66c-41 0 -60 -29 -60 -66c0 -36 20 -66 60 -66c39 0 59 30 59 66z" />
    <glyph glyph-name="plusminus" unicode="&#xb1;" horiz-adv-x="517" 
d="M462 307h-146v-148h-115v148h-146v110h146v149h115v-149h146v-110zM462 0h-407v105h407v-105z" />
    <glyph glyph-name="twosuperior" unicode="&#xb2;" horiz-adv-x="394" 
d="M280 576c-31 -37 -48 -57 -70 -82h124v-88h-274v78c34 35 48 50 92 95c65 66 64 71 64 92v19c0 26 -9 33 -38 33c-27 0 -73 -7 -109 -16l-19 91c45 13 92 21 140 21c102 0 131 -37 131 -112v-33c0 -31 -5 -55 -41 -98z" />
    <glyph glyph-name="threesuperior" unicode="&#xb3;" horiz-adv-x="367" 
d="M74 649h98c26 0 33 12 33 30v22c0 24 -6 34 -48 34c-22 0 -58 -3 -86 -8l-12 79c30 7 74 13 103 13c109 0 144 -37 144 -105v-23c0 -38 -10 -57 -46 -79c45 -15 52 -44 52 -81v-22c0 -67 -29 -111 -148 -111c-36 0 -77 5 -114 16l13 80c33 -8 69 -11 100 -11
c39 0 48 12 48 33v21c0 21 -10 31 -36 31h-101v81z" />
    <glyph glyph-name="acute" unicode="&#xb4;" horiz-adv-x="310" 
d="M100 537l-50 76c49 31 98 63 151 102l54 -84c-60 -39 -99 -63 -155 -94z" />
    <glyph glyph-name="mu" unicode="&#xb5;" horiz-adv-x="553" 
d="M60 -197v684h144v-322c0 -22 10 -35 35 -35c26 0 74 18 105 35v322h144v-487h-107l-15 37c-50 -24 -111 -40 -162 -45v-189h-144z" />
    <glyph glyph-name="paragraph" unicode="&#xb6;" horiz-adv-x="538" 
d="M45 441c0 128 97 225 225 225v-449c-128 0 -225 96 -225 224zM299 -207l-68 78c121 110 122 107 122 150v645h110v-661c0 -73 -18 -79 -164 -212z" />
    <glyph glyph-name="periodcentered" unicode="&#xb7;" horiz-adv-x="274" 
d="M209 254h-144v166h144v-166z" />
    <glyph glyph-name="cedilla" unicode="&#xb8;" horiz-adv-x="286" 
d="M241 -115c0 -50 -28 -82 -112 -82c-21 0 -61 7 -84 16l14 55c17 -5 42 -10 62 -10c31 0 47 4 47 22c0 23 -11 22 -35 22c-10 0 -26 -1 -42 -2l-20 17l21 97h63l-13 -67c73 10 99 -13 99 -68z" />
    <glyph glyph-name="onesuperior" unicode="&#xb9;" horiz-adv-x="356" 
d="M261 406h-105v285l-84 -40l-37 82l143 78h83v-405z" />
    <glyph glyph-name="ordmasculine" unicode="&#xba;" horiz-adv-x="401" 
d="M201 372c-111 0 -141 62 -141 126v72c0 64 30 126 141 126c110 0 140 -62 140 -126v-72c0 -64 -30 -126 -140 -126zM201 449c33 0 48 17 48 46v78c0 29 -15 46 -48 46c-34 0 -49 -17 -49 -46v-78c0 -29 15 -46 49 -46z" />
    <glyph glyph-name="guillemotright" unicode="&#xbb;" horiz-adv-x="560" 
d="M515 244l-127 -193l-91 57l89 136l-89 136l91 57zM293 244l-127 -193l-91 57l89 136l-89 136l91 57z" />
    <glyph glyph-name="onequarter" unicode="&#xbc;" horiz-adv-x="868" 
d="M808 77h-59v-77h-100v77h-183v72l138 256h145v-247h59v-81zM649 158v162l-80 -162h80zM261 241h-105v285l-84 -40l-37 82l143 78h83v-405zM211 -10l311 701l78 -35l-310 -700z" />
    <glyph glyph-name="onehalf" unicode="&#xbd;" horiz-adv-x="878" 
d="M261 241h-105v285l-84 -40l-37 82l143 78h83v-405zM764 170c-31 -37 -48 -57 -70 -82h124v-88h-274v78c34 35 48 50 92 95c65 66 64 71 64 92v19c0 26 -9 33 -38 33c-27 0 -73 -7 -109 -16l-19 91c45 13 92 21 140 21c102 0 131 -37 131 -112v-33c0 -31 -5 -55 -41 -98z
M210 -10l311 701l78 -35l-310 -700z" />
    <glyph glyph-name="threequarters" unicode="&#xbe;" horiz-adv-x="885" 
d="M69 484h98c26 0 33 12 33 30v24c0 24 -6 34 -48 34c-22 0 -64 -2 -86 -7l-12 79c27 6 69 12 103 12c109 0 144 -37 144 -105v-23c0 -38 -10 -57 -46 -79c45 -15 52 -44 52 -81v-22c0 -67 -29 -111 -148 -111c-36 0 -77 5 -114 16l13 78c34 -7 85 -9 116 -9
c25 0 32 13 32 29v29c0 21 -10 29 -32 29h-105v77zM825 77h-59v-77h-100v77h-183v72l138 256h145v-247h59v-81zM666 158v162l-80 -162h80zM226 -10l310 701l78 -35l-309 -700z" />
    <glyph glyph-name="questiondown" unicode="&#xbf;" horiz-adv-x="485" 
d="M189 487h144v-166h-144v166zM242 259l81 -110c-128 -95 -134 -106 -134 -158c0 -45 19 -70 94 -70c45 0 97 7 147 16l20 -124c-69 -14 -121 -20 -183 -20c-179 0 -222 72 -222 190c0 122 10 139 197 276z" />
    <glyph glyph-name="Agrave" unicode="&#xc0;" horiz-adv-x="627" 
d="M413 666l204 -666h-156l-36 130h-223l-36 -130h-156l203 666h200zM313 534l-77 -279h153zM377 783l-50 -76c-57 30 -92 50 -140 84l54 84c39 -30 87 -61 136 -92z" />
    <glyph glyph-name="Aacute" unicode="&#xc1;" horiz-adv-x="627" 
d="M413 666l204 -666h-156l-36 130h-223l-36 -130h-156l203 666h200zM313 534l-77 -279h153zM317 707l-50 76c49 31 97 62 136 92l54 -84c-48 -34 -83 -54 -140 -84z" />
    <glyph glyph-name="Acircumflex" unicode="&#xc2;" horiz-adv-x="627" 
d="M413 666l204 -666h-156l-36 130h-223l-36 -130h-156l203 666h200zM313 534l-77 -279h153zM441 774l-39 -62c-36 16 -56 26 -89 45c-33 -19 -53 -29 -89 -45l-39 62c47 32 82 58 128 94c46 -36 81 -62 128 -94z" />
    <glyph glyph-name="Atilde" unicode="&#xc3;" horiz-adv-x="627" 
d="M413 666l204 -666h-156l-36 130h-223l-36 -130h-156l203 666h200zM313 534l-77 -279h153zM374 717c-29 0 -47 7 -67 21c-18 13 -29 22 -46 22c-23 0 -38 -27 -50 -45l-58 45c23 45 59 87 105 87c24 0 41 -5 65 -21c23 -15 37 -23 51 -23c22 0 32 14 38 41l68 -31
c-17 -60 -54 -96 -106 -96z" />
    <glyph glyph-name="Adieresis" unicode="&#xc4;" horiz-adv-x="627" 
d="M413 666l204 -666h-156l-36 130h-223l-36 -130h-156l203 666h200zM313 534l-77 -279h153zM269 727h-114v109h114v-109zM471 727h-114v109h114v-109z" />
    <glyph glyph-name="Aring" unicode="&#xc5;" horiz-adv-x="627" 
d="M413 666l204 -666h-156l-36 130h-223l-36 -130h-156l203 666h200zM313 534l-77 -279h153zM401 791c0 -46 -34 -84 -88 -84s-88 34 -88 84c0 47 34 85 88 85s88 -38 88 -85zM347 791c0 22 -13 36 -34 36s-34 -14 -34 -36c0 -21 13 -35 34 -35s34 14 34 35z" />
    <glyph glyph-name="AE" unicode="&#xc6;" horiz-adv-x="855" 
d="M805 0h-344l-36 130h-223l-36 -130h-156l203 666h592v-133h-352l38 -122h293v-133h-253l45 -145h229v-133zM313 534l-77 -279h153z" />
    <glyph glyph-name="Ccedilla" unicode="&#xc7;" horiz-adv-x="521" 
d="M413 -115c0 -50 -28 -82 -112 -82c-21 0 -61 7 -84 16l14 55c17 -5 42 -10 62 -10c31 0 47 4 47 22c0 23 -11 22 -35 22c-10 0 -26 -1 -42 -2l-20 17l15 69c-144 10 -208 90 -208 202v278c0 121 75 204 243 204c67 0 127 -7 193 -21l-21 -131c-58 10 -124 16 -172 16
c-65 0 -93 -34 -93 -92v-230c0 -58 28 -92 93 -92c48 0 114 6 172 16l21 -131c-57 -12 -109 -19 -165 -20l-7 -38c73 10 99 -13 99 -68z" />
    <glyph glyph-name="Egrave" unicode="&#xc8;" horiz-adv-x="534" 
d="M484 0h-419v666h419v-133h-269v-122h248v-133h-248v-145h269v-133zM349 783l-50 -76c-57 30 -92 50 -140 84l54 84c39 -30 87 -61 136 -92z" />
    <glyph glyph-name="Eacute" unicode="&#xc9;" horiz-adv-x="534" 
d="M484 0h-419v666h419v-133h-269v-122h248v-133h-248v-145h269v-133zM255 707l-50 76c49 31 97 62 136 92l54 -84c-48 -34 -83 -54 -140 -84z" />
    <glyph glyph-name="Ecircumflex" unicode="&#xca;" horiz-adv-x="534" 
d="M484 0h-419v666h419v-133h-269v-122h248v-133h-248v-145h269v-133zM413 774l-39 -62c-36 16 -56 26 -89 45c-33 -19 -53 -29 -89 -45l-39 62c47 32 82 58 128 94c46 -36 81 -62 128 -94z" />
    <glyph glyph-name="Edieresis" unicode="&#xcb;" horiz-adv-x="534" 
d="M484 0h-419v666h419v-133h-269v-122h248v-133h-248v-145h269v-133zM234 727h-114v109h114v-109zM436 727h-114v109h114v-109z" />
    <glyph glyph-name="Igrave" unicode="&#xcc;" horiz-adv-x="290" 
d="M220 0h-150v666h150v-666zM213 783l-50 -76c-57 30 -92 50 -140 84l54 84c39 -30 87 -61 136 -92z" />
    <glyph glyph-name="Iacute" unicode="&#xcd;" horiz-adv-x="290" 
d="M220 0h-150v666h150v-666zM132 707l-50 76c49 31 97 62 136 92l54 -84c-48 -34 -83 -54 -140 -84z" />
    <glyph glyph-name="Icircumflex" unicode="&#xce;" horiz-adv-x="290" 
d="M220 0h-150v666h150v-666zM273 774l-39 -62c-36 16 -56 26 -89 45c-33 -19 -53 -29 -89 -45l-39 62c47 32 82 58 128 94c46 -36 81 -62 128 -94z" />
    <glyph glyph-name="Idieresis" unicode="&#xcf;" horiz-adv-x="290" 
d="M220 0h-150v666h150v-666zM101 727h-114v109h114v-109zM303 727h-114v109h114v-109z" />
    <glyph glyph-name="Eth" unicode="&#xd0;" horiz-adv-x="624" 
d="M25 276v119h66v271h258c164 0 225 -83 225 -173v-320c0 -89 -61 -173 -225 -173h-258v276h-66zM424 214v238c0 52 -18 81 -93 81h-90v-138h88v-119h-88v-143h90c75 0 93 29 93 81z" />
    <glyph glyph-name="Ntilde" unicode="&#xd1;" horiz-adv-x="676" 
d="M426 0l-218 438v-438h-143v666h184l219 -459v459h143v-666h-185zM403 717c-29 0 -47 7 -67 21c-18 13 -29 22 -46 22c-23 0 -38 -27 -50 -45l-58 45c23 45 59 87 105 87c24 0 41 -5 65 -21c23 -15 37 -23 51 -23c22 0 32 14 38 41l68 -31c-17 -60 -54 -96 -106 -96z" />
    <glyph glyph-name="Ograve" unicode="&#xd2;" horiz-adv-x="616" 
d="M566 472v-278c0 -101 -70 -204 -258 -204s-258 103 -258 204v278c0 101 70 204 258 204s258 -103 258 -204zM416 207v252c0 52 -33 84 -108 84s-108 -32 -108 -84v-252c0 -52 33 -84 108 -84s108 32 108 84zM364 783l-50 -76c-57 30 -92 50 -140 84l54 84
c39 -30 87 -61 136 -92z" />
    <glyph glyph-name="Oacute" unicode="&#xd3;" horiz-adv-x="616" 
d="M566 472v-278c0 -101 -70 -204 -258 -204s-258 103 -258 204v278c0 101 70 204 258 204s258 -103 258 -204zM416 207v252c0 52 -33 84 -108 84s-108 -32 -108 -84v-252c0 -52 33 -84 108 -84s108 32 108 84zM300 707l-50 76c49 31 97 62 136 92l54 -84
c-48 -34 -83 -54 -140 -84z" />
    <glyph glyph-name="Ocircumflex" unicode="&#xd4;" horiz-adv-x="616" 
d="M566 472v-278c0 -101 -70 -204 -258 -204s-258 103 -258 204v278c0 101 70 204 258 204s258 -103 258 -204zM416 207v252c0 52 -33 84 -108 84s-108 -32 -108 -84v-252c0 -52 33 -84 108 -84s108 32 108 84zM436 774l-39 -62c-36 16 -56 26 -89 45
c-33 -19 -53 -29 -89 -45l-39 62c47 32 82 58 128 94c46 -36 81 -62 128 -94z" />
    <glyph glyph-name="Otilde" unicode="&#xd5;" horiz-adv-x="616" 
d="M566 472v-278c0 -101 -70 -204 -258 -204s-258 103 -258 204v278c0 101 70 204 258 204s258 -103 258 -204zM416 207v252c0 52 -33 84 -108 84s-108 -32 -108 -84v-252c0 -52 33 -84 108 -84s108 32 108 84zM372 717c-29 0 -47 7 -67 21c-18 13 -29 22 -46 22
c-23 0 -38 -27 -50 -45l-58 45c23 45 59 87 105 87c24 0 41 -5 65 -21c23 -15 37 -23 51 -23c22 0 32 14 38 41l68 -31c-17 -60 -54 -96 -106 -96z" />
    <glyph glyph-name="Odieresis" unicode="&#xd6;" horiz-adv-x="616" 
d="M566 472v-278c0 -101 -70 -204 -258 -204s-258 103 -258 204v278c0 101 70 204 258 204s258 -103 258 -204zM416 207v252c0 52 -33 84 -108 84s-108 -32 -108 -84v-252c0 -52 33 -84 108 -84s108 32 108 84zM264 727h-114v109h114v-109zM466 727h-114v109h114v-109z" />
    <glyph glyph-name="multiply" unicode="&#xd7;" horiz-adv-x="480" 
d="M343 53l-103 103l-103 -103l-82 82l103 103l-103 103l82 82l103 -103l103 103l82 -82l-103 -103l103 -103z" />
    <glyph glyph-name="Oslash" unicode="&#xd8;" horiz-adv-x="616" 
d="M50 -25l52 85c-37 38 -52 86 -52 134v278c0 101 70 204 258 204c62 0 111 -12 149 -30l49 80l60 -36l-52 -85c36 -38 52 -86 52 -133v-278c0 -101 -70 -204 -258 -204c-62 0 -112 11 -150 30l-48 -80zM200 459v-237l184 303c-18 11 -43 18 -76 18
c-75 0 -108 -32 -108 -84zM308 123c75 0 108 32 108 84v236l-184 -302c17 -12 42 -18 76 -18z" />
    <glyph glyph-name="Ugrave" unicode="&#xd9;" horiz-adv-x="622" 
d="M412 666h150v-472c0 -101 -63 -204 -251 -204s-251 103 -251 204v472h150v-458c0 -54 26 -85 101 -85s101 31 101 85v458zM387 783l-50 -76c-57 30 -92 50 -140 84l54 84c39 -30 87 -61 136 -92z" />
    <glyph glyph-name="Uacute" unicode="&#xda;" horiz-adv-x="622" 
d="M412 666h150v-472c0 -101 -63 -204 -251 -204s-251 103 -251 204v472h150v-458c0 -54 26 -85 101 -85s101 31 101 85v458zM290 707l-50 76c49 31 97 62 136 92l54 -84c-48 -34 -83 -54 -140 -84z" />
    <glyph glyph-name="Ucircumflex" unicode="&#xdb;" horiz-adv-x="622" 
d="M412 666h150v-472c0 -101 -63 -204 -251 -204s-251 103 -251 204v472h150v-458c0 -54 26 -85 101 -85s101 31 101 85v458zM438 774l-39 -62c-36 16 -56 26 -89 45c-33 -19 -53 -29 -89 -45l-39 62c47 32 82 58 128 94c46 -36 81 -62 128 -94z" />
    <glyph glyph-name="Udieresis" unicode="&#xdc;" horiz-adv-x="622" 
d="M412 666h150v-472c0 -101 -63 -204 -251 -204s-251 103 -251 204v472h150v-458c0 -54 26 -85 101 -85s101 31 101 85v458zM267 727h-114v109h114v-109zM469 727h-114v109h114v-109z" />
    <glyph glyph-name="Yacute" unicode="&#xdd;" horiz-adv-x="564" 
d="M564 666l-207 -474v-192h-150v192l-207 474h157l125 -309l125 309h157zM272 707l-50 76c49 31 97 62 136 92l54 -84c-48 -34 -83 -54 -140 -84z" />
    <glyph glyph-name="Thorn" unicode="&#xde;" horiz-adv-x="584" 
d="M559 291c0 -125 -68 -188 -230 -188h-114v-103h-150v666h150v-99h122c162 0 222 -64 222 -189v-87zM409 306v58c0 48 -17 70 -80 70h-114v-201h114c66 0 80 25 80 73z" />
    <glyph glyph-name="germandbls" unicode="&#xdf;" horiz-adv-x="590" 
d="M352 532c0 34 -19 54 -70 54c-52 0 -73 -20 -73 -70v-516h-144v518c0 126 72 188 214 188c148 0 217 -72 217 -171c0 -36 -15 -74 -40 -114c-35 -55 -37 -63 -37 -78c0 -13 6 -27 56 -71c82 -73 85 -86 85 -138c0 -95 -31 -144 -151 -144c-30 0 -92 6 -130 18l17 107
c24 -6 64 -11 86 -11c24 0 40 5 40 26c0 17 -5 17 -67 71c-68 59 -80 81 -80 134c0 37 9 56 38 101c33 52 39 70 39 96z" />
    <glyph glyph-name="agrave" unicode="&#xe0;" horiz-adv-x="499" 
d="M444 0h-118l-10 31c-56 -31 -106 -41 -139 -41c-90 0 -127 65 -127 148c0 98 45 137 145 137h105v37c0 50 -9 67 -86 67c-43 0 -86 -5 -132 -14l-19 108c46 14 119 24 175 24c169 0 206 -51 206 -186v-311zM300 119v56h-69c-31 0 -43 -8 -43 -35s11 -38 39 -38
c30 0 51 7 73 17zM323 613l-50 -76c-56 31 -95 55 -155 94l54 84c53 -39 102 -71 151 -102z" />
    <glyph glyph-name="aacute" unicode="&#xe1;" horiz-adv-x="499" 
d="M444 0h-118l-10 31c-56 -31 -106 -41 -139 -41c-90 0 -127 65 -127 148c0 98 45 137 145 137h105v37c0 50 -9 67 -86 67c-43 0 -86 -5 -132 -14l-19 108c46 14 119 24 175 24c169 0 206 -51 206 -186v-311zM300 119v56h-69c-31 0 -43 -8 -43 -35s11 -38 39 -38
c30 0 51 7 73 17zM225 537l-50 76c49 31 98 63 151 102l54 -84c-60 -39 -99 -63 -155 -94z" />
    <glyph glyph-name="acircumflex" unicode="&#xe2;" horiz-adv-x="499" 
d="M444 0h-118l-10 31c-56 -31 -106 -41 -139 -41c-90 0 -127 65 -127 148c0 98 45 137 145 137h105v37c0 50 -9 67 -86 67c-43 0 -86 -5 -132 -14l-19 108c46 14 119 24 175 24c169 0 206 -51 206 -186v-311zM300 119v56h-69c-31 0 -43 -8 -43 -35s11 -38 39 -38
c30 0 51 7 73 17zM155 531l-44 59c44 34 97 77 143 117c46 -40 99 -83 143 -117l-44 -59c-45 27 -65 40 -99 65c-34 -25 -54 -38 -99 -65z" />
    <glyph glyph-name="atilde" unicode="&#xe3;" horiz-adv-x="499" 
d="M444 0h-118l-10 31c-56 -31 -106 -41 -139 -41c-90 0 -127 65 -127 148c0 98 45 137 145 137h105v37c0 50 -9 67 -86 67c-43 0 -86 -5 -132 -14l-19 108c46 14 119 24 175 24c169 0 206 -51 206 -186v-311zM300 119v56h-69c-31 0 -43 -8 -43 -35s11 -38 39 -38
c30 0 51 7 73 17zM310 546c-29 0 -47 7 -67 21c-18 13 -29 22 -46 22c-23 0 -38 -27 -50 -45l-58 45c23 45 59 87 105 87c24 0 41 -5 65 -21c23 -15 37 -23 51 -23c22 0 32 14 38 41l68 -31c-17 -60 -54 -96 -106 -96z" />
    <glyph glyph-name="adieresis" unicode="&#xe4;" horiz-adv-x="499" 
d="M444 0h-118l-10 31c-56 -31 -106 -41 -139 -41c-90 0 -127 65 -127 148c0 98 45 137 145 137h105v37c0 50 -9 67 -86 67c-43 0 -86 -5 -132 -14l-19 108c46 14 119 24 175 24c169 0 206 -51 206 -186v-311zM300 119v56h-69c-31 0 -43 -8 -43 -35s11 -38 39 -38
c30 0 51 7 73 17zM210 554h-114v118h114v-118zM420 554h-114v118h114v-118z" />
    <glyph glyph-name="aring" unicode="&#xe5;" horiz-adv-x="499" 
d="M444 0h-118l-10 31c-56 -31 -106 -41 -139 -41c-90 0 -127 65 -127 148c0 98 45 137 145 137h105v37c0 50 -9 67 -86 67c-43 0 -86 -5 -132 -14l-19 108c46 14 119 24 175 24c169 0 206 -51 206 -186v-311zM300 119v56h-69c-31 0 -43 -8 -43 -35s11 -38 39 -38
c30 0 51 7 73 17zM361 627c0 -51 -34 -93 -97 -93s-97 38 -97 93c0 51 35 93 97 93c63 0 97 -42 97 -93zM301 627c0 24 -14 40 -37 40s-37 -16 -37 -40s14 -40 37 -40s37 16 37 40z" />
    <glyph glyph-name="ae" unicode="&#xe6;" horiz-adv-x="746" 
d="M706 193h-262v-22c2 -50 25 -63 88 -63c45 0 105 8 148 21l21 -108c-44 -16 -115 -31 -183 -31s-118 14 -153 40c-52 -27 -106 -40 -168 -40c-98 0 -147 65 -147 148c0 98 45 137 145 137h105v37c0 50 -9 67 -86 67c-43 0 -86 -5 -132 -14l-19 108c46 14 119 24 175 24
c68 0 112 -15 146 -37c32 21 72 37 125 37c162 0 197 -96 197 -202v-102zM570 301v21c0 34 -10 62 -60 62s-66 -28 -66 -62v-21h126zM300 119v56h-69c-31 0 -43 -8 -43 -35s11 -38 39 -38c30 0 51 7 73 17z" />
    <glyph glyph-name="ccedilla" unicode="&#xe7;" horiz-adv-x="406" 
d="M179 301v-115c0 -50 21 -73 79 -73c37 0 65 4 100 12l18 -120c-49 -11 -84 -15 -118 -15l-7 -37c73 10 99 -13 99 -68c0 -50 -28 -82 -112 -82c-21 0 -61 7 -84 16l14 55c17 -5 42 -10 62 -10c31 0 47 4 47 22c0 23 -11 22 -35 22c-10 0 -26 -1 -42 -2l-20 17l15 71
c-113 15 -160 75 -160 194v111c0 139 65 198 223 198c34 0 69 -4 118 -15l-18 -120c-30 7 -72 12 -100 12c-58 0 -79 -23 -79 -73z" />
    <glyph glyph-name="egrave" unicode="&#xe8;" horiz-adv-x="486" 
d="M446 193h-262v-14c0 -56 22 -71 88 -71c45 0 105 8 148 21l21 -108c-44 -16 -115 -31 -183 -31c-158 0 -218 78 -218 198v114c0 105 47 195 209 195s197 -96 197 -202v-102zM310 301v21c0 34 -10 62 -60 62s-66 -28 -66 -62v-21h126zM321 613l-50 -76
c-56 31 -95 55 -155 94l54 84c53 -39 102 -71 151 -102z" />
    <glyph glyph-name="eacute" unicode="&#xe9;" horiz-adv-x="486" 
d="M446 193h-262v-14c0 -56 22 -71 88 -71c45 0 105 8 148 21l21 -108c-44 -16 -115 -31 -183 -31c-158 0 -218 78 -218 198v114c0 105 47 195 209 195s197 -96 197 -202v-102zM310 301v21c0 34 -10 62 -60 62s-66 -28 -66 -62v-21h126zM226 537l-50 76c49 31 98 63 151 102
l54 -84c-60 -39 -99 -63 -155 -94z" />
    <glyph glyph-name="ecircumflex" unicode="&#xea;" horiz-adv-x="486" 
d="M446 193h-262v-14c0 -56 22 -71 88 -71c45 0 105 8 148 21l21 -108c-44 -16 -115 -31 -183 -31c-158 0 -218 78 -218 198v114c0 105 47 195 209 195s197 -96 197 -202v-102zM310 301v21c0 34 -10 62 -60 62s-66 -28 -66 -62v-21h126zM150 531l-44 59c44 34 97 77 143 117
c46 -40 99 -83 143 -117l-44 -59c-45 27 -65 40 -99 65c-34 -25 -54 -38 -99 -65z" />
    <glyph glyph-name="edieresis" unicode="&#xeb;" horiz-adv-x="486" 
d="M446 193h-262v-14c0 -56 22 -71 88 -71c45 0 105 8 148 21l21 -108c-44 -16 -115 -31 -183 -31c-158 0 -218 78 -218 198v114c0 105 47 195 209 195s197 -96 197 -202v-102zM310 301v21c0 34 -10 62 -60 62s-66 -28 -66 -62v-21h126zM203 554h-114v118h114v-118zM413 554
h-114v118h114v-118z" />
    <glyph glyph-name="igrave" unicode="&#xec;" horiz-adv-x="274" 
d="M209 0h-144v487h144v-487zM206 613l-50 -76c-56 31 -95 55 -155 94l54 84c53 -39 102 -71 151 -102z" />
    <glyph glyph-name="iacute" unicode="&#xed;" horiz-adv-x="274" 
d="M209 0h-144v487h144v-487zM126 537l-50 76c49 31 98 63 151 102l54 -84c-60 -39 -99 -63 -155 -94z" />
    <glyph glyph-name="icircumflex" unicode="&#xee;" horiz-adv-x="274" 
d="M209 0h-144v487h144v-487zM38 531l-44 59c44 34 97 77 143 117c46 -40 99 -83 143 -117l-44 -59c-45 27 -65 40 -99 65c-34 -25 -54 -38 -99 -65z" />
    <glyph glyph-name="idieresis" unicode="&#xef;" horiz-adv-x="274" 
d="M209 0h-144v487h144v-487zM89 554h-114v118h114v-118zM299 554h-114v118h114v-118z" />
    <glyph glyph-name="eth" unicode="&#xf0;" horiz-adv-x="490" 
d="M292 621l50 49l45 -45l-41 -40c68 -55 104 -133 104 -233v-179c0 -100 -45 -183 -199 -183c-173 0 -201 93 -201 193v30c0 120 48 168 160 168c41 0 55 -4 96 -15v11c0 53 -20 91 -52 119l-71 -69l-45 45l60 58c-34 14 -74 24 -116 32l22 114c74 -9 137 -28 188 -55z
M249 111c43 0 57 16 57 62v69c-24 11 -44 18 -72 18c-26 0 -43 -9 -43 -50v-41c0 -37 16 -58 58 -58z" />
    <glyph glyph-name="ntilde" unicode="&#xf1;" horiz-adv-x="553" 
d="M493 0h-144v322c0 22 -10 35 -35 35c-26 0 -74 -18 -105 -35v-322h-144v487h107l15 -37c60 29 138 47 194 47c83 0 112 -62 112 -156v-341zM343 546c-29 0 -47 7 -67 21c-18 13 -29 22 -46 22c-23 0 -38 -27 -50 -45l-58 45c23 45 59 87 105 87c24 0 41 -5 65 -21
c23 -15 37 -23 51 -23c22 0 32 14 38 41l68 -31c-17 -60 -54 -96 -106 -96z" />
    <glyph glyph-name="ograve" unicode="&#xf2;" horiz-adv-x="520" 
d="M260 -10c-173 0 -220 97 -220 197v113c0 100 47 197 220 197s220 -97 220 -197v-113c0 -100 -47 -197 -220 -197zM260 111c52 0 76 26 76 72v121c0 46 -24 72 -76 72s-76 -26 -76 -72v-121c0 -46 24 -72 76 -72zM326 613l-50 -76c-56 31 -95 55 -155 94l54 84
c53 -39 102 -71 151 -102z" />
    <glyph glyph-name="oacute" unicode="&#xf3;" horiz-adv-x="520" 
d="M260 -10c-173 0 -220 97 -220 197v113c0 100 47 197 220 197s220 -97 220 -197v-113c0 -100 -47 -197 -220 -197zM260 111c52 0 76 26 76 72v121c0 46 -24 72 -76 72s-76 -26 -76 -72v-121c0 -46 24 -72 76 -72zM242 537l-50 76c49 31 98 63 151 102l54 -84
c-60 -39 -99 -63 -155 -94z" />
    <glyph glyph-name="ocircumflex" unicode="&#xf4;" horiz-adv-x="520" 
d="M260 -10c-173 0 -220 97 -220 197v113c0 100 47 197 220 197s220 -97 220 -197v-113c0 -100 -47 -197 -220 -197zM260 111c52 0 76 26 76 72v121c0 46 -24 72 -76 72s-76 -26 -76 -72v-121c0 -46 24 -72 76 -72zM161 531l-44 59c44 34 97 77 143 117
c46 -40 99 -83 143 -117l-44 -59c-45 27 -65 40 -99 65c-34 -25 -54 -38 -99 -65z" />
    <glyph glyph-name="otilde" unicode="&#xf5;" horiz-adv-x="520" 
d="M260 -10c-173 0 -220 97 -220 197v113c0 100 47 197 220 197s220 -97 220 -197v-113c0 -100 -47 -197 -220 -197zM260 111c52 0 76 26 76 72v121c0 46 -24 72 -76 72s-76 -26 -76 -72v-121c0 -46 24 -72 76 -72zM318 546c-29 0 -47 7 -67 21c-18 13 -29 22 -46 22
c-23 0 -38 -27 -50 -45l-58 45c23 45 59 87 105 87c24 0 41 -5 65 -21c23 -15 37 -23 51 -23c22 0 32 14 38 41l68 -31c-17 -60 -54 -96 -106 -96z" />
    <glyph glyph-name="odieresis" unicode="&#xf6;" horiz-adv-x="520" 
d="M260 -10c-173 0 -220 97 -220 197v113c0 100 47 197 220 197s220 -97 220 -197v-113c0 -100 -47 -197 -220 -197zM260 111c52 0 76 26 76 72v121c0 46 -24 72 -76 72s-76 -26 -76 -72v-121c0 -46 24 -72 76 -72zM212 554h-114v118h114v-118zM422 554h-114v118h114v-118z
" />
    <glyph glyph-name="divide" unicode="&#xf7;" horiz-adv-x="524" 
d="M329 0h-134v136h134v-136zM469 198h-414v92h414v-92zM329 351h-134v136h134v-136z" />
    <glyph glyph-name="oslash" unicode="&#xf8;" horiz-adv-x="520" 
d="M260 -10c-54 0 -95 9 -127 25l-46 -65l-44 30l46 66c-36 37 -49 89 -49 141v113c0 100 47 197 220 197c54 0 95 -9 127 -25l46 65l44 -31l-46 -66c36 -37 49 -88 49 -140v-113c0 -100 -47 -197 -220 -197zM184 183v-2l127 182c-12 8 -29 13 -51 13c-52 0 -76 -26 -76 -72
v-121zM260 111c52 0 76 26 76 72v121l-127 -180c12 -9 29 -13 51 -13z" />
    <glyph glyph-name="ugrave" unicode="&#xf9;" horiz-adv-x="553" 
d="M60 487h144v-322c0 -22 10 -35 35 -35c26 0 74 18 105 35v322h144v-487h-107l-15 37c-60 -29 -138 -47 -194 -47c-83 0 -112 62 -112 156v341zM344 613l-50 -76c-56 31 -95 55 -155 94l54 84c53 -39 102 -71 151 -102z" />
    <glyph glyph-name="uacute" unicode="&#xfa;" horiz-adv-x="553" 
d="M60 487h144v-322c0 -22 10 -35 35 -35c26 0 74 18 105 35v322h144v-487h-107l-15 37c-60 -29 -138 -47 -194 -47c-83 0 -112 62 -112 156v341zM255 537l-50 76c49 31 98 63 151 102l54 -84c-60 -39 -99 -63 -155 -94z" />
    <glyph glyph-name="ucircumflex" unicode="&#xfb;" horiz-adv-x="553" 
d="M60 487h144v-322c0 -22 10 -35 35 -35c26 0 74 18 105 35v322h144v-487h-107l-15 37c-60 -29 -138 -47 -194 -47c-83 0 -112 62 -112 156v341zM187 531l-44 59c44 34 97 77 143 117c46 -40 99 -83 143 -117l-44 -59c-45 27 -65 40 -99 65c-34 -25 -54 -38 -99 -65z" />
    <glyph glyph-name="udieresis" unicode="&#xfc;" horiz-adv-x="553" 
d="M60 487h144v-322c0 -22 10 -35 35 -35c26 0 74 18 105 35v322h144v-487h-107l-15 37c-60 -29 -138 -47 -194 -47c-83 0 -112 62 -112 156v341zM238 554h-114v118h114v-118zM448 554h-114v118h114v-118z" />
    <glyph glyph-name="yacute" unicode="&#xfd;" horiz-adv-x="495" 
d="M280 -197h-136l57 197h-46l-150 487h146l99 -345l99 345h146l-153 -487zM243 537l-50 76c49 31 98 63 151 102l54 -84c-60 -39 -99 -63 -155 -94z" />
    <glyph glyph-name="thorn" unicode="&#xfe;" horiz-adv-x="537" 
d="M65 -217v903l144 20v-249c35 20 88 40 134 40c99 0 154 -61 154 -180v-147c0 -115 -50 -180 -164 -180c-40 0 -91 6 -124 14v-201zM209 334v-207c25 -6 62 -12 92 -12c38 0 52 23 52 55v147c0 34 -14 55 -52 55c-33 0 -71 -20 -92 -38z" />
    <glyph glyph-name="ydieresis" unicode="&#xff;" horiz-adv-x="495" 
d="M280 -197h-136l57 197h-46l-150 487h146l99 -345l99 345h146l-153 -487zM202 554h-114v118h114v-118zM412 554h-114v118h114v-118z" />
    <glyph glyph-name="Amacron" unicode="&#x100;" horiz-adv-x="627" 
d="M413 666l204 -666h-156l-36 130h-223l-36 -130h-156l203 666h200zM313 534l-77 -279h153zM440 730h-254v92h254v-92z" />
    <glyph glyph-name="amacron" unicode="&#x101;" horiz-adv-x="499" 
d="M444 0h-118l-10 31c-56 -31 -106 -41 -139 -41c-90 0 -127 65 -127 148c0 98 45 137 145 137h105v37c0 50 -9 67 -86 67c-43 0 -86 -5 -132 -14l-19 108c46 14 119 24 175 24c169 0 206 -51 206 -186v-311zM300 119v56h-69c-31 0 -43 -8 -43 -35s11 -38 39 -38
c30 0 51 7 73 17zM382 560h-254v92h254v-92z" />
    <glyph glyph-name="Abreve" unicode="&#x102;" horiz-adv-x="627" 
d="M413 666l204 -666h-156l-36 130h-223l-36 -130h-156l203 666h200zM313 534l-77 -279h153zM389 855l67 -32c-12 -61 -59 -110 -143 -110s-131 49 -143 110l67 32c11 -40 35 -66 76 -66s65 26 76 66z" />
    <glyph glyph-name="abreve" unicode="&#x103;" horiz-adv-x="499" 
d="M444 0h-118l-10 31c-56 -31 -106 -41 -139 -41c-90 0 -127 65 -127 148c0 98 45 137 145 137h105v37c0 50 -9 67 -86 67c-43 0 -86 -5 -132 -14l-19 108c46 14 119 24 175 24c169 0 206 -51 206 -186v-311zM300 119v56h-69c-31 0 -43 -8 -43 -35s11 -38 39 -38
c30 0 51 7 73 17zM348 689l67 -32c-9 -62 -61 -123 -154 -123s-145 61 -154 123l67 32c11 -40 39 -73 87 -73s76 33 87 73z" />
    <glyph glyph-name="Aogonek" unicode="&#x104;" horiz-adv-x="627" 
d="M413 666l204 -666h-35c-37 -28 -78 -65 -78 -95c0 -21 11 -30 34 -30c10 0 23 1 35 4l9 -75c-20 -8 -43 -11 -66 -11c-64 0 -108 31 -108 92c0 53 53 97 113 115h-60l-36 130h-223l-36 -130h-156l203 666h200zM313 534l-77 -279h153z" />
    <glyph glyph-name="aogonek" unicode="&#x105;" horiz-adv-x="499" 
d="M444 0c-32 -26 -78 -60 -78 -95c0 -21 11 -30 34 -30c10 0 23 1 35 4l9 -75c-20 -8 -43 -11 -66 -11c-64 0 -108 31 -108 92c0 49 43 87 98 115h-42l-10 31c-56 -31 -106 -41 -139 -41c-90 0 -127 65 -127 148c0 98 45 137 145 137h105v37c0 50 -9 67 -86 67
c-43 0 -86 -5 -132 -14l-19 108c46 14 119 24 175 24c169 0 206 -51 206 -186v-311zM300 119v56h-69c-31 0 -43 -8 -43 -35s11 -38 39 -38c30 0 51 7 73 17z" />
    <glyph glyph-name="Cacute" unicode="&#x106;" horiz-adv-x="521" 
d="M200 448v-230c0 -58 19 -92 93 -92c48 0 114 6 172 16l21 -131c-66 -14 -126 -21 -193 -21c-168 0 -243 83 -243 204v278c0 121 75 204 243 204c67 0 127 -7 193 -21l-21 -131c-58 10 -124 16 -172 16c-74 0 -93 -34 -93 -92zM272 707l-50 76c49 31 97 62 136 92l54 -84
c-48 -34 -83 -54 -140 -84z" />
    <glyph glyph-name="cacute" unicode="&#x107;" horiz-adv-x="406" 
d="M179 301v-115c0 -50 21 -73 79 -73c37 0 65 4 100 12l18 -120c-49 -11 -84 -15 -118 -15c-158 0 -223 59 -223 198v111c0 139 65 198 223 198c34 0 69 -4 118 -15l-18 -120c-30 7 -72 12 -100 12c-58 0 -79 -23 -79 -73zM199 537l-50 76c49 31 98 63 151 102l54 -84
c-60 -39 -99 -63 -155 -94z" />
    <glyph glyph-name="Ccircumflex" unicode="&#x108;" horiz-adv-x="521" 
d="M200 448v-230c0 -58 19 -92 93 -92c48 0 114 6 172 16l21 -131c-66 -14 -126 -21 -193 -21c-168 0 -243 83 -243 204v278c0 121 75 204 243 204c67 0 127 -7 193 -21l-21 -131c-58 10 -124 16 -172 16c-74 0 -93 -34 -93 -92zM423 774l-39 -62c-36 16 -56 26 -89 45
c-33 -19 -53 -29 -89 -45l-39 62c47 32 82 58 128 94c46 -36 81 -62 128 -94z" />
    <glyph glyph-name="ccircumflex" unicode="&#x109;" horiz-adv-x="406" 
d="M179 301v-115c0 -50 21 -73 79 -73c37 0 65 4 100 12l18 -120c-49 -11 -84 -15 -118 -15c-158 0 -223 59 -223 198v111c0 139 65 198 223 198c34 0 69 -4 118 -15l-18 -120c-30 7 -72 12 -100 12c-58 0 -79 -23 -79 -73zM130 531l-44 59c44 34 97 77 143 117
c46 -40 99 -83 143 -117l-44 -59c-45 27 -65 40 -99 65c-34 -25 -54 -38 -99 -65z" />
    <glyph glyph-name="Cdotaccent" unicode="&#x10a;" horiz-adv-x="521" 
d="M200 448v-230c0 -58 19 -92 93 -92c48 0 114 6 172 16l21 -131c-66 -14 -126 -21 -193 -21c-168 0 -243 83 -243 204v278c0 121 75 204 243 204c67 0 127 -7 193 -21l-21 -131c-58 10 -124 16 -172 16c-74 0 -93 -34 -93 -92zM366 728h-144v153h144v-153z" />
    <glyph glyph-name="cdotaccent" unicode="&#x10b;" horiz-adv-x="406" 
d="M179 301v-115c0 -50 21 -73 79 -73c37 0 65 4 100 12l18 -120c-49 -11 -84 -15 -118 -15c-158 0 -223 59 -223 198v111c0 139 65 198 223 198c34 0 69 -4 118 -15l-18 -120c-30 7 -72 12 -100 12c-58 0 -79 -23 -79 -73zM300 548h-144v153h144v-153z" />
    <glyph glyph-name="Ccaron" unicode="&#x10c;" horiz-adv-x="521" 
d="M200 448v-230c0 -58 19 -92 93 -92c48 0 114 6 172 16l21 -131c-66 -14 -126 -21 -193 -21c-168 0 -243 83 -243 204v278c0 121 75 204 243 204c67 0 127 -7 193 -21l-21 -131c-58 10 -124 16 -172 16c-74 0 -93 -34 -93 -92zM385 869l39 -62c-47 -32 -82 -58 -128 -94
c-46 36 -81 62 -128 94l39 62c36 -16 56 -26 89 -45c33 19 53 29 89 45z" />
    <glyph glyph-name="ccaron" unicode="&#x10d;" horiz-adv-x="406" 
d="M179 301v-115c0 -50 21 -73 79 -73c37 0 65 4 100 12l18 -120c-49 -11 -84 -15 -118 -15c-158 0 -223 59 -223 198v111c0 139 65 198 223 198c34 0 69 -4 118 -15l-18 -120c-30 7 -72 12 -100 12c-58 0 -79 -23 -79 -73zM92 644l44 59c45 -27 65 -40 99 -65
c34 25 54 38 99 65l44 -59c-44 -34 -97 -77 -143 -117c-46 40 -99 83 -143 117z" />
    <glyph glyph-name="Dcaron" unicode="&#x10e;" horiz-adv-x="598" 
d="M548 173c0 -89 -61 -173 -225 -173h-258v666h258c164 0 225 -83 225 -173v-320zM398 214v238c0 52 -18 81 -93 81h-90v-400h90c75 0 93 29 93 81zM383 869l39 -62c-47 -32 -82 -58 -128 -94c-46 36 -81 62 -128 94l39 62c36 -16 56 -26 89 -45c33 19 53 29 89 45z" />
    <glyph glyph-name="dcaron" unicode="&#x10f;" horiz-adv-x="620" 
d="M40 170v147c0 115 50 180 164 180c40 0 91 -6 124 -14v203l144 20v-706h-113l-15 39c-34 -22 -97 -49 -150 -49c-99 0 -154 61 -154 180zM328 153v207c-25 6 -62 12 -92 12c-38 0 -52 -23 -52 -55v-147c0 -34 14 -55 52 -55c33 0 71 20 92 38zM640 577l-52 -75l-40 28
l30 54h-48v102h110v-109z" />
    <glyph glyph-name="Dcroat" unicode="&#x110;" horiz-adv-x="634" 
d="M25 276v119h66v271h258c164 0 225 -83 225 -173v-320c0 -89 -61 -173 -225 -173h-258v276h-66zM424 214v238c0 52 -18 81 -93 81h-90v-138h88v-119h-88v-143h90c75 0 93 29 93 81z" />
    <glyph glyph-name="dcroat" unicode="&#x111;" horiz-adv-x="537" 
d="M253 542v71h75v73l144 20v-93h59v-71h-59v-542h-113l-15 39c-34 -22 -97 -49 -150 -49c-99 0 -154 61 -154 180v147c0 115 50 180 164 180c40 0 91 -6 124 -14v59h-75zM328 153v207c-25 6 -62 12 -92 12c-38 0 -52 -23 -52 -55v-147c0 -34 14 -55 52 -55
c33 0 71 20 92 38z" />
    <glyph glyph-name="Emacron" unicode="&#x112;" horiz-adv-x="534" 
d="M484 0h-419v666h419v-133h-269v-122h248v-133h-248v-145h269v-133zM410 730h-254v92h254v-92z" />
    <glyph glyph-name="emacron" unicode="&#x113;" horiz-adv-x="486" 
d="M446 193h-262v-14c0 -56 22 -71 88 -71c45 0 105 8 148 21l21 -108c-44 -16 -115 -31 -183 -31c-158 0 -218 78 -218 198v114c0 105 47 195 209 195s197 -96 197 -202v-102zM310 301v21c0 34 -10 62 -60 62s-66 -28 -66 -62v-21h126zM372 560h-254v92h254v-92z" />
    <glyph glyph-name="Ebreve" unicode="&#x114;" horiz-adv-x="534" 
d="M484 0h-419v666h419v-133h-269v-122h248v-133h-248v-145h269v-133zM364 855l67 -32c-12 -61 -59 -110 -143 -110s-131 49 -143 110l67 32c11 -40 35 -66 76 -66s65 26 76 66z" />
    <glyph glyph-name="ebreve" unicode="&#x115;" horiz-adv-x="486" 
d="M446 193h-262v-14c0 -56 22 -71 88 -71c45 0 105 8 148 21l21 -108c-44 -16 -115 -31 -183 -31c-158 0 -218 78 -218 198v114c0 105 47 195 209 195s197 -96 197 -202v-102zM310 301v21c0 34 -10 62 -60 62s-66 -28 -66 -62v-21h126zM338 689l67 -32
c-9 -62 -61 -123 -154 -123s-145 61 -154 123l67 32c11 -40 39 -73 87 -73s76 33 87 73z" />
    <glyph glyph-name="Edotaccent" unicode="&#x116;" horiz-adv-x="534" 
d="M484 0h-419v666h419v-133h-269v-122h248v-133h-248v-145h269v-133zM356 728h-144v153h144v-153z" />
    <glyph glyph-name="edotaccent" unicode="&#x117;" horiz-adv-x="486" 
d="M446 193h-262v-14c0 -56 22 -71 88 -71c45 0 105 8 148 21l21 -108c-44 -16 -115 -31 -183 -31c-158 0 -218 78 -218 198v114c0 105 47 195 209 195s197 -96 197 -202v-102zM310 301v21c0 34 -10 62 -60 62s-66 -28 -66 -62v-21h126zM319 548h-144v153h144v-153z" />
    <glyph glyph-name="Eogonek" unicode="&#x118;" horiz-adv-x="534" 
d="M434 -121l9 -75c-20 -8 -43 -11 -66 -11c-64 0 -108 31 -108 92c0 49 44 88 103 115h-307v666h419v-133h-269v-122h248v-133h-248v-145h269v-133h-41c-37 -28 -78 -65 -78 -95c0 -21 11 -30 34 -30c10 0 23 1 35 4z" />
    <glyph glyph-name="eogonek" unicode="&#x119;" horiz-adv-x="486" 
d="M410 -119l9 -76c-20 -8 -51 -12 -74 -12c-64 0 -110 31 -110 92c0 42 33 80 80 108c-19 -2 -38 -3 -57 -3c-158 0 -218 78 -218 198v114c0 105 47 195 209 195s197 -96 197 -202v-102h-262v-14c0 -56 22 -71 88 -71c45 0 105 8 148 21l21 -108
c-78 -42 -110 -81 -110 -116c0 -19 11 -30 33 -30c13 0 34 2 46 6zM310 301v21c0 34 -10 62 -60 62s-66 -28 -66 -62v-21h126z" />
    <glyph glyph-name="Ecaron" unicode="&#x11a;" horiz-adv-x="534" 
d="M484 0h-419v666h419v-133h-269v-122h248v-133h-248v-145h269v-133zM374 869l39 -62c-47 -32 -82 -58 -128 -94c-46 36 -81 62 -128 94l39 62c36 -16 56 -26 89 -45c33 19 53 29 89 45z" />
    <glyph glyph-name="ecaron" unicode="&#x11b;" horiz-adv-x="486" 
d="M446 193h-262v-14c0 -56 22 -71 88 -71c45 0 105 8 148 21l21 -108c-44 -16 -115 -31 -183 -31c-158 0 -218 78 -218 198v114c0 105 47 195 209 195s197 -96 197 -202v-102zM310 301v21c0 34 -10 62 -60 62s-66 -28 -66 -62v-21h126zM106 644l44 59c45 -27 65 -40 99 -65
c34 25 54 38 99 65l44 -59c-44 -34 -97 -77 -143 -117c-46 40 -99 83 -143 117z" />
    <glyph glyph-name="Gcircumflex" unicode="&#x11c;" horiz-adv-x="584" 
d="M524 22c-73 -21 -153 -32 -230 -32c-162 0 -244 83 -244 204v278c0 123 82 204 244 204c77 0 156 -10 213 -21l-18 -131c-58 9 -147 16 -195 16c-75 0 -94 -39 -94 -91v-229c0 -52 19 -95 94 -95c30 0 50 1 89 6v204h141v-313zM433 774l-39 -62c-36 16 -56 26 -89 45
c-33 -19 -53 -29 -89 -45l-39 62c47 32 82 58 128 94c46 -36 81 -62 128 -94z" />
    <glyph glyph-name="gcircumflex" unicode="&#x11d;" horiz-adv-x="484" 
d="M35 279v59c2 98 56 159 199 159c32 0 59 -4 83 -10h152v-68l-49 -18c8 -19 12 -41 13 -63v-59c0 -93 -65 -155 -199 -155h-15c-10 -6 -21 -13 -21 -27c0 -11 7 -19 16 -20c65 -7 85 -9 121 -12c82 -7 118 -35 118 -119c0 -117 -73 -153 -224 -153c-48 0 -130 8 -194 25
l21 105c58 -14 117 -20 160 -20c75 0 105 3 105 35c0 19 -9 24 -38 27c-55 5 -64 6 -124 12c-66 7 -104 21 -104 88c0 39 18 65 42 89c-42 25 -62 67 -62 125zM234 238c47 0 65 15 65 48v46c0 32 -17 51 -65 51s-65 -19 -65 -51v-46c0 -33 18 -48 65 -48zM147 531l-44 59
c44 34 97 77 143 117c46 -40 99 -83 143 -117l-44 -59c-45 27 -65 40 -99 65c-34 -25 -54 -38 -99 -65z" />
    <glyph glyph-name="Gbreve" unicode="&#x11e;" horiz-adv-x="584" 
d="M524 22c-73 -21 -153 -32 -230 -32c-162 0 -244 83 -244 204v278c0 123 82 204 244 204c77 0 156 -10 213 -21l-18 -131c-58 9 -147 16 -195 16c-75 0 -94 -39 -94 -91v-229c0 -52 19 -95 94 -95c30 0 50 1 89 6v204h141v-313zM383 855l67 -32
c-12 -61 -59 -110 -143 -110s-131 49 -143 110l67 32c11 -40 35 -66 76 -66s65 26 76 66z" />
    <glyph glyph-name="gbreve" unicode="&#x11f;" horiz-adv-x="484" 
d="M35 279v59c2 98 56 159 199 159c32 0 59 -4 83 -10h152v-68l-49 -18c8 -19 12 -41 13 -63v-59c0 -93 -65 -155 -199 -155h-15c-10 -6 -21 -13 -21 -27c0 -11 7 -19 16 -20c65 -7 85 -9 121 -12c82 -7 118 -35 118 -119c0 -117 -73 -153 -224 -153c-48 0 -130 8 -194 25
l21 105c58 -14 117 -20 160 -20c75 0 105 3 105 35c0 19 -9 24 -38 27c-55 5 -64 6 -124 12c-66 7 -104 21 -104 88c0 39 18 65 42 89c-42 25 -62 67 -62 125zM234 238c47 0 65 15 65 48v46c0 32 -17 51 -65 51s-65 -19 -65 -51v-46c0 -33 18 -48 65 -48zM336 689l67 -32
c-9 -62 -61 -123 -154 -123s-145 61 -154 123l67 32c11 -40 39 -73 87 -73s76 33 87 73z" />
    <glyph glyph-name="Gdotaccent" unicode="&#x120;" horiz-adv-x="584" 
d="M524 22c-73 -21 -153 -32 -230 -32c-162 0 -244 83 -244 204v278c0 123 82 204 244 204c77 0 156 -10 213 -21l-18 -131c-58 9 -147 16 -195 16c-75 0 -94 -39 -94 -91v-229c0 -52 19 -95 94 -95c30 0 50 1 89 6v204h141v-313zM375 728h-144v153h144v-153z" />
    <glyph glyph-name="gdotaccent" unicode="&#x121;" horiz-adv-x="489" 
d="M35 279v59c2 98 56 159 199 159c32 0 59 -4 83 -10h152v-68l-49 -18c8 -19 12 -41 13 -63v-59c0 -93 -65 -155 -199 -155h-15c-10 -6 -21 -13 -21 -27c0 -11 7 -19 16 -20c65 -7 85 -9 121 -12c82 -7 118 -35 118 -119c0 -117 -73 -153 -224 -153c-48 0 -130 8 -194 25
l21 105c58 -14 117 -20 160 -20c75 0 105 3 105 35c0 19 -9 24 -38 27c-55 5 -64 6 -124 12c-66 7 -104 21 -104 88c0 39 18 65 42 89c-42 25 -62 67 -62 125zM234 238c47 0 65 15 65 48v46c0 32 -17 51 -65 51s-65 -19 -65 -51v-46c0 -33 18 -48 65 -48zM313 548h-144v153
h144v-153z" />
    <glyph glyph-name="Gcommaaccent" unicode="&#x122;" horiz-adv-x="584" 
d="M524 22c-73 -21 -153 -32 -230 -32c-162 0 -244 83 -244 204v278c0 123 82 204 244 204c77 0 156 -10 213 -21l-18 -131c-58 9 -147 16 -195 16c-75 0 -94 -39 -94 -91v-229c0 -52 19 -95 94 -95c30 0 50 1 89 6v204h141v-313zM371 -197l-67 -106l-54 33l42 81h-42v140
h121v-148z" />
    <glyph glyph-name="gcommaaccent" unicode="&#x123;" horiz-adv-x="489" 
d="M184 680l62 99l50 -31l-39 -75h39v-130h-112v137zM35 279v59c2 98 56 159 199 159c32 0 59 -4 83 -10h152v-68l-49 -18c8 -19 12 -41 13 -63v-59c0 -93 -65 -155 -199 -155h-15c-10 -6 -21 -13 -21 -27c0 -11 7 -19 16 -20c65 -7 85 -9 121 -12c82 -7 118 -35 118 -119
c0 -117 -73 -153 -224 -153c-48 0 -130 8 -194 25l21 105c58 -14 117 -20 160 -20c75 0 105 3 105 35c0 19 -9 24 -38 27c-55 5 -64 6 -124 12c-66 7 -104 21 -104 88c0 39 18 65 42 89c-42 25 -62 67 -62 125zM234 238c47 0 65 15 65 48v46c0 32 -17 51 -65 51
s-65 -19 -65 -51v-46c0 -33 18 -48 65 -48z" />
    <glyph glyph-name="Hcircumflex" unicode="&#x124;" horiz-adv-x="645" 
d="M580 0h-150v268h-215v-268h-150v666h150v-265h215v265h150v-666zM447 774l-39 -62c-36 16 -56 26 -89 45c-33 -19 -53 -29 -89 -45l-39 62c47 32 82 58 128 94c46 -36 81 -62 128 -94z" />
    <glyph glyph-name="hcircumflex" unicode="&#x125;" horiz-adv-x="553" 
d="M493 0h-144v322c0 22 -10 35 -35 35c-26 0 -74 -20 -105 -36v-321h-144v686l142 20v-254c59 27 118 45 174 45c83 0 112 -62 112 -156v-341zM263 804l-39 -62c-36 16 -56 26 -89 45c-33 -19 -53 -29 -89 -45l-39 62c47 32 82 58 128 94c46 -36 81 -62 128 -94z" />
    <glyph glyph-name="Hbar" unicode="&#x126;" horiz-adv-x="655" 
d="M15 498v71h55v97h150v-97h215v97h150v-97h55v-71h-55v-498h-150v268h-215v-268h-150v498h-55zM220 401h215v97h-215v-97z" />
    <glyph glyph-name="hbar" unicode="&#x127;" horiz-adv-x="553" 
d="M6 542v71h59v73l142 20v-93h87v-71h-87v-90c59 27 118 45 174 45c83 0 112 -62 112 -156v-341h-144v322c0 22 -10 35 -35 35c-26 0 -74 -20 -105 -36v-321h-144v542h-59z" />
    <glyph glyph-name="Itilde" unicode="&#x128;" horiz-adv-x="290" 
d="M220 0h-150v666h150v-666zM210 717c-29 0 -47 7 -67 21c-18 13 -29 22 -46 22c-23 0 -38 -27 -50 -45l-58 45c23 45 59 87 105 87c24 0 41 -5 65 -21c23 -15 37 -23 51 -23c22 0 32 14 38 41l68 -31c-17 -60 -54 -96 -106 -96z" />
    <glyph glyph-name="itilde" unicode="&#x129;" horiz-adv-x="274" 
d="M209 0h-144v487h144v-487zM195 546c-29 0 -47 7 -67 21c-18 13 -29 22 -46 22c-23 0 -38 -27 -50 -45l-58 45c23 45 59 87 105 87c24 0 41 -5 65 -21c23 -15 37 -23 51 -23c22 0 32 14 38 41l68 -31c-17 -60 -54 -96 -106 -96z" />
    <glyph glyph-name="Imacron" unicode="&#x12a;" horiz-adv-x="290" 
d="M220 0h-150v666h150v-666zM273 730h-254v92h254v-92z" />
    <glyph glyph-name="imacron" unicode="&#x12b;" horiz-adv-x="274" 
d="M209 0h-144v487h144v-487zM264 560h-254v92h254v-92z" />
    <glyph glyph-name="Ibreve" unicode="&#x12c;" horiz-adv-x="290" 
d="M220 0h-150v666h150v-666zM221 855l67 -32c-12 -61 -59 -110 -143 -110s-131 49 -143 110l67 32c11 -40 35 -66 76 -66s65 26 76 66z" />
    <glyph glyph-name="ibreve" unicode="&#x12d;" horiz-adv-x="274" 
d="M209 0h-144v487h144v-487zM224 689l67 -32c-9 -62 -61 -123 -154 -123s-145 61 -154 123l67 32c11 -40 39 -73 87 -73s76 33 87 73z" />
    <glyph glyph-name="Iogonek" unicode="&#x12e;" horiz-adv-x="290" 
d="M193 -122l8 -74c-26 -9 -50 -11 -73 -11c-64 0 -111 31 -111 92c0 40 17 76 53 115v666h150v-666h-79c-27 -48 -34 -73 -34 -97c0 -18 7 -31 33 -31c17 0 41 3 53 6z" />
    <glyph glyph-name="iogonek" unicode="&#x12f;" horiz-adv-x="274" 
d="M182 -122l8 -74c-26 -9 -50 -11 -73 -11c-64 0 -111 31 -111 92c0 44 23 81 59 115v487h144v-487h-79c-27 -48 -34 -73 -34 -97c0 -18 7 -31 33 -31c17 0 41 3 53 6zM209 548h-144v153h144v-153z" />
    <glyph glyph-name="Idotaccent" unicode="&#x130;" horiz-adv-x="290" 
d="M220 0h-150v666h150v-666zM220 728h-144v153h144v-153z" />
    <glyph glyph-name="dotlessi" unicode="&#x131;" horiz-adv-x="274" 
d="M209 0h-144v487h144v-487z" />
    <glyph glyph-name="IJ" unicode="&#x132;" horiz-adv-x="565" 
d="M220 0h-150v666h150v-666zM363 -211l-89 106c73 59 81 70 81 105v666h150v-689c0 -63 -53 -119 -142 -188z" />
    <glyph glyph-name="ij" unicode="&#x133;" horiz-adv-x="538" 
d="M209 548h-144v153h144v-153zM209 0h-144v487h144v-487zM478 548h-144v153h144v-153zM346 -207l-87 94c45 42 75 66 75 109v491h144v-510c0 -58 -43 -110 -132 -184z" />
    <glyph glyph-name="Jcircumflex" unicode="&#x134;" horiz-adv-x="275" 
d="M73 -211l-89 106c73 59 81 70 81 105v666h150v-689c0 -63 -53 -119 -142 -188zM268 774l-39 -62c-36 16 -56 26 -89 45c-33 -19 -53 -29 -89 -45l-39 62c47 32 82 58 128 94c46 -36 81 -62 128 -94z" />
    <glyph glyph-name="jcircumflex" unicode="&#x135;" horiz-adv-x="264" 
d="M72 -207l-87 94c49 46 75 62 75 109v491h144v-510c0 -58 -43 -110 -132 -184zM33 531l-44 59c44 34 97 77 143 117c46 -40 99 -83 143 -117l-44 -59c-45 27 -65 40 -99 65c-34 -25 -54 -38 -99 -65z" />
    <glyph glyph-name="Kcommaaccent" unicode="&#x136;" horiz-adv-x="617" 
d="M65 0v666h150v-666h-150zM428 0l-194 340l180 326h169l-187 -326l201 -340h-169zM379 -197l-67 -106l-54 33l42 81h-42v140h121v-148z" />
    <glyph glyph-name="kcommaaccent" unicode="&#x137;" horiz-adv-x="527" 
d="M209 0h-144v686l144 20v-706zM228 245l124 242h154l-128 -242l134 -245h-154zM343 -197l-67 -106l-54 33l42 81h-42v140h121v-148z" />
    <glyph glyph-name="kgreenlandic" unicode="&#x138;" horiz-adv-x="527" 
d="M209 0h-144v487h144v-487zM228 245l124 242h154l-128 -242l134 -245h-154z" />
    <glyph glyph-name="Lacute" unicode="&#x139;" horiz-adv-x="499" 
d="M479 0h-414v666h150v-533h264v-133zM135 707l-50 76c49 31 97 62 136 92l54 -84c-48 -34 -83 -54 -140 -84z" />
    <glyph glyph-name="lacute" unicode="&#x13a;" horiz-adv-x="274" 
d="M209 0h-144v686l144 20v-706zM126 747l-50 76c49 31 97 62 136 92l54 -84c-48 -34 -83 -54 -140 -84z" />
    <glyph glyph-name="Lcommaaccent" unicode="&#x13b;" horiz-adv-x="499" 
d="M479 0h-414v666h150v-533h264v-133zM346 -197l-67 -106l-54 33l42 81h-42v140h121v-148z" />
    <glyph glyph-name="lcommaaccent" unicode="&#x13c;" horiz-adv-x="274" 
d="M209 0h-144v686l144 20v-706zM197 -197l-67 -106l-54 33l42 81h-42v140h121v-148z" />
    <glyph glyph-name="Lcaron" unicode="&#x13d;" horiz-adv-x="499" 
d="M479 0h-414v666h150v-533h264v-133zM440 577l-63 -95l-40 28l41 74h-48v102h110v-109z" />
    <glyph glyph-name="lcaron" unicode="&#x13e;" horiz-adv-x="373" 
d="M209 0h-144v686l144 20v-706zM398 577l-63 -95l-40 28l41 74h-48v102h110v-109z" />
    <glyph glyph-name="Ldot" unicode="&#x13f;" horiz-adv-x="499" 
d="M479 0h-414v666h150v-533h264v-133zM453 288h-144v153h144v-153z" />
    <glyph glyph-name="ldot" unicode="&#x140;" horiz-adv-x="428" 
d="M209 0h-144v686l144 20v-706zM418 198h-144v153h144v-153z" />
    <glyph glyph-name="Lslash" unicode="&#x141;" horiz-adv-x="529" 
d="M0 311l95 39v316h150v-255l135 55l34 -90l-169 -68v-175h264v-133h-414v247l-61 -24z" />
    <glyph glyph-name="lslash" unicode="&#x142;" horiz-adv-x="335" 
d="M10 323l75 30v333l144 20v-294l67 27l34 -90l-101 -40v-309h-144v251l-41 -16z" />
    <glyph glyph-name="Nacute" unicode="&#x143;" horiz-adv-x="676" 
d="M426 0l-218 438v-438h-143v666h184l219 -459v459h143v-666h-185zM334 707l-50 76c49 31 97 62 136 92l54 -84c-48 -34 -83 -54 -140 -84z" />
    <glyph glyph-name="nacute" unicode="&#x144;" horiz-adv-x="553" 
d="M493 0h-144v322c0 22 -10 35 -35 35c-26 0 -74 -18 -105 -35v-322h-144v487h107l15 -37c60 29 138 47 194 47c83 0 112 -62 112 -156v-341zM253 537l-50 76c49 31 98 63 151 102l54 -84c-60 -39 -99 -63 -155 -94z" />
    <glyph glyph-name="Ncommaaccent" unicode="&#x145;" horiz-adv-x="676" 
d="M426 0l-218 438v-438h-143v666h184l219 -459v459h143v-666h-185zM389 -197l-67 -106l-54 33l42 81h-42v140h121v-148z" />
    <glyph glyph-name="ncommaaccent" unicode="&#x146;" horiz-adv-x="553" 
d="M493 0h-144v322c0 22 -10 35 -35 35c-26 0 -74 -18 -105 -35v-322h-144v487h107l15 -37c60 29 138 47 194 47c83 0 112 -62 112 -156v-341zM342 -197l-67 -106l-54 33l42 81h-42v140h121v-148z" />
    <glyph glyph-name="Ncaron" unicode="&#x147;" horiz-adv-x="676" 
d="M426 0l-218 438v-438h-143v666h184l219 -459v459h143v-666h-185zM443 869l39 -62c-47 -32 -82 -58 -128 -94c-46 36 -81 62 -128 94l39 62c36 -16 56 -26 89 -45c33 19 53 29 89 45z" />
    <glyph glyph-name="ncaron" unicode="&#x148;" horiz-adv-x="553" 
d="M493 0h-144v322c0 22 -10 35 -35 35c-26 0 -74 -18 -105 -35v-322h-144v487h107l15 -37c60 29 138 47 194 47c83 0 112 -62 112 -156v-341zM144 644l44 59c45 -27 65 -40 99 -65c34 25 54 38 99 65l44 -59c-44 -34 -97 -77 -143 -117c-46 40 -99 83 -143 117z" />
    <glyph glyph-name="Eng" unicode="&#x14a;" horiz-adv-x="676" 
d="M426 0l-218 438v-438h-143v666h184l219 -459v459h143v-679c0 -80 -34 -111 -182 -194l-60 92c90 55 103 70 103 101v14h-46z" />
    <glyph glyph-name="eng" unicode="&#x14b;" horiz-adv-x="553" 
d="M311 -207l-60 92c79 56 98 70 98 101v336c0 22 -10 35 -35 35c-26 0 -74 -18 -105 -35v-322h-144v487h107l15 -37c60 29 138 47 194 47c83 0 112 -62 112 -156v-354c0 -80 -34 -111 -182 -194z" />
    <glyph glyph-name="Omacron" unicode="&#x14c;" horiz-adv-x="616" 
d="M566 472v-278c0 -101 -70 -204 -258 -204s-258 103 -258 204v278c0 101 70 204 258 204s258 -103 258 -204zM416 207v252c0 52 -33 84 -108 84s-108 -32 -108 -84v-252c0 -52 33 -84 108 -84s108 32 108 84zM435 730h-254v92h254v-92z" />
    <glyph glyph-name="omacron" unicode="&#x14d;" horiz-adv-x="520" 
d="M260 -10c-173 0 -220 97 -220 197v113c0 100 47 197 220 197s220 -97 220 -197v-113c0 -100 -47 -197 -220 -197zM260 111c52 0 76 26 76 72v121c0 46 -24 72 -76 72s-76 -26 -76 -72v-121c0 -46 24 -72 76 -72zM387 560h-254v92h254v-92z" />
    <glyph glyph-name="Obreve" unicode="&#x14e;" horiz-adv-x="616" 
d="M566 472v-278c0 -101 -70 -204 -258 -204s-258 103 -258 204v278c0 101 70 204 258 204s258 -103 258 -204zM416 207v252c0 52 -33 84 -108 84s-108 -32 -108 -84v-252c0 -52 33 -84 108 -84s108 32 108 84zM384 855l67 -32c-12 -61 -59 -110 -143 -110s-131 49 -143 110
l67 32c11 -40 35 -66 76 -66s65 26 76 66z" />
    <glyph glyph-name="obreve" unicode="&#x14f;" horiz-adv-x="520" 
d="M260 -10c-173 0 -220 97 -220 197v113c0 100 47 197 220 197s220 -97 220 -197v-113c0 -100 -47 -197 -220 -197zM260 111c52 0 76 26 76 72v121c0 46 -24 72 -76 72s-76 -26 -76 -72v-121c0 -46 24 -72 76 -72zM347 689l67 -32c-9 -62 -61 -123 -154 -123
s-145 61 -154 123l67 32c11 -40 39 -73 87 -73s76 33 87 73z" />
    <glyph glyph-name="Ohungarumlaut" unicode="&#x150;" horiz-adv-x="616" 
d="M566 472v-278c0 -101 -70 -204 -258 -204s-258 103 -258 204v278c0 101 70 204 258 204s258 -103 258 -204zM416 207v252c0 52 -33 84 -108 84s-108 -32 -108 -84v-252c0 -52 33 -84 108 -84s108 32 108 84zM227 705l-65 64c34 32 70 69 100 104l70 -71
c-31 -33 -66 -68 -105 -97zM407 705l-65 64c34 32 70 69 100 104l70 -71c-31 -33 -66 -68 -105 -97z" />
    <glyph glyph-name="ohungarumlaut" unicode="&#x151;" horiz-adv-x="520" 
d="M260 -10c-173 0 -220 97 -220 197v113c0 100 47 197 220 197s220 -97 220 -197v-113c0 -100 -47 -197 -220 -197zM260 111c52 0 76 26 76 72v121c0 46 -24 72 -76 72s-76 -26 -76 -72v-121c0 -46 24 -72 76 -72zM174 530l-64 64c42 38 75 72 118 121l70 -71
c-50 -51 -75 -75 -124 -114zM364 530l-64 64c42 38 75 72 118 121l70 -71c-50 -51 -75 -75 -124 -114z" />
    <glyph glyph-name="OE" unicode="&#x152;" horiz-adv-x="892" 
d="M50 462c0 101 70 204 258 204h534v-133h-269v-122h248v-133h-248v-145h269v-133h-534c-188 0 -258 103 -258 204v258zM308 533c-75 0 -108 -32 -108 -84v-232c0 -52 33 -84 108 -84h115v400h-115z" />
    <glyph glyph-name="oe" unicode="&#x153;" horiz-adv-x="782" 
d="M742 193h-262v-14c0 -56 22 -71 88 -71c45 0 102 6 150 20l19 -109c-44 -16 -125 -29 -183 -29c-65 0 -113 14 -148 40c-33 -22 -81 -40 -146 -40c-173 0 -220 97 -220 197v113c0 100 47 197 220 197c64 0 111 -18 145 -40c36 25 77 40 140 40c162 0 197 -102 197 -202
v-102zM260 111c50 0 74 24 76 68v131c-3 42 -27 66 -76 66c-52 0 -76 -26 -76 -72v-121c0 -46 24 -72 76 -72zM606 301v21c0 34 -10 62 -60 62s-66 -28 -66 -62v-21h126z" />
    <glyph glyph-name="Racute" unicode="&#x154;" horiz-adv-x="643" 
d="M450 0l-147 207h-88v-207h-150v666h277c162 0 222 -64 222 -189v-82c0 -83 -30 -139 -97 -167l161 -228h-178zM414 410v53c0 50 -19 70 -80 70h-119v-196h119c64 0 80 23 80 73zM277 707l-50 76c49 31 97 62 136 92l54 -84c-48 -34 -83 -54 -140 -84z" />
    <glyph glyph-name="racute" unicode="&#x155;" horiz-adv-x="345" 
d="M338 361c-43 -17 -98 -42 -129 -64v-297h-144v487h120l10 -47c30 20 92 49 131 57zM153 537l-50 76c49 31 98 63 151 102l54 -84c-60 -39 -99 -63 -155 -94z" />
    <glyph glyph-name="Rcommaaccent" unicode="&#x156;" horiz-adv-x="643" 
d="M450 0l-147 207h-88v-207h-150v666h277c162 0 222 -64 222 -189v-82c0 -83 -30 -139 -97 -167l161 -228h-178zM414 410v53c0 50 -19 70 -80 70h-119v-196h119c64 0 80 23 80 73zM384 -197l-67 -106l-54 33l42 81h-42v140h121v-148z" />
    <glyph glyph-name="rcommaaccent" unicode="&#x157;" horiz-adv-x="345" 
d="M338 361c-43 -17 -98 -42 -129 -64v-297h-144v487h120l10 -47c30 20 92 49 131 57zM196 -197l-67 -106l-54 33l42 81h-42v140h121v-148z" />
    <glyph glyph-name="Rcaron" unicode="&#x158;" horiz-adv-x="643" 
d="M450 0l-147 207h-88v-207h-150v666h277c162 0 222 -64 222 -189v-82c0 -83 -30 -139 -97 -167l161 -228h-178zM414 410v53c0 50 -19 70 -80 70h-119v-196h119c64 0 80 23 80 73zM387 869l39 -62c-47 -32 -82 -58 -128 -94c-46 36 -81 62 -128 94l39 62
c36 -16 56 -26 89 -45c33 19 53 29 89 45z" />
    <glyph glyph-name="rcaron" unicode="&#x159;" horiz-adv-x="345" 
d="M338 361c-43 -17 -98 -42 -129 -64v-297h-144v487h120l10 -47c30 20 92 49 131 57zM47 644l44 59c45 -27 65 -40 99 -65c34 25 54 38 99 65l44 -59c-44 -34 -97 -77 -143 -117c-46 40 -99 83 -143 117z" />
    <glyph glyph-name="Sacute" unicode="&#x15a;" horiz-adv-x="544" 
d="M504 187c0 -132 -43 -197 -244 -197c-77 0 -158 17 -215 43l25 116c61 -19 123 -32 192 -32c77 0 92 15 92 71c0 60 -3 67 -112 91c-161 35 -185 67 -185 211c0 133 47 186 230 186c58 0 128 -6 202 -22l-15 -126c-76 13 -125 19 -185 19c-67 0 -82 -12 -82 -61
c0 -64 3 -65 108 -90c180 -43 189 -78 189 -209zM258 707l-50 76c49 31 97 62 136 92l54 -84c-48 -34 -83 -54 -140 -84z" />
    <glyph glyph-name="sacute" unicode="&#x15b;" horiz-adv-x="433" 
d="M398 145c0 -100 -42 -155 -181 -155c-53 0 -129 13 -177 29l23 107c40 -12 93 -22 147 -22c43 0 50 12 50 41c0 31 -1 35 -79 54c-118 29 -129 61 -129 152c0 103 40 146 186 146c37 0 105 -5 148 -16l-13 -112c-43 8 -96 14 -134 14c-42 0 -52 -11 -52 -33
c0 -30 4 -34 62 -47c139 -31 149 -61 149 -158zM203 537l-50 76c49 31 98 63 151 102l54 -84c-60 -39 -99 -63 -155 -94z" />
    <glyph glyph-name="Scircumflex" unicode="&#x15c;" horiz-adv-x="544" 
d="M504 187c0 -132 -43 -197 -244 -197c-77 0 -158 17 -215 43l25 116c61 -19 123 -32 192 -32c77 0 92 15 92 71c0 60 -3 67 -112 91c-161 35 -185 67 -185 211c0 133 47 186 230 186c58 0 128 -6 202 -22l-15 -126c-76 13 -125 19 -185 19c-67 0 -82 -12 -82 -61
c0 -64 3 -65 108 -90c180 -43 189 -78 189 -209zM421 774l-39 -62c-36 16 -56 26 -89 45c-33 -19 -53 -29 -89 -45l-39 62c47 32 82 58 128 94c46 -36 81 -62 128 -94z" />
    <glyph glyph-name="scircumflex" unicode="&#x15d;" horiz-adv-x="433" 
d="M398 145c0 -100 -42 -155 -181 -155c-53 0 -129 13 -177 29l23 107c40 -12 93 -22 147 -22c43 0 50 12 50 41c0 31 -1 35 -79 54c-118 29 -129 61 -129 152c0 103 40 146 186 146c37 0 105 -5 148 -16l-13 -112c-43 8 -96 14 -134 14c-42 0 -52 -11 -52 -33
c0 -30 4 -34 62 -47c139 -31 149 -61 149 -158zM133 531l-44 59c44 34 97 77 143 117c46 -40 99 -83 143 -117l-44 -59c-45 27 -65 40 -99 65c-34 -25 -54 -38 -99 -65z" />
    <glyph glyph-name="Scedilla" unicode="&#x15e;" horiz-adv-x="544" 
d="M385 -115c0 -50 -28 -82 -112 -82c-21 0 -61 7 -84 16l14 55c17 -5 42 -10 62 -10c31 0 47 4 47 22c0 23 -11 22 -35 22c-10 0 -26 -1 -42 -2l-20 17l14 68c-67 4 -135 19 -184 42l25 116c61 -19 123 -32 192 -32c77 0 92 15 92 71c0 60 -3 67 -112 91
c-161 35 -185 67 -185 211c0 133 47 186 230 186c58 0 128 -6 202 -22l-15 -126c-76 13 -125 19 -185 19c-67 0 -82 -12 -82 -61c0 -64 3 -65 108 -90c180 -43 189 -78 189 -209c0 -125 -38 -189 -211 -196l-7 -38c73 10 99 -13 99 -68z" />
    <glyph glyph-name="Scedilla" unicode="&#xf6c1;" horiz-adv-x="544" 
d="M385 -115c0 -50 -28 -82 -112 -82c-21 0 -61 7 -84 16l14 55c17 -5 42 -10 62 -10c31 0 47 4 47 22c0 23 -11 22 -35 22c-10 0 -26 -1 -42 -2l-20 17l14 68c-67 4 -135 19 -184 42l25 116c61 -19 123 -32 192 -32c77 0 92 15 92 71c0 60 -3 67 -112 91
c-161 35 -185 67 -185 211c0 133 47 186 230 186c58 0 128 -6 202 -22l-15 -126c-76 13 -125 19 -185 19c-67 0 -82 -12 -82 -61c0 -64 3 -65 108 -90c180 -43 189 -78 189 -209c0 -125 -38 -189 -211 -196l-7 -38c73 10 99 -13 99 -68z" />
    <glyph glyph-name="scedilla" unicode="&#x15f;" horiz-adv-x="433" 
d="M327 -115c0 -50 -28 -82 -112 -82c-21 0 -61 7 -84 16l14 55c17 -5 42 -10 62 -10c31 0 47 4 47 22c0 23 -11 22 -35 22c-10 0 -26 -1 -42 -2l-20 17l15 70c-46 4 -97 14 -132 26l23 107c40 -12 93 -22 147 -22c43 0 50 12 50 41c0 31 -1 35 -79 54
c-118 29 -129 61 -129 152c0 103 40 146 186 146c37 0 105 -5 148 -16l-13 -112c-43 8 -96 14 -134 14c-42 0 -52 -11 -52 -33c0 -30 4 -34 62 -47c139 -31 149 -61 149 -158c0 -96 -39 -149 -163 -154l-7 -38c73 10 99 -13 99 -68z" />
    <glyph glyph-name="scedilla" unicode="&#xf6c2;" horiz-adv-x="433" 
d="M327 -115c0 -50 -28 -82 -112 -82c-21 0 -61 7 -84 16l14 55c17 -5 42 -10 62 -10c31 0 47 4 47 22c0 23 -11 22 -35 22c-10 0 -26 -1 -42 -2l-20 17l15 70c-46 4 -97 14 -132 26l23 107c40 -12 93 -22 147 -22c43 0 50 12 50 41c0 31 -1 35 -79 54
c-118 29 -129 61 -129 152c0 103 40 146 186 146c37 0 105 -5 148 -16l-13 -112c-43 8 -96 14 -134 14c-42 0 -52 -11 -52 -33c0 -30 4 -34 62 -47c139 -31 149 -61 149 -158c0 -96 -39 -149 -163 -154l-7 -38c73 10 99 -13 99 -68z" />
    <glyph glyph-name="Scaron" unicode="&#x160;" horiz-adv-x="544" 
d="M504 187c0 -132 -43 -197 -244 -197c-77 0 -158 17 -215 43l25 116c61 -19 123 -32 192 -32c77 0 92 15 92 71c0 60 -3 67 -112 91c-161 35 -185 67 -185 211c0 133 47 186 230 186c58 0 128 -6 202 -22l-15 -126c-76 13 -125 19 -185 19c-67 0 -82 -12 -82 -61
c0 -64 3 -65 108 -90c180 -43 189 -78 189 -209zM378 869l39 -62c-47 -32 -82 -58 -128 -94c-46 36 -81 62 -128 94l39 62c36 -16 56 -26 89 -45c33 19 53 29 89 45z" />
    <glyph glyph-name="scaron" unicode="&#x161;" horiz-adv-x="433" 
d="M398 145c0 -100 -42 -155 -181 -155c-53 0 -129 13 -177 29l23 107c40 -12 93 -22 147 -22c43 0 50 12 50 41c0 31 -1 35 -79 54c-118 29 -129 61 -129 152c0 103 40 146 186 146c37 0 105 -5 148 -16l-13 -112c-43 8 -96 14 -134 14c-42 0 -52 -11 -52 -33
c0 -30 4 -34 62 -47c139 -31 149 -61 149 -158zM90 644l44 59c45 -27 65 -40 99 -65c34 25 54 38 99 65l44 -59c-44 -34 -97 -77 -143 -117c-46 40 -99 83 -143 117z" />
    <glyph glyph-name="Tcommaaccent" unicode="&#x162;" horiz-adv-x="532" 
d="M520 533h-179v-533h-150v533h-179v133h508v-133zM327 -197l-67 -106l-54 33l42 81h-42v140h121v-148z" />
    <glyph glyph-name="Tcommaaccent" unicode="&#x21a;" horiz-adv-x="532" 
d="M520 533h-179v-533h-150v533h-179v133h508v-133zM327 -197l-67 -106l-54 33l42 81h-42v140h121v-148z" />
    <glyph glyph-name="tcommaaccent" unicode="&#x163;" horiz-adv-x="360" 
d="M332 8c-32 -11 -71 -18 -104 -18c-93 0 -147 35 -147 125v256h-66v116h66v117l144 20v-137h111l-8 -116h-103v-236c0 -20 12 -27 30 -27c16 0 39 2 60 9zM270 -197l-67 -106l-54 33l42 81h-42v140h121v-148z" />
    <glyph glyph-name="tcommaaccent" unicode="&#x21b;" horiz-adv-x="360" 
d="M332 8c-32 -11 -71 -18 -104 -18c-93 0 -147 35 -147 125v256h-66v116h66v117l144 20v-137h111l-8 -116h-103v-236c0 -20 12 -27 30 -27c16 0 39 2 60 9zM270 -197l-67 -106l-54 33l42 81h-42v140h121v-148z" />
    <glyph glyph-name="Tcaron" unicode="&#x164;" horiz-adv-x="532" 
d="M520 533h-179v-533h-150v533h-179v133h508v-133zM355 869l39 -62c-47 -32 -82 -58 -128 -94c-46 36 -81 62 -128 94l39 62c36 -16 56 -26 89 -45c33 19 53 29 89 45z" />
    <glyph glyph-name="tcaron" unicode="&#x165;" horiz-adv-x="365" 
d="M332 8c-32 -11 -71 -18 -104 -18c-93 0 -147 35 -147 125v256h-66v116h66v117l144 20v-137h111l-8 -116h-103v-236c0 -20 12 -27 30 -27c16 0 39 2 60 9zM390 587l-49 -69l-40 28l27 48h-48v102h110v-109z" />
    <glyph glyph-name="Tbar" unicode="&#x166;" horiz-adv-x="532" 
d="M72 288v71h119v174h-179v133h508v-133h-179v-174h119v-71h-119v-288h-150v288h-119z" />
    <glyph glyph-name="tbar" unicode="&#x167;" horiz-adv-x="360" 
d="M15 214v71h66v86h-66v116h66v117l144 20v-137h111l-8 -116h-103v-86h94v-71h-94v-79c0 -20 12 -27 30 -27c16 0 39 2 60 9l17 -109c-32 -11 -71 -18 -104 -18c-93 0 -147 35 -147 125v99h-66z" />
    <glyph glyph-name="Utilde" unicode="&#x168;" horiz-adv-x="622" 
d="M412 666h150v-472c0 -101 -63 -204 -251 -204s-251 103 -251 204v472h150v-458c0 -54 26 -85 101 -85s101 31 101 85v458zM375 717c-29 0 -47 7 -67 21c-18 13 -29 22 -46 22c-23 0 -38 -27 -50 -45l-58 45c23 45 59 87 105 87c24 0 41 -5 65 -21c23 -15 37 -23 51 -23
c22 0 32 14 38 41l68 -31c-17 -60 -54 -96 -106 -96z" />
    <glyph glyph-name="utilde" unicode="&#x169;" horiz-adv-x="553" 
d="M60 487h144v-322c0 -22 10 -35 35 -35c26 0 74 18 105 35v322h144v-487h-107l-15 37c-60 -29 -138 -47 -194 -47c-83 0 -112 62 -112 156v341zM342 546c-29 0 -47 7 -67 21c-18 13 -29 22 -46 22c-23 0 -38 -27 -50 -45l-58 45c23 45 59 87 105 87c24 0 41 -5 65 -21
c23 -15 37 -23 51 -23c22 0 32 14 38 41l68 -31c-17 -60 -54 -96 -106 -96z" />
    <glyph glyph-name="Umacron" unicode="&#x16a;" horiz-adv-x="622" 
d="M412 666h150v-472c0 -101 -63 -204 -251 -204s-251 103 -251 204v472h150v-458c0 -54 26 -85 101 -85s101 31 101 85v458zM439 730h-254v92h254v-92z" />
    <glyph glyph-name="umacron" unicode="&#x16b;" horiz-adv-x="553" 
d="M60 487h144v-322c0 -22 10 -35 35 -35c26 0 74 18 105 35v322h144v-487h-107l-15 37c-60 -29 -138 -47 -194 -47c-83 0 -112 62 -112 156v341zM407 560h-254v92h254v-92z" />
    <glyph glyph-name="Ubreve" unicode="&#x16c;" horiz-adv-x="622" 
d="M412 666h150v-472c0 -101 -63 -204 -251 -204s-251 103 -251 204v472h150v-458c0 -54 26 -85 101 -85s101 31 101 85v458zM387 855l67 -32c-12 -61 -59 -110 -143 -110s-131 49 -143 110l67 32c11 -40 35 -66 76 -66s65 26 76 66z" />
    <glyph glyph-name="ubreve" unicode="&#x16d;" horiz-adv-x="553" 
d="M60 487h144v-322c0 -22 10 -35 35 -35c26 0 74 18 105 35v322h144v-487h-107l-15 37c-60 -29 -138 -47 -194 -47c-83 0 -112 62 -112 156v341zM374 689l67 -32c-9 -62 -61 -123 -154 -123s-145 61 -154 123l67 32c11 -40 39 -73 87 -73s76 33 87 73z" />
    <glyph glyph-name="Uring" unicode="&#x16e;" horiz-adv-x="622" 
d="M412 666h150v-472c0 -101 -63 -204 -251 -204s-251 103 -251 204v472h150v-458c0 -54 26 -85 101 -85s101 31 101 85v458zM399 791c0 -46 -34 -84 -88 -84s-88 34 -88 84c0 47 34 85 88 85s88 -38 88 -85zM345 791c0 22 -13 36 -34 36s-34 -14 -34 -36
c0 -21 13 -35 34 -35s34 14 34 35z" />
    <glyph glyph-name="uring" unicode="&#x16f;" horiz-adv-x="553" 
d="M60 487h144v-322c0 -22 10 -35 35 -35c26 0 74 18 105 35v322h144v-487h-107l-15 37c-60 -29 -138 -47 -194 -47c-83 0 -112 62 -112 156v341zM376 620c0 -51 -34 -93 -97 -93s-97 38 -97 93c0 51 35 93 97 93c63 0 97 -42 97 -93zM316 620c0 24 -14 40 -37 40
s-37 -16 -37 -40s14 -40 37 -40s37 16 37 40z" />
    <glyph glyph-name="Uhungarumlaut" unicode="&#x170;" horiz-adv-x="622" 
d="M412 666h150v-472c0 -101 -63 -204 -251 -204s-251 103 -251 204v472h150v-458c0 -54 26 -85 101 -85s101 31 101 85v458zM229 705l-65 64c34 32 70 69 100 104l70 -71c-31 -33 -66 -68 -105 -97zM409 705l-65 64c34 32 70 69 100 104l70 -71c-31 -33 -66 -68 -105 -97z
" />
    <glyph glyph-name="uhungarumlaut" unicode="&#x171;" horiz-adv-x="553" 
d="M60 487h144v-322c0 -22 10 -35 35 -35c26 0 74 18 105 35v322h144v-487h-107l-15 37c-60 -29 -138 -47 -194 -47c-83 0 -112 62 -112 156v341zM191 530l-64 64c42 38 75 72 118 121l70 -71c-50 -51 -75 -75 -124 -114zM381 530l-64 64c42 38 75 72 118 121l70 -71
c-50 -51 -75 -75 -124 -114z" />
    <glyph glyph-name="Uogonek" unicode="&#x172;" horiz-adv-x="622" 
d="M394 -121l9 -75c-20 -8 -43 -11 -66 -11c-64 0 -108 31 -108 92c0 43 34 79 82 105c-188 0 -251 103 -251 204v472h150v-458c0 -54 26 -85 101 -85s101 31 101 85v458h150v-472c0 -83 -42 -166 -159 -194c-37 -28 -78 -65 -78 -95c0 -21 11 -30 34 -30c10 0 23 1 35 4z
" />
    <glyph glyph-name="uogonek" unicode="&#x173;" horiz-adv-x="553" 
d="M448 -121l9 -75c-20 -8 -43 -11 -66 -11c-64 0 -108 31 -108 92c0 49 43 87 98 115l-15 37c-60 -29 -138 -47 -194 -47c-83 0 -112 62 -112 156v341h144v-322c0 -22 10 -35 35 -35c26 0 74 18 105 35v322h144v-487h-31c-32 -26 -78 -60 -78 -95c0 -21 11 -30 34 -30
c10 0 23 1 35 4z" />
    <glyph glyph-name="Wcircumflex" unicode="&#x174;" horiz-adv-x="944" 
d="M939 666l-163 -666h-191l-112 506l-113 -506h-191l-164 666h148l113 -476l116 476h183l114 -476l112 476h148zM601 774l-39 -62c-36 16 -56 26 -89 45c-33 -19 -53 -29 -89 -45l-39 62c47 32 82 58 128 94c46 -36 81 -62 128 -94z" />
    <glyph glyph-name="wcircumflex" unicode="&#x175;" horiz-adv-x="705" 
d="M447 0l-95 318l-94 -318h-156l-84 487h132l46 -285l85 285h144l84 -285l46 285h132l-84 -487h-156zM253 531l-44 59c44 34 97 77 143 117c46 -40 99 -83 143 -117l-44 -59c-45 27 -65 40 -99 65c-34 -25 -54 -38 -99 -65z" />
    <glyph glyph-name="Ycircumflex" unicode="&#x176;" horiz-adv-x="564" 
d="M564 666l-207 -474v-192h-150v192l-207 474h157l125 -309l125 309h157zM410 774l-39 -62c-36 16 -56 26 -89 45c-33 -19 -53 -29 -89 -45l-39 62c47 32 82 58 128 94c46 -36 81 -62 128 -94z" />
    <glyph glyph-name="ycircumflex" unicode="&#x177;" horiz-adv-x="495" 
d="M280 -197h-136l57 197h-46l-150 487h146l99 -345l99 345h146l-153 -487zM153 531l-44 59c44 34 97 77 143 117c46 -40 99 -83 143 -117l-44 -59c-45 27 -65 40 -99 65c-34 -25 -54 -38 -99 -65z" />
    <glyph glyph-name="Ydieresis" unicode="&#x178;" horiz-adv-x="564" 
d="M564 666l-207 -474v-192h-150v192l-207 474h157l125 -309l125 309h157zM238 727h-114v109h114v-109zM440 727h-114v109h114v-109z" />
    <glyph glyph-name="Zacute" unicode="&#x179;" horiz-adv-x="566" 
d="M511 543l-290 -420h295v-123h-466v122l293 421h-280v123h448v-123zM271 707l-50 76c49 31 97 62 136 92l54 -84c-48 -34 -83 -54 -140 -84z" />
    <glyph glyph-name="zacute" unicode="&#x17a;" horiz-adv-x="460" 
d="M46 377v110h368v-110l-202 -267h208v-110h-375v110l201 267h-200zM208 537l-50 76c49 31 98 63 151 102l54 -84c-60 -39 -99 -63 -155 -94z" />
    <glyph glyph-name="Zdotaccent" unicode="&#x17b;" horiz-adv-x="566" 
d="M511 543l-290 -420h295v-123h-466v122l293 421h-280v123h448v-123zM364 728h-144v153h144v-153z" />
    <glyph glyph-name="zdotaccent" unicode="&#x17c;" horiz-adv-x="460" 
d="M46 377v110h368v-110l-202 -267h208v-110h-375v110l201 267h-200zM309 548h-144v153h144v-153z" />
    <glyph glyph-name="Zcaron" unicode="&#x17d;" horiz-adv-x="566" 
d="M511 543l-290 -420h295v-123h-466v122l293 421h-280v123h448v-123zM388 869l39 -62c-47 -32 -82 -58 -128 -94c-46 36 -81 62 -128 94l39 62c36 -16 56 -26 89 -45c33 19 53 29 89 45z" />
    <glyph glyph-name="zcaron" unicode="&#x17e;" horiz-adv-x="460" 
d="M46 377v110h368v-110l-202 -267h208v-110h-375v110l201 267h-200zM95 644l44 59c45 -27 65 -40 99 -65c34 25 54 38 99 65l44 -59c-44 -34 -97 -77 -143 -117c-46 40 -99 83 -143 117z" />
    <glyph glyph-name="florin" unicode="&#x192;" horiz-adv-x="496" 
d="M5 -188l24 115c10 -2 25 -4 40 -4c41 0 51 20 53 52l30 334h-79l10 118h79l10 118c9 100 57 156 179 156c41 0 81 -5 120 -14l-23 -114c-20 4 -58 8 -80 8c-46 0 -50 -20 -53 -52l-9 -102h131l-20 -118h-121l-31 -350c-9 -100 -61 -156 -179 -156c-22 0 -52 3 -81 9z" />
    <glyph glyph-name="Aringacute" unicode="&#x1fa;" horiz-adv-x="627" 
d="M413 666l204 -666h-156l-36 130h-223l-36 -130h-156l203 666h200zM313 534l-77 -279h153zM401 791c0 -46 -34 -84 -88 -84s-88 34 -88 84c0 47 34 85 88 85s88 -38 88 -85zM347 791c0 22 -13 36 -34 36s-34 -14 -34 -36c0 -21 13 -35 34 -35s34 14 34 35zM320 904l-41 70
c49 31 77 49 120 81l49 -76c-48 -32 -76 -50 -128 -75z" />
    <glyph glyph-name="aringacute" unicode="&#x1fb;" horiz-adv-x="499" 
d="M444 0h-118l-10 31c-56 -31 -106 -41 -139 -41c-90 0 -127 65 -127 148c0 98 45 137 145 137h105v37c0 50 -9 67 -86 67c-43 0 -86 -5 -132 -14l-19 108c46 14 119 24 175 24c169 0 206 -51 206 -186v-311zM300 119v56h-69c-31 0 -43 -8 -43 -35s11 -38 39 -38
c30 0 51 7 73 17zM348 621c0 -46 -34 -84 -88 -84s-88 34 -88 84c0 47 34 85 88 85s88 -38 88 -85zM294 621c0 22 -13 36 -34 36s-34 -14 -34 -36c0 -21 13 -35 34 -35s34 14 34 35zM257 734l-41 70c49 31 77 49 120 81l49 -76c-48 -32 -76 -50 -128 -75z" />
    <glyph glyph-name="AEacute" unicode="&#x1fc;" horiz-adv-x="855" 
d="M805 0h-344l-36 130h-223l-36 -130h-156l203 666h592v-133h-352l38 -122h293v-133h-253l45 -145h229v-133zM313 534l-77 -279h153zM370 707l-50 76c49 31 97 62 136 92l54 -84c-48 -34 -83 -54 -140 -84z" />
    <glyph glyph-name="aeacute" unicode="&#x1fd;" horiz-adv-x="746" 
d="M706 193h-262v-22c2 -50 25 -63 88 -63c45 0 105 8 148 21l21 -108c-44 -16 -115 -31 -183 -31s-118 14 -153 40c-52 -27 -106 -40 -168 -40c-98 0 -147 65 -147 148c0 98 45 137 145 137h105v37c0 50 -9 67 -86 67c-43 0 -86 -5 -132 -14l-19 108c46 14 119 24 175 24
c68 0 112 -15 146 -37c32 21 72 37 125 37c162 0 197 -96 197 -202v-102zM570 301v21c0 34 -10 62 -60 62s-66 -28 -66 -62v-21h126zM300 119v56h-69c-31 0 -43 -8 -43 -35s11 -38 39 -38c30 0 51 7 73 17zM376 537l-50 76c49 31 98 63 151 102l54 -84
c-60 -39 -99 -63 -155 -94z" />
    <glyph glyph-name="Oslashacute" unicode="&#x1fe;" horiz-adv-x="616" 
d="M50 -25l52 85c-37 38 -52 86 -52 134v278c0 101 70 204 258 204c62 0 111 -12 149 -30l49 80l60 -36l-52 -85c36 -38 52 -86 52 -133v-278c0 -101 -70 -204 -258 -204c-62 0 -112 11 -150 30l-48 -80zM200 459v-237l184 303c-18 11 -43 18 -76 18
c-75 0 -108 -32 -108 -84zM308 123c75 0 108 32 108 84v236l-184 -302c17 -12 42 -18 76 -18zM299 707l-50 76c49 31 97 62 136 92l54 -84c-48 -34 -83 -54 -140 -84z" />
    <glyph glyph-name="oslashacute" unicode="&#x1ff;" horiz-adv-x="520" 
d="M260 -10c-54 0 -95 9 -127 25l-46 -65l-44 30l46 66c-36 37 -49 89 -49 141v113c0 100 47 197 220 197c54 0 95 -9 127 -25l46 65l44 -31l-46 -66c36 -37 49 -88 49 -140v-113c0 -100 -47 -197 -220 -197zM184 183v-2l127 182c-12 8 -29 13 -51 13c-52 0 -76 -26 -76 -72
v-121zM260 111c52 0 76 26 76 72v121l-127 -180c12 -9 29 -13 51 -13zM251 537l-50 76c49 31 98 63 151 102l54 -84c-60 -39 -99 -63 -155 -94z" />
    <glyph glyph-name="Scommaaccent" unicode="&#x218;" horiz-adv-x="544" 
d="M504 187c0 -132 -43 -197 -244 -197c-77 0 -158 17 -215 43l25 116c61 -19 123 -32 192 -32c77 0 92 15 92 71c0 60 -3 67 -112 91c-161 35 -185 67 -185 211c0 133 47 186 230 186c58 0 128 -6 202 -22l-15 -126c-76 13 -125 19 -185 19c-67 0 -82 -12 -82 -61
c0 -64 3 -65 108 -90c180 -43 189 -78 189 -209zM344 -197l-67 -106l-54 33l42 81h-42v140h121v-148z" />
    <glyph glyph-name="scommaaccent" unicode="&#x219;" horiz-adv-x="433" 
d="M398 145c0 -100 -42 -155 -181 -155c-53 0 -129 13 -177 29l23 107c40 -12 93 -22 147 -22c43 0 50 12 50 41c0 31 -1 35 -79 54c-118 29 -129 61 -129 152c0 103 40 146 186 146c37 0 105 -5 148 -16l-13 -112c-43 8 -96 14 -134 14c-42 0 -52 -11 -52 -33
c0 -30 4 -34 62 -47c139 -31 149 -61 149 -158zM276 -197l-67 -106l-54 33l42 81h-42v140h121v-148z" />
    <glyph glyph-name="circumflex" unicode="&#x2c6;" horiz-adv-x="376" 
d="M89 531l-44 59c44 34 97 77 143 117c46 -40 99 -83 143 -117l-44 -59c-45 27 -65 40 -99 65c-34 -25 -54 -38 -99 -65z" />
    <glyph glyph-name="caron" unicode="&#x2c7;" horiz-adv-x="376" 
d="M45 644l44 59c45 -27 65 -40 99 -65c34 25 54 38 99 65l44 -59c-44 -34 -97 -77 -143 -117c-46 40 -99 83 -143 117z" />
    <glyph glyph-name="breve" unicode="&#x2d8;" horiz-adv-x="398" 
d="M286 689l67 -32c-9 -62 -61 -123 -154 -123s-145 61 -154 123l67 32c11 -40 39 -73 87 -73s76 33 87 73z" />
    <glyph glyph-name="dotaccent" unicode="&#x2d9;" horiz-adv-x="234" 
d="M189 548h-144v153h144v-153z" />
    <glyph glyph-name="ring" unicode="&#x2da;" horiz-adv-x="284" 
d="M239 620c0 -51 -34 -93 -97 -93s-97 38 -97 93c0 51 35 93 97 93c63 0 97 -42 97 -93zM179 620c0 24 -14 40 -37 40s-37 -16 -37 -40s14 -40 37 -40s37 16 37 40z" />
    <glyph glyph-name="ogonek" unicode="&#x2db;" horiz-adv-x="264" 
d="M210 -121l9 -75c-20 -8 -43 -11 -66 -11c-64 0 -108 31 -108 92c0 49 43 87 98 115h76c-32 -26 -78 -60 -78 -95c0 -21 11 -30 34 -30c10 0 23 1 35 4z" />
    <glyph glyph-name="tilde" unicode="&#x2dc;" horiz-adv-x="417" 
d="M266 546c-29 0 -47 7 -67 21c-18 13 -29 22 -46 22c-23 0 -38 -27 -50 -45l-58 45c23 45 59 87 105 87c24 0 41 -5 65 -21c23 -15 37 -23 51 -23c22 0 32 14 38 41l68 -31c-17 -60 -54 -96 -106 -96z" />
    <glyph glyph-name="hungarumlaut" unicode="&#x2dd;" horiz-adv-x="468" 
d="M109 530l-64 64c42 38 75 72 118 121l70 -71c-50 -51 -75 -75 -124 -114zM299 530l-64 64c42 38 75 72 118 121l70 -71c-50 -51 -75 -75 -124 -114z" />
    <glyph glyph-name="uni03A9" unicode="&#x3a9;" horiz-adv-x="682" 
d="M599 472v-271c0 -50 -16 -80 -38 -106h86v-95h-252v95c28 24 54 58 54 116v248c0 52 -33 84 -108 84s-108 -32 -108 -84v-248c0 -58 26 -92 54 -116v-95h-252v95h86c-22 26 -38 56 -38 106v271c0 101 70 204 258 204s258 -103 258 -204z" />
    <glyph glyph-name="pi" unicode="&#x3c0;" horiz-adv-x="677" 
d="M30 368v119h597v-119h-93v-241c0 -18 9 -26 28 -26c21 0 33 3 51 8l19 -102c-29 -10 -63 -17 -98 -17c-97 0 -140 52 -140 128v250h-128v-368h-140v368h-96z" />
    <glyph glyph-name="Wgrave" unicode="&#x1e80;" horiz-adv-x="944" 
d="M939 666l-163 -666h-191l-112 506l-113 -506h-191l-164 666h148l113 -476l116 476h183l114 -476l112 476h148zM538 783l-50 -76c-57 30 -92 50 -140 84l54 84c39 -30 87 -61 136 -92z" />
    <glyph glyph-name="wgrave" unicode="&#x1e81;" horiz-adv-x="705" 
d="M447 0l-95 318l-94 -318h-156l-84 487h132l46 -285l85 285h144l84 -285l46 285h132l-84 -487h-156zM409 613l-50 -76c-56 31 -95 55 -155 94l54 84c53 -39 102 -71 151 -102z" />
    <glyph glyph-name="Wacute" unicode="&#x1e82;" horiz-adv-x="944" 
d="M939 666l-163 -666h-191l-112 506l-113 -506h-191l-164 666h148l113 -476l116 476h183l114 -476l112 476h148zM470 707l-50 76c49 31 97 62 136 92l54 -84c-48 -34 -83 -54 -140 -84z" />
    <glyph glyph-name="wacute" unicode="&#x1e83;" horiz-adv-x="705" 
d="M447 0l-95 318l-94 -318h-156l-84 487h132l46 -285l85 285h144l84 -285l46 285h132l-84 -487h-156zM353 537l-50 76c49 31 98 63 151 102l54 -84c-60 -39 -99 -63 -155 -94z" />
    <glyph glyph-name="Wdieresis" unicode="&#x1e84;" horiz-adv-x="944" 
d="M939 666l-163 -666h-191l-112 506l-113 -506h-191l-164 666h148l113 -476l116 476h183l114 -476l112 476h148zM429 727h-114v109h114v-109zM631 727h-114v109h114v-109z" />
    <glyph glyph-name="wdieresis" unicode="&#x1e85;" horiz-adv-x="705" 
d="M447 0l-95 318l-94 -318h-156l-84 487h132l46 -285l85 285h144l84 -285l46 285h132l-84 -487h-156zM303 554h-114v118h114v-118zM513 554h-114v118h114v-118z" />
    <glyph glyph-name="Ygrave" unicode="&#x1ef2;" horiz-adv-x="564" 
d="M564 666l-207 -474v-192h-150v192l-207 474h157l125 -309l125 309h157zM349 783l-50 -76c-57 30 -92 50 -140 84l54 84c39 -30 87 -61 136 -92z" />
    <glyph glyph-name="ygrave" unicode="&#x1ef3;" horiz-adv-x="495" 
d="M280 -197h-136l57 197h-46l-150 487h146l99 -345l99 345h146l-153 -487zM320 613l-50 -76c-56 31 -95 55 -155 94l54 84c53 -39 102 -71 151 -102z" />
    <glyph glyph-name="endash" unicode="&#x2013;" horiz-adv-x="478" 
d="M428 220h-378v120h378v-120z" />
    <glyph glyph-name="emdash" unicode="&#x2014;" horiz-adv-x="628" 
d="M578 220h-528v120h528v-120z" />
    <glyph glyph-name="quoteleft" unicode="&#x2018;" horiz-adv-x="268" 
d="M65 567l88 139l65 -37l-57 -112h48v-166h-144v176z" />
    <glyph glyph-name="quoteright" unicode="&#x2019;" horiz-adv-x="258" 
d="M203 510l-88 -139l-65 37l57 112h-48v166h144v-176z" />
    <glyph glyph-name="quotesinglbase" unicode="&#x201a;" horiz-adv-x="273" 
d="M208 -10l-88 -139l-65 37l57 112h-48v166h144v-176z" />
    <glyph glyph-name="quotedblleft" unicode="&#x201c;" horiz-adv-x="483" 
d="M65 567l88 139l65 -37l-57 -112h48v-166h-144v176zM280 567l88 139l65 -37l-57 -112h48v-166h-144v176z" />
    <glyph glyph-name="quotedblright" unicode="&#x201d;" horiz-adv-x="483" 
d="M418 510l-88 -139l-65 37l57 112h-48v166h144v-176zM203 510l-88 -139l-65 37l57 112h-48v166h144v-176z" />
    <glyph glyph-name="quotedblbase" unicode="&#x201e;" horiz-adv-x="488" 
d="M423 -10l-88 -139l-65 37l57 112h-48v166h144v-176zM208 -10l-88 -139l-65 37l57 112h-48v166h144v-176z" />
    <glyph glyph-name="dagger" unicode="&#x2020;" horiz-adv-x="444" 
d="M414 405h-140v-475h-104v475h-140v96h140v165h104v-165h140v-96z" />
    <glyph glyph-name="daggerdbl" unicode="&#x2021;" horiz-adv-x="444" 
d="M30 191h140v214h-140v96h140v165h104v-165h140v-96h-140v-214h140v-96h-140v-165h-104v165h-140v96z" />
    <glyph glyph-name="bullet" unicode="&#x2022;" horiz-adv-x="348" 
d="M40 323c0 74 60 134 134 134s134 -60 134 -134s-60 -134 -134 -134s-134 60 -134 134z" />
    <glyph glyph-name="ellipsis" unicode="&#x2026;" horiz-adv-x="822" 
d="M209 0h-144v166h144v-166zM483 0h-144v166h144v-166zM757 0h-144v166h144v-166z" />
    <glyph glyph-name="perthousand" unicode="&#x2030;" horiz-adv-x="1285" 
d="M356 452c0 -83 -34 -145 -160 -145s-161 62 -161 145v74c0 83 35 145 161 145s160 -62 160 -145v-74zM245 534c0 30 -12 41 -49 41s-50 -11 -50 -41v-90c0 -30 13 -41 50 -41s49 11 49 41v90zM267 26l268 650l88 -35l-268 -651zM852 140c0 -83 -34 -145 -160 -145
s-161 62 -161 145v74c0 83 35 145 161 145s160 -62 160 -145v-74zM741 222c0 30 -12 41 -49 41s-50 -11 -50 -41v-90c0 -30 13 -41 50 -41s49 11 49 41v90zM1245 140c0 -83 -34 -145 -160 -145s-161 62 -161 145v74c0 83 35 145 161 145s160 -62 160 -145v-74zM1134 222
c0 30 -12 41 -49 41s-50 -11 -50 -41v-90c0 -30 13 -41 50 -41s49 11 49 41v90z" />
    <glyph glyph-name="guilsinglleft" unicode="&#x2039;" horiz-adv-x="343" 
d="M172 51l-127 193l127 193l96 -57l-89 -136l89 -136z" />
    <glyph glyph-name="guilsinglright" unicode="&#x203a;" horiz-adv-x="343" 
d="M298 244l-127 -193l-96 57l89 136l-89 136l96 57z" />
    <glyph glyph-name="fraction" unicode="&#x2044;" horiz-adv-x="388" 
d="M0 -10l310 701l78 -35l-309 -700z" />
    <glyph glyph-name="Euro" unicode="&#x20ac;" horiz-adv-x="529" 
d="M15 356v76h79v20c0 123 75 204 243 204c54 0 107 -4 157 -17l-18 -131c-58 10 -91 12 -139 12c-64 0 -92 -33 -93 -88h175v-76h-175v-66h175v-76h-175c1 -56 29 -88 93 -88c39 0 81 2 139 12l18 -131c-55 -13 -105 -17 -157 -17c-168 0 -243 81 -243 204v20h-79v76h79v66
h-79z" />
    <glyph glyph-name="uni2113" unicode="&#x2113;" horiz-adv-x="539" 
d="M318 -10c-146 0 -199 63 -209 152c-19 -11 -38 -21 -58 -31l-56 97c38 21 75 43 112 63v242c0 123 64 193 197 193c117 0 185 -69 185 -161c0 -131 -85 -225 -240 -321v-46c0 -51 24 -71 80 -71c42 0 90 11 142 33l33 -110c-65 -29 -122 -40 -186 -40zM249 531v-168
c63 50 105 102 105 178c0 33 -22 50 -50 50c-36 0 -55 -19 -55 -60z" />
    <glyph glyph-name="uni2116" unicode="&#x2116;" horiz-adv-x="998" 
d="M392 0l-188 433v-433h-139v666h170l189 -454v454h139v-666h-171zM654 162v85h309v-85h-309zM973 531v-89c0 -80 -45 -145 -164 -145s-164 65 -164 145v89c0 80 45 145 164 145s164 -65 164 -145zM865 440v93c0 34 -14 53 -56 53s-56 -19 -56 -53v-93c0 -34 14 -53 56 -53
s56 19 56 53z" />
    <glyph glyph-name="trademark" unicode="&#x2122;" horiz-adv-x="452" 
d="M291 488l-32 82l-2 -108h-46l8 204h48l47 -123l46 123h49l8 -204h-47l-2 109l-32 -83h-45zM186 622h-54v-160h-49v160h-53v44h156v-44z" />
    <glyph glyph-name="estimated" unicode="&#x212e;" horiz-adv-x="784" 
d="M749 301h-572v-201c54 -47 127 -76 215 -76c120 0 203 42 291 130l24 -24c-78 -80 -170 -140 -315 -140c-202 0 -357 152 -357 333c0 183 163 333 357 333s357 -150 357 -333v-22zM392 622c-84 0 -159 -31 -215 -80v-209h430v209c-56 49 -131 80 -215 80z" />
    <glyph glyph-name="partialdiff" unicode="&#x2202;" horiz-adv-x="575" 
d="M300 696c168 0 230 -73 230 -196c0 -24 -3 -57 -9 -89l-42 -234c-21 -119 -64 -187 -253 -187c-140 0 -191 65 -191 146c0 13 2 27 4 41l11 63c19 109 49 187 222 187c36 0 77 -8 104 -18l5 31c3 18 5 35 5 48c0 60 -29 83 -108 83c-44 0 -90 -8 -141 -24l-28 111
c61 24 130 38 191 38zM247 111c61 0 79 14 87 62l20 116c-16 9 -46 17 -78 17c-55 0 -72 -14 -81 -62l-13 -71c-1 -7 -2 -14 -2 -23c0 -28 16 -39 67 -39z" />
    <glyph glyph-name="Delta" unicode="&#x2206;" horiz-adv-x="713" 
d="M429 666l244 -666h-633l244 666h145zM356 481l-124 -348h248z" />
    <glyph glyph-name="product" unicode="&#x220f;" horiz-adv-x="787" 
d="M636 -100h-144v633h-197v-633h-144v633h-116v133h717v-133h-116v-633z" />
    <glyph glyph-name="summation" unicode="&#x2211;" horiz-adv-x="538" 
d="M60 -100v133l190 255l-195 245v133h411v-133h-224l194 -242l-195 -258h242v-133h-423z" />
    <glyph glyph-name="minus" unicode="&#x2212;" horiz-adv-x="368" 
d="M328 178h-288v120h288v-120z" />
    <glyph glyph-name="radical" unicode="&#x221a;" horiz-adv-x="684" 
d="M684 730v-120h-151l-183 -610h-158l-147 459l126 38l97 -330l161 563h255z" />
    <glyph glyph-name="infinity" unicode="&#x221e;" horiz-adv-x="894" 
d="M447 360c65 58 127 107 213 107c120 0 204 -63 204 -186s-88 -184 -204 -184c-86 0 -148 49 -213 106c-65 -57 -127 -106 -213 -106c-116 0 -204 61 -204 184s84 186 204 186c86 0 148 -49 213 -107zM157 281c0 -46 31 -68 77 -68c44 0 84 28 129 69
c-45 40 -85 69 -129 69c-36 0 -77 -24 -77 -70zM737 281c0 46 -41 70 -77 70c-44 0 -84 -29 -129 -69c45 -41 85 -69 129 -69c46 0 77 22 77 68z" />
    <glyph glyph-name="integral" unicode="&#x222b;" horiz-adv-x="410" 
d="M118 530c0 100 48 146 135 146c36 0 84 -11 117 -25l-26 -112c-17 7 -41 12 -53 12c-20 0 -29 -10 -29 -32v-580c0 -100 -48 -146 -135 -146c-36 0 -84 11 -117 25l26 103c17 -7 41 -12 53 -12c20 0 29 10 29 32v589z" />
    <glyph glyph-name="approxequal" unicode="&#x2248;" horiz-adv-x="545" 
d="M196 118c-36 0 -68 -20 -93 -41l-48 88c31 32 88 67 145 67c79 0 121 -60 166 -60c30 0 57 16 79 38l55 -82c-29 -28 -78 -67 -140 -67c-74 0 -96 57 -164 57zM196 318c-36 0 -68 -20 -93 -41l-48 88c31 32 88 67 145 67c79 0 121 -60 166 -60c30 0 57 16 79 38l55 -82
c-29 -28 -78 -67 -140 -67c-74 0 -96 57 -164 57z" />
    <glyph glyph-name="notequal" unicode="&#x2260;" 
d="M86 15l47 91h-78v96h128l51 98h-179v96h229l73 139l81 -42l-51 -97h83v-96h-133l-51 -98h184v-96h-234l-69 -133z" />
    <glyph glyph-name="lessequal" unicode="&#x2264;" horiz-adv-x="515" 
d="M394 135l-331 177v74l331 172l43 -81l-250 -128l250 -133zM460 0h-415v96h415v-96z" />
    <glyph glyph-name="greaterequal" unicode="&#x2265;" horiz-adv-x="515" 
d="M452 312l-331 -177l-43 81l250 133l-250 128l43 81l331 -172v-74zM470 0h-415v96h415v-96z" />
    <glyph glyph-name="lozenge" unicode="&#x25ca;" horiz-adv-x="567" 
d="M328 666l214 -332l-214 -334h-90l-213 334l213 332h90zM415 334l-132 200l-131 -200l131 -202z" />
    <glyph glyph-name="apple" unicode="&#xf8ff;" horiz-adv-x="876" 
d="M786 333h-333v-333h-333v666h666v-333z" />
    <glyph glyph-name="Acute" horiz-adv-x="295" 
d="M100 707l-50 76c49 31 97 62 136 92l54 -84c-48 -34 -83 -54 -140 -84z" />
    <glyph glyph-name="Breve" horiz-adv-x="376" 
d="M264 855l67 -32c-12 -61 -59 -110 -143 -110s-131 49 -143 110l67 32c11 -40 35 -66 76 -66s65 26 76 66z" />
    <glyph glyph-name="Caron" horiz-adv-x="346" 
d="M262 869l39 -62c-47 -32 -82 -58 -128 -94c-46 36 -81 62 -128 94l39 62c36 -16 56 -26 89 -45c33 19 53 29 89 45z" />
    <glyph glyph-name="Cedilla" horiz-adv-x="286" 
d="M241 -115c0 -50 -28 -82 -112 -82c-21 0 -61 7 -84 16l14 55c17 -5 42 -10 62 -10c31 0 47 4 47 22c0 23 -11 22 -35 22c-10 0 -26 -1 -42 -2l-20 17l21 97h63l-13 -67c73 10 99 -13 99 -68z" />
    <glyph glyph-name="Circumflex" horiz-adv-x="346" 
d="M301 774l-39 -62c-36 16 -56 26 -89 45c-33 -19 -53 -29 -89 -45l-39 62c47 32 82 58 128 94c46 -36 81 -62 128 -94z" />
    <glyph glyph-name="commaaccent" horiz-adv-x="333" 
d="M231 -197l-67 -106l-54 33l42 81h-42v140h121v-148z" />
    <glyph glyph-name="Dieresis" horiz-adv-x="426" 
d="M169 727h-114v109h114v-109zM371 727h-114v109h114v-109z" />
    <glyph glyph-name="Dotaccent" horiz-adv-x="234" 
d="M189 728h-144v153h144v-153z" />
    <glyph glyph-name="Grave" horiz-adv-x="295" 
d="M245 783l-50 -76c-57 30 -92 50 -140 84l54 84c39 -30 87 -61 136 -92z" />
    <glyph glyph-name="Hungarumlaut" horiz-adv-x="440" 
d="M110 705l-65 64c34 32 70 69 100 104l70 -71c-31 -33 -66 -68 -105 -97zM290 705l-65 64c34 32 70 69 100 104l70 -71c-31 -33 -66 -68 -105 -97z" />
    <glyph glyph-name="Macron" horiz-adv-x="344" 
d="M299 730h-254v92h254v-92z" />
    <glyph glyph-name="Ogonek" horiz-adv-x="264" 
d="M210 -121l9 -75c-20 -8 -43 -11 -66 -11c-64 0 -108 31 -108 92c0 49 44 88 103 115h71c-37 -28 -78 -65 -78 -95c0 -21 11 -30 34 -30c10 0 23 1 35 4z" />
    <glyph glyph-name="Ring" horiz-adv-x="266" 
d="M221 791c0 -46 -34 -84 -88 -84s-88 34 -88 84c0 47 34 85 88 85s88 -38 88 -85zM167 791c0 22 -13 36 -34 36s-34 -14 -34 -36c0 -21 13 -35 34 -35s34 14 34 35z" />
    <glyph glyph-name="Tilde" horiz-adv-x="417" 
d="M266 717c-29 0 -47 7 -67 21c-18 13 -29 22 -46 22c-23 0 -38 -27 -50 -45l-58 45c23 45 59 87 105 87c24 0 41 -5 65 -21c23 -15 37 -23 51 -23c22 0 32 14 38 41l68 -31c-17 -60 -54 -96 -106 -96z" />
    <glyph glyph-name="ampersand.salt" horiz-adv-x="678" 
d="M270 185v110h190c96 0 125 14 167 44l51 -91c-31 -30 -73 -51 -140 -59v-10c0 -115 -62 -189 -248 -189c-158 0 -240 51 -240 198v116c0 139 79 193 243 193c42 0 112 -5 160 -16l-16 -117c-39 7 -105 10 -144 10c-70 0 -99 -18 -99 -68v-123c0 -57 31 -73 96 -73
c98 0 112 20 112 68v7h-132z" />
    <glyph glyph-name="g.salt" horiz-adv-x="537" 
d="M40 292c0 116 33 205 234 205c61 0 138 -7 198 -17v-503c0 -128 -84 -184 -217 -184c-64 0 -137 7 -186 23l20 116c49 -13 101 -20 139 -20c93 0 100 34 100 84v36c-39 -15 -85 -27 -138 -27c-108 0 -150 67 -150 176v111zM328 157v213c-21 2 -39 2 -59 2
c-72 0 -85 -33 -85 -79v-111c0 -32 14 -52 52 -52c31 0 65 13 92 27z" />
    <glyph glyph-name="gcircumflex.salt" horiz-adv-x="537" 
d="M40 292c0 116 33 205 234 205c61 0 138 -7 198 -17v-503c0 -128 -84 -184 -217 -184c-64 0 -131 9 -186 23l20 116c49 -13 101 -20 139 -20c93 0 100 34 100 84v36c-39 -15 -85 -27 -138 -27c-108 0 -150 67 -150 176v111zM328 157v213c-21 2 -39 2 -59 2
c-72 0 -85 -33 -85 -79v-111c0 -32 14 -52 52 -52c31 0 65 13 92 27zM176 531l-44 59c44 34 97 77 143 117c46 -40 99 -83 143 -117l-44 -59c-45 27 -65 40 -99 65c-34 -25 -54 -38 -99 -65z" />
    <glyph glyph-name="gbreve.salt" horiz-adv-x="537" 
d="M40 292c0 116 33 205 234 205c61 0 138 -7 198 -17v-503c0 -128 -84 -184 -217 -184c-64 0 -131 9 -186 23l20 116c49 -13 101 -20 139 -20c93 0 100 34 100 84v36c-39 -15 -85 -27 -138 -27c-108 0 -150 67 -150 176v111zM328 157v213c-21 2 -39 2 -59 2
c-72 0 -85 -33 -85 -79v-111c0 -32 14 -52 52 -52c31 0 65 13 92 27zM361 689l67 -32c-9 -62 -61 -123 -154 -123s-145 61 -154 123l67 32c11 -40 39 -73 87 -73s76 33 87 73z" />
    <glyph glyph-name="gdotaccent.salt" horiz-adv-x="537" 
d="M40 292c0 116 33 205 234 205c61 0 138 -7 198 -17v-503c0 -128 -84 -184 -217 -184c-64 0 -131 9 -186 23l20 116c49 -13 101 -20 139 -20c93 0 100 34 100 84v36c-39 -15 -85 -27 -138 -27c-108 0 -150 67 -150 176v111zM328 157v213c-21 2 -39 2 -59 2
c-72 0 -85 -33 -85 -79v-111c0 -32 14 -52 52 -52c31 0 65 13 92 27zM343 548h-144v153h144v-153z" />
    <glyph glyph-name="gcommaaccent.salt" horiz-adv-x="537" 
d="M212 680l62 99l50 -31l-39 -75h39v-130h-112v137zM40 292c0 116 33 205 234 205c61 0 138 -7 198 -17v-503c0 -128 -84 -184 -217 -184c-64 0 -131 9 -186 23l20 116c49 -13 101 -20 139 -20c93 0 100 34 100 84v36c-39 -15 -85 -27 -138 -27c-108 0 -150 67 -150 176
v111zM328 157v213c-21 2 -39 2 -59 2c-72 0 -85 -33 -85 -79v-111c0 -32 14 -52 52 -52c31 0 65 13 92 27z" />
    <glyph glyph-name="i.turk" horiz-adv-x="274" 
d="M209 548h-144v153h144v-153zM209 0h-144v487h144v-487z" />
    <glyph glyph-name="minus.onum" horiz-adv-x="368" 
d="M328 178h-288v120h288v-120z" />
    <glyph glyph-name="multiply.onum" horiz-adv-x="480" 
d="M343 53l-103 103l-103 -103l-82 82l103 103l-103 103l82 82l103 -103l103 103l82 -82l-103 -103l103 -103z" />
    <glyph glyph-name="numbersign.onum" horiz-adv-x="615" 
d="M349 0l8 112h-127l-8 -112h-93l8 112h-102l6 89h102l8 113h-102l6 89h102l8 107h93l-8 -107h127l8 107h93l-8 -107h105l-6 -89h-105l-8 -113h104l-6 -89h-104l-8 -112h-93zM244 314l-8 -113h127l8 113h-127z" />
    <glyph glyph-name="dollar.onum" horiz-adv-x="486" 
d="M189 -105v97c-51 5 -104 16 -144 34l24 106c42 -14 107 -25 162 -25c54 0 66 13 66 43c0 35 0 38 -99 56c-136 25 -147 67 -147 164c0 93 42 136 144 147v98h116v-98c40 -3 83 -10 116 -19l-17 -113c-58 12 -109 18 -156 18c-48 0 -59 -9 -59 -40c0 -33 7 -36 94 -53
c131 -25 152 -55 152 -156c0 -88 -29 -145 -136 -159v-100h-116z" />
    <glyph glyph-name="percent.onum" horiz-adv-x="777" 
d="M317 -10l-87 40l224 490l87 -40zM176 231c-114 0 -141 56 -141 125v40c0 68 27 124 141 124c115 0 141 -56 141 -124v-40c0 -69 -26 -125 -141 -125zM215 406c0 20 -16 28 -39 28c-22 0 -39 -8 -39 -28v-61c0 -21 17 -28 39 -28c23 0 39 7 39 28v61zM596 -10
c-114 0 -141 56 -141 125v40c0 68 27 124 141 124c115 0 141 -56 141 -124v-40c0 -69 -26 -125 -141 -125zM635 165c0 20 -16 28 -39 28c-22 0 -39 -8 -39 -28v-61c0 -21 17 -28 39 -28c23 0 39 7 39 28v61z" />
    <glyph glyph-name="plus.onum" horiz-adv-x="517" 
d="M462 188h-146v-148h-115v148h-146v110h146v149h115v-149h146v-110z" />
    <glyph glyph-name="zero.onum" horiz-adv-x="552" 
d="M497 343v-176c0 -100 -52 -177 -221 -177s-221 77 -221 177v176c0 100 52 177 221 177s221 -77 221 -177zM197 325v-140c0 -50 20 -71 79 -71c60 0 79 21 79 71v140c0 50 -19 71 -79 71s-79 -21 -79 -71z" />
    <glyph glyph-name="one.onum" horiz-adv-x="394" 
d="M324 0h-144v343l-113 -61l-62 119l189 109h130v-510z" />
    <glyph glyph-name="two.onum" horiz-adv-x="505" 
d="M352 183c-35 -32 -41 -39 -70 -63h173v-120h-404v98c73 60 94 79 146 123c94 79 94 92 94 134v2c0 28 -21 37 -67 37c-39 0 -103 -10 -150 -25l-29 115c49 19 128 36 186 36c156 0 201 -48 201 -144v-12c0 -68 0 -108 -80 -181z" />
    <glyph glyph-name="three.onum" horiz-adv-x="476" 
d="M81 249h77c90 0 112 19 112 75v28c0 42 -28 53 -91 53c-44 0 -69 -5 -119 -14l-15 111c57 12 98 18 157 18c158 0 212 -50 212 -150v-47c0 -59 -25 -106 -87 -133c56 -13 99 -54 99 -123v-51c0 -98 -56 -162 -228 -162c-61 0 -101 5 -153 22l15 109c49 -9 65 -13 123 -13
c70 0 99 16 99 55v35c0 53 -27 64 -103 64h-98v123z" />
    <glyph glyph-name="four.onum" horiz-adv-x="565" 
d="M550 20h-90v-156h-140v156h-290v125l247 365h183v-373h90v-117zM320 137v224l-146 -224h146z" />
    <glyph glyph-name="five.onum" horiz-adv-x="481" 
d="M297 67c0 45 -12 57 -76 60c-72 3 -98 4 -152 5v378h358v-125h-214v-136c34 -1 44 -2 83 -4c115 -6 145 -63 145 -142v-71c-1 -114 -43 -178 -225 -178c-45 0 -116 8 -171 25l21 116c50 -11 101 -16 149 -16c68 0 82 19 82 61v27z" />
    <glyph glyph-name="six.onum" horiz-adv-x="523" 
d="M266 -10c-173 0 -211 88 -211 193v244c0 181 123 229 307 229c41 0 73 -4 98 -8l-11 -119c-21 3 -42 6 -67 6c-130 0 -183 -24 -183 -107v-49c36 11 69 15 110 15c112 0 169 -48 169 -168v-43c0 -100 -39 -193 -212 -193zM266 114c52 0 68 19 68 62v44
c0 41 -23 50 -49 50c-33 0 -62 -7 -86 -18v-76c0 -46 15 -62 67 -62z" />
    <glyph glyph-name="seven.onum" horiz-adv-x="492" 
d="M462 388l-265 -524l-122 52l237 467h-277v127h427v-122z" />
    <glyph glyph-name="eight.onum" horiz-adv-x="544" 
d="M55 211c0 48 19 83 84 118c-52 34 -68 67 -68 112v56c0 101 52 159 201 159s201 -58 201 -159v-56c0 -48 -16 -79 -68 -112c65 -35 84 -69 84 -118v-51c0 -122 -58 -170 -217 -170s-217 48 -217 170v51zM194 162c0 -42 18 -54 78 -54s78 16 78 54v33c0 33 -4 45 -80 74
c-76 -29 -76 -41 -76 -74v-33zM210 443c0 -30 5 -40 64 -62c59 22 60 32 60 62v48c0 32 -11 48 -62 48s-62 -16 -62 -48v-48z" />
    <glyph glyph-name="nine.onum" horiz-adv-x="523" 
d="M257 520c173 0 211 -88 211 -193v-244c0 -181 -123 -229 -307 -229c-41 0 -73 4 -98 8l8 119c21 -3 45 -6 70 -6c130 0 183 24 183 107v49c-36 -11 -69 -15 -110 -15c-112 0 -169 48 -169 168v43c0 100 39 193 212 193zM257 396c-52 0 -68 -19 -68 -62v-44
c0 -41 23 -50 49 -50c33 0 62 7 86 18v76c0 46 -15 62 -67 62z" />
    <glyph glyph-name="less.onum" horiz-adv-x="566" 
d="M473 -10l-443 217v74l443 216l43 -85l-352 -168l352 -168z" />
    <glyph glyph-name="equal.onum" 
d="M470 300h-415v96h415v-96zM470 106h-415v96h415v-96z" />
    <glyph glyph-name="greater.onum" horiz-adv-x="566" 
d="M536 207l-443 -217l-43 86l352 168l-352 168l43 85l443 -216v-74z" />
    <glyph glyph-name="cent.onum" horiz-adv-x="469" 
d="M201 -75v110c-103 16 -146 72 -146 164v122c0 92 43 148 146 164v110h116v-107c31 -2 63 -7 97 -15l-16 -118c-43 9 -89 13 -130 13c-49 0 -69 -18 -69 -59v-98c0 -41 20 -59 69 -59c41 0 87 4 130 13l16 -118c-34 -8 -65 -13 -97 -16v-106h-116z" />
    <glyph glyph-name="sterling.onum" horiz-adv-x="531" 
d="M55 205v96h72c-10 29 -20 54 -20 89c0 88 48 130 188 130c63 0 129 -12 175 -29l-16 -102c-62 12 -106 18 -160 18c-33 0 -43 -10 -43 -33c0 -27 10 -48 20 -73h168l-6 -96h-143c-3 -35 -19 -71 -45 -93h241v-112h-415v106c28 18 67 59 74 99h-90z" />
    <glyph glyph-name="section.onum" horiz-adv-x="503" 
d="M243 28l-108 -38c-52 127 -90 253 -90 402c0 86 45 128 156 128c62 0 125 -14 174 -29l-17 -95c-42 10 -105 23 -150 23c-33 0 -43 -12 -43 -40c0 -127 31 -226 78 -351zM270 295l108 38c52 -127 90 -253 90 -402c0 -86 -45 -128 -156 -128c-62 0 -125 14 -174 29l17 95
c42 -10 105 -23 150 -23c33 0 43 12 43 40c0 127 -31 226 -78 351z" />
    <glyph glyph-name="yen.onum" horiz-adv-x="549" 
d="M426 312h73v-81h-111l-30 -61h141v-80h-151v-90h-148v90h-150v80h139l-30 61h-109v81h70l-95 198h147l102 -227l103 227h147z" />
    <glyph glyph-name="florin.onum" horiz-adv-x="470" 
d="M-5 -181l19 111c10 -2 38 -7 53 -7c30 0 41 10 44 43l17 188h-79l10 118h79l8 92c9 105 61 156 179 156c41 0 83 -7 115 -19l-22 -112c-24 7 -54 11 -76 11c-34 0 -49 -13 -52 -45l-8 -83h125l-14 -118h-121l-18 -208c-7 -81 -39 -143 -153 -143c-22 0 -75 5 -106 16z
" />
    <glyph glyph-name="endash.onum" horiz-adv-x="478" 
d="M428 220h-378v120h378v-120z" />
    <glyph glyph-name="divide.onum" horiz-adv-x="524" 
d="M329 0h-134v136h134v-136zM469 198h-414v92h414v-92zM329 351h-134v136h134v-136z" />
    <glyph glyph-name="Euro.onum" horiz-adv-x="477" 
d="M30 278v55h58v18c0 108 60 169 215 169c45 0 97 -6 144 -18l-16 -117c-43 9 -92 13 -130 13c-49 0 -69 -15 -69 -59v-6h113v-55h-113v-46h113v-55h-113v-6c0 -41 20 -59 69 -59c41 0 87 4 130 13l16 -118c-51 -12 -99 -17 -144 -17c-155 0 -215 61 -215 169v18h-58v55h58
v46h-58z" />
    <glyph glyph-name="perthousand.onum" horiz-adv-x="1107" 
d="M317 -10l-87 40l224 490l87 -40zM176 231c-114 0 -141 56 -141 125v40c0 68 27 124 141 124c115 0 141 -56 141 -124v-40c0 -69 -26 -125 -141 -125zM215 406c0 20 -16 28 -39 28c-22 0 -39 -8 -39 -28v-61c0 -21 17 -28 39 -28c23 0 39 7 39 28v61zM596 -10
c-114 0 -141 56 -141 125v40c0 68 27 124 141 124c115 0 141 -56 141 -124v-40c0 -69 -26 -125 -141 -125zM635 165c0 20 -16 28 -39 28c-22 0 -39 -8 -39 -28v-61c0 -21 17 -28 39 -28c23 0 39 7 39 28v61zM926 -10c-114 0 -141 56 -141 125v40c0 68 27 124 141 124
c115 0 141 -56 141 -124v-40c0 -69 -26 -125 -141 -125zM965 165c0 20 -16 28 -39 28c-22 0 -39 -8 -39 -28v-61c0 -21 17 -28 39 -28c23 0 39 7 39 28v61z" />
    <glyph glyph-name="minus.tnum" 
d="M406 178h-288v120h288v-120z" />
    <glyph glyph-name="multiply.tnum" 
d="M365 53l-103 103l-103 -103l-82 82l103 103l-103 103l82 82l103 -103l103 103l82 -82l-103 -103l103 -103z" />
    <glyph glyph-name="numbersign.tnum" 
d="M305 0l11 159h-110l-12 -159h-89l12 159h-75l6 85h75l12 161h-75l6 85h75l11 156h89l-11 -156h110l10 156h89l-10 -156h73l-6 -85h-73l-12 -161h72l-6 -85h-72l-11 -159h-89zM224 405l-12 -161h110l12 161h-110z" />
    <glyph glyph-name="dollar.tnum" 
d="M205 -121v113c-50 4 -98 12 -146 30l26 117c55 -16 106 -25 159 -25c69 0 81 16 81 72c0 55 -3 65 -93 83c-146 29 -167 71 -167 201c0 114 38 173 166 184v115h115v-116c38 -3 75 -8 111 -17l-15 -123c-45 10 -103 17 -163 17c-58 0 -70 -11 -70 -63c0 -56 5 -58 96 -81
c162 -41 164 -68 164 -199c0 -114 -24 -177 -149 -193v-115h-115z" />
    <glyph glyph-name="percent.tnum" horiz-adv-x="872" 
d="M356 457c0 -83 -34 -145 -160 -145s-161 62 -161 145v74c0 83 35 145 161 145s160 -62 160 -145v-74zM245 539c0 30 -12 41 -49 41s-50 -11 -50 -41v-90c0 -30 13 -41 50 -41s49 11 49 41v90zM253 26l268 650l88 -35l-268 -651zM832 135c0 -83 -34 -145 -160 -145
s-161 62 -161 145v74c0 83 35 145 161 145s160 -62 160 -145v-74zM721 217c0 30 -12 41 -49 41s-50 -11 -50 -41v-90c0 -30 13 -41 50 -41s49 11 49 41v90z" />
    <glyph glyph-name="plus.tnum" 
d="M456 188h-136v-138h-115v138h-136v110h136v139h115v-139h136v-110z" />
    <glyph glyph-name="zero.tnum" 
d="M484 479v-312c0 -100 -52 -177 -221 -177s-221 77 -221 177v312c0 100 52 177 221 177s221 -77 221 -177zM186 459v-272c0 -50 14 -71 77 -71s77 21 77 71v272c0 50 -14 71 -77 71s-77 -21 -77 -71z" />
    <glyph glyph-name="one.tnum" 
d="M83 0v122h119v384l-113 -29l-29 122l156 47h130v-524h121v-122h-384z" />
    <glyph glyph-name="two.tnum" 
d="M369 250c-48 -58 -78 -93 -107 -124h205v-126h-404v123c72 74 85 86 145 154c98 112 109 118 109 186v18c0 35 -23 47 -79 47c-48 0 -122 -8 -165 -19l-19 121c62 16 133 26 191 26c154 0 216 -48 216 -157v-26c0 -95 -1 -113 -92 -223z" />
    <glyph glyph-name="three.tnum" 
d="M107 385h111c64 0 82 18 82 62v41c0 42 -18 51 -81 51c-44 0 -88 -5 -138 -14l-15 113c57 12 107 18 166 18c167 0 212 -50 212 -150v-47c0 -59 -20 -104 -67 -133c56 -25 79 -60 79 -123v-51c0 -98 -46 -162 -228 -162c-61 0 -112 5 -164 22l15 111
c49 -9 86 -13 144 -13c70 0 89 14 89 53v46c0 37 -23 53 -73 53h-132v123z" />
    <glyph glyph-name="four.tnum" 
d="M505 137h-66v-137h-142v137h-264v125l201 384h205v-392h66v-117zM297 254v270l-135 -270h135z" />
    <glyph glyph-name="five.tnum" 
d="M316 203c0 45 -12 57 -76 60c-72 3 -105 4 -159 5v378h365v-125h-221v-136c34 -1 52 -2 90 -4c115 -7 145 -63 145 -142v-71c-1 -114 -43 -178 -225 -178c-45 0 -123 8 -178 25l21 116c50 -11 108 -16 156 -16c68 0 82 19 82 61v27z" />
    <glyph glyph-name="six.tnum" 
d="M267 -10c-173 0 -211 88 -211 193v244c0 181 123 229 307 229c41 0 73 -4 98 -8l-11 -118c-23 3 -49 5 -67 5c-130 0 -183 -24 -183 -107v-49c36 11 69 15 110 15c112 0 169 -48 169 -168v-43c0 -100 -39 -193 -212 -193zM267 114c52 0 68 19 68 62v44
c0 41 -23 50 -49 50c-33 0 -62 -7 -86 -18v-76c0 -46 15 -62 67 -62z" />
    <glyph glyph-name="seven.tnum" 
d="M488 524l-245 -524h-148l243 519h-277v127h427v-122z" />
    <glyph glyph-name="eight.tnum" 
d="M45 211c0 48 19 83 84 118c-52 34 -68 67 -68 112v56c0 101 52 159 201 159s201 -58 201 -159v-56c0 -48 -16 -79 -68 -112c65 -35 84 -69 84 -118v-51c0 -122 -58 -170 -217 -170s-217 48 -217 170v51zM184 162c0 -42 18 -54 78 -54s78 16 78 54v33c0 33 -4 45 -80 74
c-76 -29 -76 -41 -76 -74v-33zM200 443c0 -30 5 -40 64 -62c59 22 60 32 60 62v48c0 32 -11 48 -62 48s-62 -16 -62 -48v-48z" />
    <glyph glyph-name="nine.tnum" 
d="M258 656c173 0 211 -88 211 -193v-244c0 -181 -123 -229 -307 -229c-41 0 -73 4 -98 8l8 119c21 -3 45 -6 70 -6c130 0 183 24 183 107v49c-36 -11 -69 -15 -110 -15c-112 0 -169 48 -169 168v43c0 100 39 193 212 193zM258 532c-52 0 -68 -19 -68 -62v-44
c0 -41 23 -50 49 -50c33 0 62 7 86 18v76c0 46 -15 62 -67 62z" />
    <glyph glyph-name="less.tnum" 
d="M421 -10l-373 217v74l373 216l45 -83l-304 -170l307 -171z" />
    <glyph glyph-name="equal.tnum" 
d="M440 300h-355v96h355v-96zM440 106h-355v96h355v-96z" />
    <glyph glyph-name="greater.tnum" 
d="M477 207l-373 -217l-48 83l307 171l-304 170l45 83l373 -216v-74z" />
    <glyph glyph-name="cent.tnum" 
d="M253 -10v92c-126 10 -179 70 -179 196v111c0 125 53 185 179 196v91h93v-91c33 -1 66 -5 101 -13l-14 -120c-38 6 -97 12 -136 12c-58 0 -79 -23 -79 -73v-115c0 -50 21 -73 79 -73c47 0 98 4 136 12l15 -120c-30 -8 -70 -12 -102 -14v-91h-93z" />
    <glyph glyph-name="sterling.tnum" 
d="M54 281v103h72c-8 33 -17 72 -17 107c0 116 63 165 204 165c62 0 122 -9 181 -24l-19 -113c-45 10 -115 17 -161 17c-47 0 -61 -21 -61 -57c0 -34 8 -67 16 -95h175l-7 -103h-156c1 -7 1 -14 1 -20c0 -52 -23 -97 -62 -138h261v-123h-422v123c40 31 79 73 79 140
c0 6 0 12 -1 18h-83z" />
    <glyph glyph-name="section.tnum" 
d="M274 25l-112 -25c-53 175 -107 408 -107 557c0 76 51 119 146 119c62 0 144 -17 184 -29l-17 -95c-42 10 -105 23 -150 23c-29 0 -43 -12 -43 -40c0 -127 54 -347 99 -510zM276 464l112 25c53 -175 107 -408 107 -557c0 -76 -51 -119 -146 -119c-62 0 -144 17 -184 29
l17 95c42 -10 105 -23 150 -23c29 0 43 12 43 40c0 127 -54 347 -99 510z" />
    <glyph glyph-name="yen.tnum" 
d="M475 122h-138v-122h-150v122h-137v90h130l-29 81h-101v90h70l-93 263h146l89 -299l90 299h146l-94 -263h71v-90h-103l-28 -81h131v-90z" />
    <glyph glyph-name="florin.tnum" 
d="M23 -188l24 115c10 -2 25 -4 40 -4c41 0 51 20 53 52l30 334h-79l10 118h79l10 118c9 100 57 156 179 156c41 0 81 -5 120 -14l-23 -114c-20 4 -58 8 -80 8c-46 0 -50 -20 -53 -52l-9 -102h131l-20 -118h-121l-31 -350c-9 -100 -61 -156 -179 -156c-22 0 -52 3 -81 9z
" />
    <glyph glyph-name="endash.tnum" 
d="M451 220h-378v120h378v-120z" />
    <glyph glyph-name="divide.tnum" 
d="M329 0h-134v136h134v-136zM454 198h-384v92h384v-92zM329 351h-134v136h134v-136z" />
    <glyph glyph-name="Euro.tnum" 
d="M113 356h-79v76h79v27c0 129 63 197 231 197c39 0 98 -4 148 -17l-15 -125c-33 5 -94 10 -121 10c-78 0 -93 -20 -93 -69v-23h175v-76h-175v-66h175v-76h-175v-23c0 -49 15 -69 93 -69c27 0 88 5 121 10l15 -125c-50 -13 -109 -17 -148 -17c-168 0 -231 68 -231 197v27
h-79v76h79v66z" />
    <glyph glyph-name="perthousand.tnum" horiz-adv-x="1285" 
d="M356 452c0 -83 -34 -145 -160 -145s-161 62 -161 145v74c0 83 35 145 161 145s160 -62 160 -145v-74zM245 534c0 30 -12 41 -49 41s-50 -11 -50 -41v-90c0 -30 13 -41 50 -41s49 11 49 41v90zM267 26l268 650l88 -35l-268 -651zM852 140c0 -83 -34 -145 -160 -145
s-161 62 -161 145v74c0 83 35 145 161 145s160 -62 160 -145v-74zM741 222c0 30 -12 41 -49 41s-50 -11 -50 -41v-90c0 -30 13 -41 50 -41s49 11 49 41v90zM1245 140c0 -83 -34 -145 -160 -145s-161 62 -161 145v74c0 83 35 145 161 145s160 -62 160 -145v-74zM1134 222
c0 30 -12 41 -49 41s-50 -11 -50 -41v-90c0 -30 13 -41 50 -41s49 11 49 41v90z" />
    <glyph glyph-name="minusonum.tnum" 
d="M406 178h-288v120h288v-120z" />
    <glyph glyph-name="multiplyonum.tnum" 
d="M365 53l-103 103l-103 -103l-82 82l103 103l-103 103l82 82l103 -103l103 103l82 -82l-103 -103l103 -103z" />
    <glyph glyph-name="numbersignonum.tnum" 
d="M295 0l8 116h-110l-8 -116h-89l8 116h-75l6 85h75l8 113h-75l6 85h75l8 111h89l-8 -111h110l8 111h89l-8 -111h73l-6 -85h-73l-8 -113h72l-6 -85h-72l-8 -116h-89zM207 314l-8 -113h110l8 113h-110z" />
    <glyph glyph-name="dollaronum.tnum" 
d="M208 -105v97c-51 5 -104 16 -144 34l24 106c42 -14 107 -25 162 -25c54 0 66 13 66 43c0 35 0 38 -99 56c-136 25 -147 67 -147 164c0 93 42 136 144 147v98h116v-98c40 -3 83 -10 116 -19l-17 -113c-58 12 -109 18 -156 18c-48 0 -59 -9 -59 -40c0 -33 7 -36 94 -53
c131 -25 152 -55 152 -156c0 -88 -29 -145 -136 -159v-100h-116z" />
    <glyph glyph-name="percentonum.tnum" horiz-adv-x="777" 
d="M317 -10l-87 40l224 490l87 -40zM176 231c-114 0 -141 56 -141 125v40c0 68 27 124 141 124c115 0 141 -56 141 -124v-40c0 -69 -26 -125 -141 -125zM215 406c0 20 -16 28 -39 28c-22 0 -39 -8 -39 -28v-61c0 -21 17 -28 39 -28c23 0 39 7 39 28v61zM596 -10
c-114 0 -141 56 -141 125v40c0 68 27 124 141 124c115 0 141 -56 141 -124v-40c0 -69 -26 -125 -141 -125zM635 165c0 20 -16 28 -39 28c-22 0 -39 -8 -39 -28v-61c0 -21 17 -28 39 -28c23 0 39 7 39 28v61z" />
    <glyph glyph-name="plusonum.tnum" 
d="M456 188h-136v-138h-115v138h-136v110h136v139h115v-139h136v-110z" />
    <glyph glyph-name="zeroonum.tnum" 
d="M483 343v-176c0 -100 -52 -177 -221 -177s-221 77 -221 177v176c0 100 52 177 221 177s221 -77 221 -177zM183 325v-140c0 -50 20 -71 79 -71c60 0 79 21 79 71v140c0 50 -19 71 -79 71s-79 -21 -79 -71z" />
    <glyph glyph-name="oneonum.tnum" horiz-adv-x="524" 
d="M76 0v122h126v248l-113 -29l-29 122l156 47h130v-388h121v-122h-391z" />
    <glyph glyph-name="twoonum.tnum" 
d="M362 183c-35 -32 -41 -39 -70 -63h173v-120h-404v98c73 60 94 79 146 123c95 80 94 92 94 134v2c0 28 -21 37 -67 37c-39 0 -103 -10 -150 -25l-29 115c49 19 128 36 186 36c156 0 201 -48 201 -144v-12c0 -68 1 -107 -80 -181z" />
    <glyph glyph-name="threeonum.tnum" 
d="M98 249h87c90 0 112 19 112 75v28c0 42 -28 53 -91 53c-44 0 -79 -5 -129 -14l-15 111c57 12 108 18 167 18c158 0 212 -50 212 -150v-47c0 -59 -25 -106 -87 -133c56 -13 99 -54 99 -123v-51c0 -98 -56 -162 -228 -162c-61 0 -111 5 -163 22l15 109
c49 -9 75 -13 133 -13c70 0 99 16 99 55v35c0 53 -27 64 -103 64h-108v123z" />
    <glyph glyph-name="fouronum.tnum" 
d="M508 27h-84v-163h-140v163h-260v118l217 365h183v-373h84v-110zM284 137v229l-128 -229h128z" />
    <glyph glyph-name="fiveonum.tnum" 
d="M321 67c0 45 -12 57 -76 60c-72 3 -98 4 -152 5v378h358v-125h-214v-136c34 -1 44 -2 83 -4c115 -6 145 -63 145 -142v-71c-1 -114 -43 -178 -225 -178c-45 0 -116 8 -171 25l21 116c50 -11 101 -16 149 -16c68 0 82 19 82 61v27z" />
    <glyph glyph-name="sixonum.tnum" 
d="M265 -10c-173 0 -211 88 -211 193v244c0 181 123 229 307 229c41 0 73 -4 98 -8l-11 -119c-21 3 -42 6 -67 6c-130 0 -183 -24 -183 -107v-49c36 11 69 15 110 15c112 0 169 -48 169 -168v-43c0 -100 -39 -193 -212 -193zM265 114c52 0 68 19 68 62v44
c0 41 -23 50 -49 50c-33 0 -62 -7 -86 -18v-76c0 -46 15 -62 67 -62z" />
    <glyph glyph-name="sevenonum.tnum" 
d="M472 388l-265 -524l-122 52l237 467h-277v127h427v-122z" />
    <glyph glyph-name="eightonum.tnum" 
d="M46 211c0 48 19 83 84 118c-52 34 -68 67 -68 112v56c0 101 52 159 201 159s201 -58 201 -159v-56c0 -48 -16 -79 -68 -112c65 -35 84 -69 84 -118v-51c0 -122 -58 -170 -217 -170s-217 48 -217 170v51zM185 162c0 -42 18 -54 78 -54s78 16 78 54v33c0 33 -4 45 -80 74
c-76 -29 -76 -41 -76 -74v-33zM201 443c0 -30 5 -40 64 -62c59 22 60 32 60 62v48c0 32 -11 48 -62 48s-62 -16 -62 -48v-48z" />
    <glyph glyph-name="nineonum.tnum" 
d="M260 520c173 0 211 -88 211 -193v-244c0 -181 -123 -229 -307 -229c-41 0 -73 4 -98 8l8 119c21 -3 45 -6 70 -6c130 0 183 24 183 107v49c-36 -11 -69 -15 -110 -15c-112 0 -169 48 -169 168v43c0 100 39 193 212 193zM260 396c-52 0 -68 -19 -68 -62v-44
c0 -41 23 -50 49 -50c33 0 62 7 86 18v76c0 46 -15 62 -67 62z" />
    <glyph glyph-name="lessonum.tnum" 
d="M421 -10l-373 217v74l373 216l45 -83l-304 -170l307 -171z" />
    <glyph glyph-name="equalonum.tnum" 
d="M440 300h-355v96h355v-96zM440 106h-355v96h355v-96z" />
    <glyph glyph-name="greateronum.tnum" 
d="M478 207l-373 -217l-48 83l307 171l-304 170l45 83l373 -216v-74z" />
    <glyph glyph-name="centonum.tnum" 
d="M229 -75v110c-103 16 -146 72 -146 164v122c0 92 43 148 146 164v110h116v-107c31 -2 63 -7 97 -15l-16 -118c-43 9 -89 13 -130 13c-49 0 -69 -18 -69 -59v-98c0 -41 20 -59 69 -59c41 0 87 4 130 13l16 -118c-34 -8 -65 -13 -97 -16v-106h-116z" />
    <glyph glyph-name="sterlingonum.tnum" 
d="M57 205v96h72c-10 29 -20 54 -20 89c0 88 48 130 188 130c63 0 129 -12 175 -29l-16 -102c-62 12 -106 18 -160 18c-33 0 -43 -10 -43 -33c0 -27 10 -48 20 -73h168l-6 -96h-143c-3 -35 -19 -71 -45 -93h221v-112h-395v106c28 18 67 59 74 99h-90z" />
    <glyph glyph-name="sectiononum.tnum" 
d="M263 28l-108 -38c-52 127 -90 253 -90 402c0 86 45 128 156 128c62 0 125 -14 174 -29l-17 -95c-42 10 -105 23 -150 23c-33 0 -43 -12 -43 -40c0 -127 31 -226 78 -351zM290 295l108 38c52 -127 90 -253 90 -402c0 -86 -45 -128 -156 -128c-62 0 -125 14 -174 29l17 95
c42 -10 105 -23 150 -23c33 0 43 12 43 40c0 127 -31 226 -78 351z" />
    <glyph glyph-name="yenonum.tnum" 
d="M413 312h68v-81h-106l-29 -61h136v-80h-146v-90h-148v90h-145v80h134l-29 61h-105v81h66l-91 198h147l97 -227l98 227h147z" />
    <glyph glyph-name="florinonum.tnum" 
d="M34 -182l19 111c11 -3 28 -6 43 -6c30 0 41 10 44 43l17 188h-79l10 118h79l8 92c9 105 61 156 179 156c34 0 73 -7 105 -19l-22 -112c-24 7 -44 11 -66 11c-34 0 -49 -13 -52 -45l-8 -83h125l-14 -118h-121l-18 -208c-7 -81 -39 -143 -153 -143c-22 0 -65 4 -96 15z" />
    <glyph glyph-name="endashonum.tnum" 
d="M451 220h-378v120h378v-120z" />
    <glyph glyph-name="divideonum.tnum" 
d="M329 0h-134v136h134v-136zM454 198h-384v92h384v-92zM329 351h-134v136h134v-136z" />
    <glyph glyph-name="Euroonum.tnum" 
d="M40 278v55h72v18c0 108 60 169 215 169c45 0 86 -5 128 -16l-16 -115c-45 7 -76 9 -114 9c-49 0 -69 -15 -69 -59v-6h141v-55h-141v-46h141v-55h-141v-6c0 -41 20 -59 69 -59c41 0 72 2 114 9l16 -116c-41 -11 -83 -15 -128 -15c-155 0 -215 61 -215 169v18h-72v55h72v46
h-72z" />
    <glyph glyph-name="perthousandonum.tnum" horiz-adv-x="1107" 
d="M317 -10l-87 40l224 490l87 -40zM176 231c-114 0 -141 56 -141 125v40c0 68 27 124 141 124c115 0 141 -56 141 -124v-40c0 -69 -26 -125 -141 -125zM215 406c0 20 -16 28 -39 28c-22 0 -39 -8 -39 -28v-61c0 -21 17 -28 39 -28c23 0 39 7 39 28v61zM596 -10
c-114 0 -141 56 -141 125v40c0 68 27 124 141 124c115 0 141 -56 141 -124v-40c0 -69 -26 -125 -141 -125zM635 165c0 20 -16 28 -39 28c-22 0 -39 -8 -39 -28v-61c0 -21 17 -28 39 -28c23 0 39 7 39 28v61zM926 -10c-114 0 -141 56 -141 125v40c0 68 27 124 141 124
c115 0 141 -56 141 -124v-40c0 -69 -26 -125 -141 -125zM965 165c0 20 -16 28 -39 28c-22 0 -39 -8 -39 -28v-61c0 -21 17 -28 39 -28c23 0 39 7 39 28v61z" />
    <glyph glyph-name="minussmcp.tnum" 
d="M406 178h-288v120h288v-120z" />
    <glyph glyph-name="multiplysmcp.tnum" 
d="M365 53l-103 103l-103 -103l-82 82l103 103l-103 103l82 82l103 -103l103 103l82 -82l-103 -103l103 -103z" />
    <glyph glyph-name="numbersignsmcp.tnum" 
d="M301 0l9 121h-110l-9 -121h-89l9 121h-75l6 85h75l8 113h-75l6 85h75l8 116h89l-8 -116h110l8 116h89l-8 -116h73l-6 -85h-73l-8 -113h72l-6 -85h-72l-9 -121h-89zM214 319l-8 -113h110l8 113h-110z" />
    <glyph glyph-name="dollarsmcp.tnum" 
d="M209 -105v97c-51 5 -104 16 -144 34l24 106c42 -14 107 -25 162 -25c54 0 66 15 66 45c0 35 0 41 -99 59c-136 25 -147 70 -147 167c0 93 42 137 144 148v98h116v-98c40 -3 83 -10 116 -19l-17 -114c-58 12 -109 19 -156 19c-48 0 -59 -10 -59 -41c0 -33 7 -39 94 -56
c131 -25 152 -58 152 -159c0 -88 -29 -147 -136 -161v-100h-116z" />
    <glyph glyph-name="percentsmcp.tnum" horiz-adv-x="777" 
d="M315 -10l-87 40l230 500l87 -40zM176 236c-114 0 -141 56 -141 125v45c0 68 27 124 141 124c115 0 141 -56 141 -124v-45c0 -69 -26 -125 -141 -125zM215 416c0 20 -16 28 -39 28c-22 0 -39 -8 -39 -28v-66c0 -21 17 -28 39 -28c23 0 39 7 39 28v66zM596 -10
c-114 0 -141 56 -141 125v45c0 68 27 124 141 124c115 0 141 -56 141 -124v-45c0 -69 -26 -125 -141 -125zM635 170c0 20 -16 28 -39 28c-22 0 -39 -8 -39 -28v-66c0 -21 17 -28 39 -28c23 0 39 7 39 28v66z" />
    <glyph glyph-name="plussmcp.tnum" 
d="M456 188h-136v-138h-115v138h-136v110h136v139h115v-139h136v-110z" />
    <glyph glyph-name="zerosmcp.tnum" 
d="M484 169c0 -90 -52 -179 -221 -179s-221 89 -221 179v182c0 90 52 179 221 179s221 -89 221 -179v-182zM340 187v145c0 50 -20 72 -77 72s-77 -22 -77 -72v-145c0 -50 20 -71 77 -71s77 21 77 71z" />
    <glyph glyph-name="onesmcp.tnum" 
d="M77 0v122h142v258l-123 -29l-32 121l169 48h130v-398h124v-122h-410z" />
    <glyph glyph-name="twosmcp.tnum" 
d="M375 191c-54 -43 -57 -46 -92 -71h181v-120h-404v117c45 33 55 40 112 83c117 89 134 102 134 137v22c0 33 -19 43 -89 43c-40 0 -107 -10 -141 -19l-22 120c52 17 126 27 178 27c162 0 218 -47 218 -157v-18c0 -76 -13 -115 -75 -164z" />
    <glyph glyph-name="threesmcp.tnum" 
d="M110 318h109c64 0 78 9 78 41v18c0 31 -13 41 -81 41c-38 0 -88 -5 -129 -13l-12 108c43 10 106 17 151 17c157 0 212 -33 212 -133v-23c0 -51 -17 -87 -56 -108c50 -16 74 -49 74 -107v-16c0 -98 -50 -153 -228 -153c-50 0 -111 8 -161 24l13 104c44 -9 88 -15 146 -15
c61 0 89 8 89 40v23c0 28 -17 39 -73 39h-132v113z" />
    <glyph glyph-name="foursmcp.tnum" 
d="M499 111h-67v-111h-134v111h-264v115l227 294h171v-302h67v-107zM298 218v182l-128 -182h128z" />
    <glyph glyph-name="fivesmcp.tnum" 
d="M320 165c0 32 -13 40 -65 42c-91 3 -111 3 -168 5v308h357v-119h-217v-81c36 -1 60 -2 93 -5c115 -10 140 -49 140 -141v-26c-1 -114 -53 -158 -225 -158c-45 0 -119 9 -173 27l20 110c52 -12 108 -18 156 -18c62 0 82 6 82 39v17z" />
    <glyph glyph-name="sixsmcp.tnum" 
d="M265 -10c-155 0 -205 71 -205 156v202c0 145 125 182 287 182c27 0 75 -4 103 -8l-10 -112c-20 4 -59 7 -76 7c-101 0 -160 -17 -160 -73v-32c25 6 69 12 99 12c109 0 167 -39 167 -136v-42c0 -80 -50 -156 -205 -156zM265 106c41 0 62 14 62 42v32c0 21 -16 29 -42 29
c-22 0 -54 -4 -81 -11v-50c0 -29 24 -42 61 -42z" />
    <glyph glyph-name="sevensmcp.tnum" 
d="M482 405l-258 -405h-156l262 398h-275v122h427v-115z" />
    <glyph glyph-name="eightsmcp.tnum" 
d="M49 168c0 49 30 76 77 98c-49 28 -63 60 -63 96v38c0 83 66 130 199 130c135 0 201 -47 201 -130v-38c0 -36 -11 -68 -62 -96c44 -22 76 -49 76 -98v-40c0 -98 -79 -138 -215 -138s-213 40 -213 138v40zM188 142c0 -28 20 -42 74 -42s76 14 76 42v18c0 29 -23 35 -76 54
c-49 -17 -74 -25 -74 -54v-18zM202 360c0 -27 21 -34 60 -50c38 15 62 23 62 50v24c0 26 -24 37 -62 37s-60 -11 -60 -37v-24z" />
    <glyph glyph-name="ninesmcp.tnum" 
d="M260 530c155 0 205 -71 205 -156v-202c0 -145 -125 -182 -287 -182c-27 0 -75 4 -103 8l10 112c20 -4 59 -7 76 -7c101 0 160 17 160 73v32c-25 -6 -69 -12 -99 -12c-109 0 -167 39 -167 136v42c0 80 50 156 205 156zM260 414c-41 0 -62 -14 -62 -42v-32
c0 -21 16 -29 42 -29c22 0 54 4 81 11v50c0 29 -24 42 -61 42z" />
    <glyph glyph-name="lesssmcp.tnum" 
d="M421 -10l-373 217v74l373 216l45 -83l-304 -170l307 -171z" />
    <glyph glyph-name="equalsmcp.tnum" 
d="M440 300h-355v96h355v-96zM440 106h-355v96h355v-96z" />
    <glyph glyph-name="greatersmcp.tnum" 
d="M477 207l-373 -217l-48 83l307 171l-304 170l45 83l373 -216v-74z" />
    <glyph glyph-name="centsmcp.tnum" 
d="M224 -105v121c-99 17 -140 72 -140 163v162c0 90 41 145 140 163v121h119v-117c32 -2 64 -7 100 -15l-16 -118c-43 9 -89 13 -130 13c-49 0 -69 -18 -69 -59v-138c0 -41 20 -59 69 -59c41 0 87 4 130 13l16 -118c-36 -9 -68 -13 -100 -16v-116h-119z" />
    <glyph glyph-name="sterlingsmcp.tnum" 
d="M58 210v96h72c-10 29 -20 59 -20 94c0 88 51 130 188 130c63 0 129 -12 175 -29l-16 -102c-62 12 -106 18 -160 18c-35 0 -43 -10 -43 -33c0 -27 10 -53 20 -78h168l-6 -96h-143c-3 -35 -19 -76 -45 -98h221v-112h-395v106c28 18 67 64 74 104h-90z" />
    <glyph glyph-name="sectionsmcp.tnum" 
d="M260 38l-108 -38c-52 127 -90 253 -90 402c0 86 45 128 156 128c62 0 125 -14 174 -29l-17 -95c-42 10 -105 23 -150 23c-33 0 -43 -12 -43 -40c0 -127 31 -226 78 -351zM287 295l108 38c52 -127 90 -253 90 -402c0 -86 -45 -128 -156 -128c-62 0 -125 14 -174 29l17 95
c42 -10 105 -23 150 -23c33 0 43 12 43 40c0 127 -31 226 -78 351z" />
    <glyph glyph-name="yensmcp.tnum" 
d="M409 312h72v-81h-110l-25 -61h136v-80h-146v-90h-148v90h-145v80h134l-23 61h-111v81h72l-91 208h147l91 -237l92 237h147z" />
    <glyph glyph-name="florinsmcp.tnum" 
d="M34 -182l19 111c11 -3 28 -6 43 -6c30 0 41 10 44 43l17 188h-79l10 118h79l9 102c9 105 61 156 179 156c34 0 73 -7 105 -19l-22 -112c-24 7 -44 11 -66 11c-34 0 -49 -13 -52 -45l-9 -93h125l-14 -118h-121l-18 -208c-7 -81 -39 -143 -153 -143c-22 0 -65 4 -96 15z
" />
    <glyph glyph-name="endashsmcp.tnum" 
d="M451 220h-378v120h378v-120z" />
    <glyph glyph-name="dividesmcp.tnum" 
d="M329 0h-134v136h134v-136zM454 198h-384v92h384v-92zM329 351h-134v136h134v-136z" />
    <glyph glyph-name="Eurosmcp.tnum" 
d="M57 288v55h72v18c0 108 60 169 215 169c45 0 86 -5 128 -16l-16 -115c-45 7 -76 9 -114 9c-49 0 -69 -15 -69 -59v-6h141v-55h-141v-56h141v-55h-141v-6c0 -41 20 -59 69 -59c41 0 72 2 114 9l16 -116c-41 -11 -83 -15 -128 -15c-155 0 -215 61 -215 169v18h-72v55h72v56
h-72z" />
    <glyph glyph-name="perthousandsmcp.tnum" horiz-adv-x="1101" 
d="M315 -10l-87 40l230 500l87 -40zM176 236c-114 0 -141 56 -141 125v45c0 68 27 124 141 124c115 0 141 -56 141 -124v-45c0 -69 -26 -125 -141 -125zM215 416c0 20 -16 28 -39 28c-22 0 -39 -8 -39 -28v-66c0 -21 17 -28 39 -28c23 0 39 7 39 28v66zM596 -10
c-114 0 -141 56 -141 125v45c0 68 27 124 141 124c115 0 141 -56 141 -124v-45c0 -69 -26 -125 -141 -125zM635 170c0 20 -16 28 -39 28c-22 0 -39 -8 -39 -28v-66c0 -21 17 -28 39 -28c23 0 39 7 39 28v66zM920 -10c-114 0 -141 56 -141 125v45c0 68 27 124 141 124
c115 0 141 -56 141 -124v-45c0 -69 -26 -125 -141 -125zM959 170c0 20 -16 28 -39 28c-22 0 -39 -8 -39 -28v-66c0 -21 17 -28 39 -28c23 0 39 7 39 28v66z" />
    <glyph glyph-name="minus.smcp" horiz-adv-x="368" 
d="M328 178h-288v120h288v-120z" />
    <glyph glyph-name="multiply.smcp" horiz-adv-x="480" 
d="M343 53l-103 103l-103 -103l-82 82l103 103l-103 103l82 82l103 -103l103 103l82 -82l-103 -103l103 -103z" />
    <glyph glyph-name="exclam.smcp" horiz-adv-x="300" 
d="M192 182h-84l-33 131v207h150v-207zM75 0v137h150v-137h-150z" />
    <glyph glyph-name="numbersign.smcp" horiz-adv-x="620" 
d="M355 0l8 117h-127l-8 -117h-93l8 117h-103l6 89h103l7 113h-102l6 89h102l8 112h93l-8 -112h127l8 112h93l-8 -112h105l-6 -89h-105l-7 -113h104l-6 -89h-104l-8 -117h-93zM249 319l-7 -113h127l7 113h-127z" />
    <glyph glyph-name="dollar.smcp" horiz-adv-x="496" 
d="M188 -105v98c-49 4 -100 15 -138 33l24 106c45 -13 107 -25 162 -25c57 0 66 15 66 45c0 40 -2 45 -99 59c-136 20 -147 79 -147 169c0 93 42 136 144 147v98h113v-98c41 -3 85 -10 119 -19l-17 -113c-58 12 -109 18 -156 18c-48 0 -59 -9 -59 -40c0 -39 5 -42 94 -58
c146 -26 152 -70 152 -156c0 -90 -23 -150 -145 -165v-99h-113z" />
    <glyph glyph-name="percent.smcp" horiz-adv-x="777" 
d="M315 -10l-87 40l230 500l87 -40zM176 236c-114 0 -141 56 -141 125v45c0 68 27 124 141 124c115 0 141 -56 141 -124v-45c0 -69 -26 -125 -141 -125zM215 416c0 20 -16 28 -39 28c-22 0 -39 -8 -39 -28v-66c0 -21 17 -28 39 -28c23 0 39 7 39 28v66zM596 -10
c-114 0 -141 56 -141 125v45c0 68 27 124 141 124c115 0 141 -56 141 -124v-45c0 -69 -26 -125 -141 -125zM635 170c0 20 -16 28 -39 28c-22 0 -39 -8 -39 -28v-66c0 -21 17 -28 39 -28c23 0 39 7 39 28v66z" />
    <glyph glyph-name="ampersand.smcp" horiz-adv-x="597" 
d="M484 205v-182c-65 -22 -147 -33 -221 -33c-162 0 -203 52 -203 134v43c0 51 20 84 64 103c-43 24 -55 57 -55 92v35c0 93 53 133 195 133c62 0 122 -6 197 -21l-14 -113c-63 11 -133 15 -183 15c-38 0 -49 -7 -49 -29v-31c0 -24 9 -36 40 -36h312v-110h-83zM354 205h-104
c-33 0 -44 -11 -44 -40v-29c0 -26 13 -38 56 -38c33 0 65 4 92 10v97z" />
    <glyph glyph-name="plus.smcp" horiz-adv-x="517" 
d="M462 188h-146v-148h-115v148h-146v110h146v149h115v-149h146v-110z" />
    <glyph glyph-name="zero.smcp" horiz-adv-x="542" 
d="M492 169c0 -90 -52 -179 -221 -179s-221 89 -221 179v182c0 90 52 179 221 179s221 -89 221 -179v-182zM348 187v145c0 50 -20 72 -77 72s-77 -22 -77 -72v-145c0 -50 20 -71 77 -71s77 21 77 71z" />
    <glyph glyph-name="one.smcp" horiz-adv-x="382" 
d="M317 0h-144v359l-111 -67l-62 113l183 115h134v-520z" />
    <glyph glyph-name="two.smcp" horiz-adv-x="510" 
d="M371 191c-54 -43 -57 -46 -92 -71h181v-120h-404v117c45 33 55 40 112 83c117 89 134 102 134 137v22c0 33 -19 43 -89 43c-40 0 -107 -10 -141 -19l-22 120c52 17 126 27 178 27c162 0 218 -47 218 -157v-18c0 -76 -13 -115 -75 -164z" />
    <glyph glyph-name="three.smcp" horiz-adv-x="484" 
d="M88 318h109c64 0 78 9 78 41v18c0 31 -13 41 -81 41c-38 0 -88 -5 -129 -13l-12 108c43 10 106 17 151 17c157 0 212 -33 212 -133v-23c0 -51 -17 -87 -56 -108c50 -16 74 -49 74 -107v-16c0 -98 -50 -153 -228 -153c-50 0 -111 8 -161 24l13 104c44 -9 88 -15 146 -15
c61 0 89 8 89 40v23c0 28 -17 39 -73 39h-132v113z" />
    <glyph glyph-name="four.smcp" horiz-adv-x="541" 
d="M511 111h-83v-111h-134v111h-274v115l237 294h171v-302h83v-107zM294 218v175l-133 -175h133z" />
    <glyph glyph-name="five.smcp" horiz-adv-x="491" 
d="M301 165c0 32 -13 40 -65 42c-91 3 -111 3 -168 5v308h357v-119h-217v-81c36 -1 60 -2 93 -5c115 -10 140 -49 140 -141v-26c-1 -114 -53 -158 -225 -158c-45 0 -117 9 -171 27l20 110c52 -12 106 -18 154 -18c62 0 82 6 82 39v17z" />
    <glyph glyph-name="six.smcp" horiz-adv-x="498" 
d="M250 -10c-155 0 -205 71 -205 156v193c0 124 69 191 247 191c41 0 96 -2 143 -11l-10 -112c-43 7 -93 10 -124 10c-93 0 -112 -21 -112 -82v-23c30 8 69 12 99 12c109 0 167 -39 167 -136v-42c0 -80 -50 -156 -205 -156zM250 106c41 0 62 14 62 42v32c0 21 -16 29 -42 29
c-22 0 -54 -4 -81 -11v-50c0 -29 24 -42 61 -42z" />
    <glyph glyph-name="seven.smcp" horiz-adv-x="455" 
d="M435 403l-214 -403h-154l218 396h-260v124h410v-117z" />
    <glyph glyph-name="eight.smcp" horiz-adv-x="520" 
d="M46 168c0 49 30 76 77 98c-49 28 -63 60 -63 96v38c0 83 66 130 199 130c135 0 201 -47 201 -130v-38c0 -36 -11 -68 -62 -96c44 -22 76 -49 76 -98v-40c0 -98 -79 -138 -215 -138s-213 40 -213 138v40zM185 142c0 -28 20 -42 74 -42s76 14 76 42v18c0 29 -23 35 -76 54
c-49 -17 -74 -25 -74 -54v-18zM199 360c0 -27 21 -34 60 -50c38 15 62 23 62 50v24c0 26 -24 37 -62 37s-60 -11 -60 -37v-24z" />
    <glyph glyph-name="nine.smcp" horiz-adv-x="498" 
d="M248 530c155 0 205 -71 205 -156v-197c0 -124 -57 -187 -241 -187c-48 0 -103 4 -155 16l10 110c43 -7 99 -13 130 -13c97 0 112 21 112 82v23c-30 -8 -69 -12 -99 -12c-109 0 -167 39 -167 136v42c0 80 50 156 205 156zM248 414c-41 0 -62 -14 -62 -42v-32
c0 -21 16 -29 42 -29c22 0 54 4 81 11v50c0 29 -24 42 -61 42z" />
    <glyph glyph-name="less.smcp" horiz-adv-x="566" 
d="M473 -10l-443 217v74l443 216l43 -85l-352 -168l352 -168z" />
    <glyph glyph-name="equal.smcp" 
d="M470 300h-415v96h415v-96zM470 106h-415v96h415v-96z" />
    <glyph glyph-name="greater.smcp" horiz-adv-x="566" 
d="M536 207l-443 -217l-43 86l352 168l-352 168l43 85l443 -216v-74z" />
    <glyph glyph-name="question.smcp" horiz-adv-x="440" 
d="M221 166l-67 98c94 61 97 65 97 111c0 31 -14 38 -67 38c-37 0 -88 -6 -135 -14l-14 115c56 11 107 16 163 16c144 0 197 -35 197 -153c0 -92 -2 -96 -174 -211zM285 0h-150v139h150v-139z" />
    <glyph glyph-name="at.smcp" horiz-adv-x="615" 
d="M430 373l-30 -168c7 -4 18 -7 26 -7c47 0 69 47 69 102c0 85 -61 152 -170 152c-123 0 -195 -76 -195 -193c0 -123 75 -189 214 -189c40 0 81 8 125 20l21 -72c-43 -18 -105 -28 -151 -28c-195 0 -299 115 -299 269c0 163 107 271 285 271c170 0 255 -113 255 -228
c0 -105 -50 -169 -145 -169c-34 0 -77 17 -96 43c-20 -12 -52 -22 -78 -22c-49 0 -73 42 -65 81c5 24 9 51 14 78c10 59 43 84 112 84c30 0 75 -9 108 -24zM336 236l16 92c-11 3 -28 4 -35 4c-18 0 -32 -6 -35 -26c-4 -23 -7 -41 -11 -64c-3 -15 2 -23 17 -23
c12 0 38 10 48 17z" />
    <glyph glyph-name="a.smcp" horiz-adv-x="543" 
d="M383 0l-22 78h-179l-22 -78h-145l165 520h182l166 -520h-145zM271 400l-56 -207h113z" />
    <glyph glyph-name="b.smcp" horiz-adv-x="543" 
d="M350 0h-280v520h270c116 0 147 -47 147 -120v-46c0 -31 -17 -65 -57 -82c48 -16 78 -48 78 -98v-46c0 -75 -37 -128 -158 -128zM345 388c0 16 -10 25 -30 25h-97v-102h95c18 0 32 6 32 27v50zM365 178c0 21 -11 31 -33 31h-114v-102h110c28 0 37 13 37 32v39z" />
    <glyph glyph-name="c.smcp" horiz-adv-x="483" 
d="M272 -10c-149 0 -217 58 -217 169v202c0 111 68 169 217 169c57 0 116 -7 171 -18l-15 -122c-57 9 -104 14 -156 14c-49 0 -69 -18 -69 -59v-170c0 -41 20 -59 69 -59c52 0 101 4 156 14l15 -122c-56 -12 -114 -18 -171 -18z" />
    <glyph glyph-name="d.smcp" horiz-adv-x="560" 
d="M309 0h-239v520h239c160 0 201 -79 201 -184v-152c0 -105 -41 -184 -201 -184zM365 338c0 39 -18 57 -61 57h-86v-270h86c43 0 61 18 61 57v156z" />
    <glyph glyph-name="e.smcp" horiz-adv-x="501" 
d="M70 0v520h376v-118h-228v-79h210v-118h-210v-87h228v-118h-376z" />
    <glyph glyph-name="f.smcp" horiz-adv-x="484" 
d="M218 402v-102h214v-118h-214v-182h-148v520h379v-118h-231z" />
    <glyph glyph-name="g.smcp" horiz-adv-x="544" 
d="M273 -10c-152 0 -218 59 -218 164v213c0 110 73 163 218 163c65 0 130 -6 197 -18l-14 -124c-70 8 -139 14 -183 14c-47 0 -70 -14 -70 -58v-167c0 -38 16 -61 70 -61c28 0 53 2 77 5v141h134v-244c-66 -18 -140 -28 -211 -28z" />
    <glyph glyph-name="h.smcp" horiz-adv-x="603" 
d="M385 0v197h-167v-197h-148v520h148v-195h167v195h148v-520h-148z" />
    <glyph glyph-name="i.smcp" horiz-adv-x="298" 
d="M75 0v520h148v-520h-148z" />
    <glyph glyph-name="j.smcp" horiz-adv-x="283" 
d="M82 -187l-92 96c74 74 80 87 80 109v502h148v-513c0 -55 -23 -90 -136 -194z" />
    <glyph glyph-name="k.smcp" horiz-adv-x="580" 
d="M393 0l-165 266l157 254h167l-162 -254l170 -266h-167zM70 0v520h148v-520h-148z" />
    <glyph glyph-name="l.smcp" horiz-adv-x="471" 
d="M70 0v520h148v-392h218v-128h-366z" />
    <glyph glyph-name="m.smcp" horiz-adv-x="718" 
d="M515 0l-10 255l-83 -191h-126l-83 190l-10 -254h-143l27 520h143l129 -304l129 304h143l27 -520h-143z" />
    <glyph glyph-name="n.smcp" horiz-adv-x="629" 
d="M383 0l-173 317v-317h-140v520h176l173 -318v318h140v-520h-176z" />
    <glyph glyph-name="o.smcp" horiz-adv-x="568" 
d="M284 -10c-163 0 -229 79 -229 169v202c0 90 66 169 229 169s229 -79 229 -169v-202c0 -90 -66 -169 -229 -169zM365 343c0 37 -25 59 -81 59s-81 -22 -81 -59v-166c0 -37 25 -59 81 -59s81 22 81 59v166z" />
    <glyph glyph-name="p.smcp" horiz-adv-x="534" 
d="M311 133h-93v-133h-148v520h248c146 0 191 -56 191 -155v-76c0 -101 -54 -156 -198 -156zM363 358c0 29 -14 43 -51 43h-94v-150h94c37 0 51 15 51 45v62z" />
    <glyph glyph-name="q.smcp" horiz-adv-x="568" 
d="M302 -144l-63 137c-130 12 -184 84 -184 166v202c0 90 66 169 229 169s229 -79 229 -169v-202c0 -68 -38 -130 -127 -156l43 -94zM365 343c0 37 -25 59 -81 59s-81 -22 -81 -59v-166c0 -37 25 -59 81 -59s81 22 81 59v166z" />
    <glyph glyph-name="r.smcp" horiz-adv-x="576" 
d="M396 0l-92 139h-86v-139h-148v520h248c145 0 191 -56 191 -155v-70c0 -60 -17 -93 -62 -125l114 -170h-165zM365 358c0 29 -14 43 -51 43h-96v-146h96c37 0 51 15 51 45v58z" />
    <glyph glyph-name="s.smcp" horiz-adv-x="494" 
d="M233 -10c-60 0 -132 12 -188 36l24 110c45 -13 111 -25 166 -25s66 11 66 41c0 33 -6 41 -100 56c-136 22 -150 75 -150 170c0 114 69 152 206 152c50 0 128 -8 178 -22l-17 -117c-58 12 -113 18 -160 18c-48 0 -59 -7 -59 -36c0 -35 5 -40 94 -56
c146 -26 156 -60 156 -158c0 -112 -40 -169 -216 -169z" />
    <glyph glyph-name="t.smcp" horiz-adv-x="484" 
d="M316 392v-392h-148v392h-151v128h450v-128h-151z" />
    <glyph glyph-name="u.smcp" horiz-adv-x="582" 
d="M291 -10c-177 0 -226 83 -226 164v366h148v-349c0 -35 22 -53 78 -53c55 0 78 18 78 53v349h148v-366c0 -81 -49 -164 -226 -164z" />
    <glyph glyph-name="v.smcp" horiz-adv-x="552" 
d="M374 0h-196l-163 520h147l114 -402l114 402h147z" />
    <glyph glyph-name="w.smcp" horiz-adv-x="816" 
d="M665 0h-168l-89 346l-89 -346h-168l-141 520h141l86 -332l96 332h150l96 -332l86 332h141z" />
    <glyph glyph-name="x.smcp" horiz-adv-x="574" 
d="M390 0l-103 155l-102 -155h-160l176 263l-169 257h158l97 -152l97 152h159l-171 -257l177 -263h-159z" />
    <glyph glyph-name="y.smcp" horiz-adv-x="508" 
d="M328 148v-148h-148v148l-180 372h150l104 -234l104 234h150z" />
    <glyph glyph-name="z.smcp" horiz-adv-x="530" 
d="M60 0v104l238 303h-232v113h405v-105l-236 -302h240v-113h-415z" />
    <glyph glyph-name="cent.smcp" horiz-adv-x="449" 
d="M190 -105v121c-99 17 -140 72 -140 163v162c0 90 41 145 140 163v121h119v-117c32 -2 64 -7 100 -15l-16 -118c-43 9 -89 13 -130 13c-49 0 -69 -18 -69 -59v-138c0 -41 20 -59 69 -59c41 0 87 4 130 13l16 -118c-36 -9 -68 -13 -100 -16v-116h-119z" />
    <glyph glyph-name="sterling.smcp" horiz-adv-x="531" 
d="M55 205v96h72c-10 29 -20 58 -20 93c0 93 41 136 189 136c51 0 126 -9 175 -25l-17 -106c-40 8 -106 18 -160 18c-31 0 -43 -10 -43 -33c0 -27 9 -57 20 -83h168l-6 -96h-143c-3 -35 -19 -71 -45 -93h241v-112h-415v106c28 18 67 59 74 99h-90z" />
    <glyph glyph-name="section.smcp" horiz-adv-x="519" 
d="M252 28l-108 -38c-52 127 -94 263 -94 412c0 86 45 128 156 128c62 0 125 -14 174 -29l-17 -95c-42 10 -105 23 -150 23c-33 0 -43 -12 -43 -40c0 -127 35 -236 82 -361zM282 305l108 38c52 -127 94 -263 94 -412c0 -86 -45 -128 -156 -128c-62 0 -125 14 -174 29l17 95
c42 -10 105 -23 150 -23c33 0 43 12 43 40c0 127 -35 236 -82 361z" />
    <glyph glyph-name="paragraph.smcp" horiz-adv-x="533" 
d="M40 295c0 128 97 225 225 225v-449c-128 0 -225 96 -225 224zM294 -207l-72 80c121 110 126 111 126 154v493h110v-515c0 -73 -18 -79 -164 -212z" />
    <glyph glyph-name="germandbls.smcp" horiz-adv-x="988" 
d="M233 -10c-60 0 -132 12 -188 36l24 110c45 -13 111 -25 166 -25s66 11 66 41c0 33 -6 41 -100 56c-136 22 -150 75 -150 170c0 114 69 152 206 152c50 0 128 -8 178 -22l-17 -117c-58 12 -113 18 -160 18c-48 0 -59 -7 -59 -36c0 -35 5 -40 94 -56
c146 -26 156 -60 156 -158c0 -112 -40 -169 -216 -169zM727 -10c-60 0 -132 12 -188 36l24 110c45 -13 111 -25 166 -25s66 11 66 41c0 33 -6 41 -100 56c-136 22 -150 75 -150 170c0 114 69 152 206 152c50 0 128 -8 178 -22l-17 -117c-58 12 -113 18 -160 18
c-48 0 -59 -7 -59 -36c0 -35 5 -40 94 -56c146 -26 156 -60 156 -158c0 -112 -40 -169 -216 -169z" />
    <glyph glyph-name="yen.smcp" horiz-adv-x="548" 
d="M426 312h73v-81h-111l-30 -61h141v-80h-151v-90h-148v90h-150v80h139l-30 61h-109v81h70l-100 208h150l104 -234l104 234h150z" />
    <glyph glyph-name="ae.smcp" horiz-adv-x="744" 
d="M380 0l-22 78h-178l-22 -78h-143l162 520h512v-118h-292l25 -79h249v-118h-213l29 -87h202v-118h-309zM269 400l-57 -207h114z" />
    <glyph glyph-name="oslash.smcp" horiz-adv-x="568" 
d="M284 -10c-51 0 -92 8 -126 21l-46 -71l-44 28l44 69c-40 33 -57 76 -57 123v200c0 91 66 170 229 170c51 0 93 -8 127 -22l46 72l44 -28l-44 -71c39 -32 56 -75 56 -121v-200c0 -91 -66 -170 -229 -170zM284 402c-56 0 -81 -22 -81 -59v-163l134 211c-14 8 -32 11 -53 11
zM365 336l-134 -208c15 -7 32 -10 53 -10c56 0 81 22 81 59v159z" />
    <glyph glyph-name="questiondown.smcp" horiz-adv-x="440" 
d="M219 354l67 -98c-94 -61 -97 -65 -97 -111c0 -31 14 -38 67 -38c37 0 88 6 135 14l14 -115c-56 -11 -107 -16 -163 -16c-144 0 -197 35 -197 153c0 92 2 96 174 211zM155 520h150v-139h-150v139z" />
    <glyph glyph-name="exclamdown.smcp" horiz-adv-x="300" 
d="M75 383v137h150v-137h-150zM75 0v207l33 131h84l33 -131v-207h-150z" />
    <glyph glyph-name="florin.smcp" horiz-adv-x="476" 
d="M5 -181l19 111c10 -2 38 -7 53 -7c30 0 41 10 44 43l17 188h-79l10 118h79l9 102c9 105 61 156 179 156c41 0 83 -7 115 -19l-22 -112c-24 7 -54 11 -76 11c-34 0 -49 -13 -52 -45l-9 -93h125l-14 -118h-121l-18 -208c-7 -81 -39 -143 -153 -143c-22 0 -75 5 -106 16z
" />
    <glyph glyph-name="oe.smcp" horiz-adv-x="798" 
d="M284 0c-164 0 -229 79 -229 169v182c0 90 65 169 229 169h459v-118h-227v-79h209v-118h-209v-87h227v-118h-459zM368 392h-84c-56 0 -81 -22 -81 -59v-146c0 -37 25 -59 81 -59h84v264z" />
    <glyph glyph-name="endash.smcp" horiz-adv-x="478" 
d="M428 220h-378v120h378v-120z" />
    <glyph glyph-name="divide.smcp" horiz-adv-x="524" 
d="M329 0h-134v136h134v-136zM469 198h-414v92h414v-92zM329 351h-134v136h134v-136z" />
    <glyph glyph-name="Euro.smcp" horiz-adv-x="482" 
d="M25 291v55h58v15c0 111 55 169 217 169c45 0 91 -5 142 -17l-16 -113c-43 9 -89 13 -130 13c-49 0 -69 -18 -69 -59v-8h113v-55h-113v-62h113v-55h-113v-8c0 -41 20 -59 69 -59c41 0 87 4 130 13l16 -113c-51 -12 -97 -17 -142 -17c-162 0 -217 58 -217 169v15h-58v55h58
v62h-58z" />
    <glyph glyph-name="fi.smcp" horiz-adv-x="772" 
d="M554 0v520h148v-520h-148zM218 402v-102h214v-118h-214v-182h-148v520h379v-118h-231z" />
    <glyph glyph-name="fl.smcp" horiz-adv-x="955" 
d="M218 402v-102h214v-118h-214v-182h-148v520h379v-118h-231zM554 0v520h148v-392h218v-128h-366z" />
    <glyph glyph-name="perthousand.smcp" horiz-adv-x="1101" 
d="M315 -10l-87 40l230 500l87 -40zM176 236c-114 0 -141 56 -141 125v45c0 68 27 124 141 124c115 0 141 -56 141 -124v-45c0 -69 -26 -125 -141 -125zM215 416c0 20 -16 28 -39 28c-22 0 -39 -8 -39 -28v-66c0 -21 17 -28 39 -28c23 0 39 7 39 28v66zM596 -10
c-114 0 -141 56 -141 125v45c0 68 27 124 141 124c115 0 141 -56 141 -124v-45c0 -69 -26 -125 -141 -125zM635 170c0 20 -16 28 -39 28c-22 0 -39 -8 -39 -28v-66c0 -21 17 -28 39 -28c23 0 39 7 39 28v66zM920 -10c-114 0 -141 56 -141 125v45c0 68 27 124 141 124
c115 0 141 -56 141 -124v-45c0 -69 -26 -125 -141 -125zM959 170c0 20 -16 28 -39 28c-22 0 -39 -8 -39 -28v-66c0 -21 17 -28 39 -28c23 0 39 7 39 28v66z" />
    <glyph glyph-name="dotlessi.smcp" horiz-adv-x="298" 
d="M75 0v520h148v-520h-148z" />
    <glyph glyph-name="acute.smcp" horiz-adv-x="295" 
d="M101 565l-51 78c48 30 87 56 136 92l54 -84c-56 -36 -91 -58 -139 -86z" />
    <glyph glyph-name="breve.smcp" horiz-adv-x="398" 
d="M286 721l67 -32c-9 -62 -61 -123 -154 -123s-145 61 -154 123l67 32c11 -40 39 -73 87 -73s76 33 87 73z" />
    <glyph glyph-name="caron.smcp" horiz-adv-x="376" 
d="M277 721l39 -62c-47 -32 -82 -58 -128 -94c-46 36 -81 62 -128 94l39 62c36 -16 56 -26 89 -45c33 19 53 29 89 45z" />
    <glyph glyph-name="cedilla.smcp" horiz-adv-x="286" 
d="M241 -115c0 -50 -28 -82 -112 -82c-21 0 -61 7 -84 16l14 55c17 -5 42 -10 62 -10c31 0 47 4 47 22c0 23 -11 22 -35 22c-10 0 -26 -1 -42 -2l-20 17l21 97h63l-13 -67c73 10 99 -13 99 -68z" />
    <glyph glyph-name="circumflex.smcp" horiz-adv-x="346" 
d="M301 630l-39 -62c-36 16 -56 26 -89 45c-33 -19 -53 -29 -89 -45l-39 62c47 32 82 58 128 94c46 -36 81 -62 128 -94z" />
    <glyph glyph-name="commaaccent.smcp" horiz-adv-x="333" 
d="M231 -197l-67 -106l-54 33l42 81h-42v140h121v-148z" />
    <glyph glyph-name="dieresis.smcp" horiz-adv-x="416" 
d="M166 578h-111v112h111v-112zM361 578h-111v112h111v-112z" />
    <glyph glyph-name="dotaccent.smcp" horiz-adv-x="234" 
d="M189 588h-144v153h144v-153z" />
    <glyph glyph-name="grave.smcp" horiz-adv-x="295" 
d="M245 643l-51 -78c-48 28 -83 50 -139 86l54 84c49 -36 88 -62 136 -92z" />
    <glyph glyph-name="hungarumlaut.smcp" horiz-adv-x="468" 
d="M109 565l-64 64c42 38 75 72 118 121l70 -71c-50 -51 -75 -75 -124 -114zM299 565l-64 64c42 38 75 72 118 121l70 -71c-50 -51 -75 -75 -124 -114z" />
    <glyph glyph-name="macron.smcp" horiz-adv-x="344" 
d="M299 583h-254v92h254v-92z" />
    <glyph glyph-name="ogonek.smcp" horiz-adv-x="264" 
d="M210 -121l9 -75c-20 -8 -43 -11 -66 -11c-64 0 -108 31 -108 92c0 49 43 87 98 115h76c-32 -26 -78 -60 -78 -95c0 -21 11 -30 34 -30c10 0 23 1 35 4z" />
    <glyph glyph-name="ring.smcp" horiz-adv-x="280" 
d="M235 647c0 -51 -32 -91 -95 -91s-95 36 -95 91c0 51 33 91 95 91c63 0 95 -40 95 -91zM175 647c0 24 -12 38 -35 38s-35 -14 -35 -38s12 -38 35 -38s35 14 35 38z" />
    <glyph glyph-name="tilde.smcp" horiz-adv-x="417" 
d="M266 571c-29 0 -47 7 -67 21c-18 13 -29 22 -46 22c-23 0 -38 -27 -50 -45l-58 45c23 45 59 87 105 87c24 0 41 -5 65 -21c23 -15 37 -23 51 -23c22 0 32 14 38 41l68 -31c-17 -60 -54 -96 -106 -96z" />
    <glyph glyph-name="aacute.smcp" horiz-adv-x="543" 
d="M383 0l-22 78h-179l-22 -78h-145l165 520h182l166 -520h-145zM271 400l-56 -207h113zM274 565l-51 78c48 30 87 56 136 92l54 -84c-56 -36 -91 -58 -139 -86z" />
    <glyph glyph-name="aeacute.smcp" horiz-adv-x="744" 
d="M380 0l-22 78h-178l-22 -78h-143l162 520h512v-118h-292l25 -79h249v-118h-213l29 -87h202v-118h-309zM269 400l-57 -207h114zM325 565l-51 78c48 30 87 56 136 92l54 -84c-56 -36 -91 -58 -139 -86z" />
    <glyph glyph-name="abreve.smcp" horiz-adv-x="543" 
d="M383 0l-22 78h-179l-22 -78h-145l165 520h182l166 -520h-145zM271 400l-56 -207h113zM358 721l67 -32c-9 -62 -61 -123 -154 -123s-145 61 -154 123l67 32c11 -40 39 -73 87 -73s76 33 87 73z" />
    <glyph glyph-name="acircumflex.smcp" horiz-adv-x="543" 
d="M383 0l-22 78h-179l-22 -78h-145l165 520h182l166 -520h-145zM271 400l-56 -207h113zM399 630l-39 -62c-36 16 -56 26 -89 45c-33 -19 -53 -29 -89 -45l-39 62c47 32 82 58 128 94c46 -36 81 -62 128 -94z" />
    <glyph glyph-name="adieresis.smcp" horiz-adv-x="543" 
d="M383 0l-22 78h-179l-22 -78h-145l165 520h182l166 -520h-145zM271 400l-56 -207h113zM229 578h-111v112h111v-112zM424 578h-111v112h111v-112z" />
    <glyph glyph-name="agrave.smcp" horiz-adv-x="543" 
d="M383 0l-22 78h-179l-22 -78h-145l165 520h182l166 -520h-145zM271 400l-56 -207h113zM327 643l-51 -78c-48 28 -83 50 -139 86l54 84c49 -36 88 -62 136 -92z" />
    <glyph glyph-name="amacron.smcp" horiz-adv-x="543" 
d="M383 0l-22 78h-179l-22 -78h-145l165 520h182l166 -520h-145zM271 400l-56 -207h113zM398 583h-254v92h254v-92z" />
    <glyph glyph-name="aogonek.smcp" horiz-adv-x="543" 
d="M383 0l-22 78h-179l-22 -78h-145l165 520h182l166 -520h-27c-44 -33 -78 -60 -78 -95c0 -21 11 -30 34 -30c10 0 23 1 35 4l9 -75c-20 -8 -43 -11 -66 -11c-64 0 -108 31 -108 92c0 42 41 87 119 115h-63zM271 400l-56 -207h113z" />
    <glyph glyph-name="aring.smcp" horiz-adv-x="543" 
d="M383 0l-22 78h-179l-22 -78h-145l165 520h182l166 -520h-145zM271 400l-56 -207h113zM366 647c0 -51 -32 -91 -95 -91s-95 36 -95 91c0 51 33 91 95 91c63 0 95 -40 95 -91zM306 647c0 24 -12 38 -35 38s-35 -14 -35 -38s12 -38 35 -38s35 14 35 38z" />
    <glyph glyph-name="aringacute.smcp" horiz-adv-x="543" 
d="M366 631c0 -51 -32 -91 -95 -91s-95 36 -95 91c0 51 33 91 95 91c63 0 95 -40 95 -91zM306 631c0 24 -12 38 -35 38s-35 -14 -35 -38s12 -38 35 -38s35 14 35 38zM383 0l-22 78h-179l-22 -78h-145l165 520h182l166 -520h-145zM271 400l-56 -207h113zM271 739l-51 78
c42 26 67 42 108 72l54 -84c-38 -24 -67 -41 -111 -66z" />
    <glyph glyph-name="atilde.smcp" horiz-adv-x="543" 
d="M383 0l-22 78h-179l-22 -78h-145l165 520h182l166 -520h-145zM271 400l-56 -207h113zM330 571c-29 0 -47 7 -67 21c-18 13 -29 22 -46 22c-23 0 -38 -27 -50 -45l-58 45c23 45 59 87 105 87c24 0 41 -5 65 -21c23 -15 37 -23 51 -23c22 0 32 14 38 41l68 -31
c-17 -60 -54 -96 -106 -96z" />
    <glyph glyph-name="cacute.smcp" horiz-adv-x="483" 
d="M272 -10c-149 0 -217 58 -217 169v202c0 111 68 169 217 169c57 0 116 -7 171 -18l-15 -122c-57 9 -104 14 -156 14c-49 0 -69 -18 -69 -59v-170c0 -41 20 -59 69 -59c52 0 101 4 156 14l15 -122c-56 -12 -114 -18 -171 -18zM244 565l-51 78c48 30 87 56 136 92l54 -84
c-56 -36 -91 -58 -139 -86z" />
    <glyph glyph-name="ccircumflex.smcp" horiz-adv-x="483" 
d="M272 -10c-149 0 -217 58 -217 169v202c0 111 68 169 217 169c57 0 116 -7 171 -18l-15 -122c-57 9 -104 14 -156 14c-49 0 -69 -18 -69 -59v-170c0 -41 20 -59 69 -59c52 0 101 4 156 14l15 -122c-56 -12 -114 -18 -171 -18zM395 630l-39 -62c-36 16 -56 26 -89 45
c-33 -19 -53 -29 -89 -45l-39 62c47 32 82 58 128 94c46 -36 81 -62 128 -94z" />
    <glyph glyph-name="ccaron.smcp" horiz-adv-x="483" 
d="M272 -10c-149 0 -217 58 -217 169v202c0 111 68 169 217 169c57 0 116 -7 171 -18l-15 -122c-57 9 -104 14 -156 14c-49 0 -69 -18 -69 -59v-170c0 -41 20 -59 69 -59c52 0 101 4 156 14l15 -122c-56 -12 -114 -18 -171 -18zM360 721l39 -62c-47 -32 -82 -58 -128 -94
c-46 36 -81 62 -128 94l39 62c36 -16 56 -26 89 -45c33 19 53 29 89 45z" />
    <glyph glyph-name="cdotaccent.smcp" horiz-adv-x="483" 
d="M272 -10c-149 0 -217 58 -217 169v202c0 111 68 169 217 169c57 0 116 -7 171 -18l-15 -122c-57 9 -104 14 -156 14c-49 0 -69 -18 -69 -59v-170c0 -41 20 -59 69 -59c52 0 101 4 156 14l15 -122c-56 -12 -114 -18 -171 -18zM344 588h-144v153h144v-153z" />
    <glyph glyph-name="ccedilla.smcp" horiz-adv-x="483" 
d="M383 -115c0 -50 -28 -82 -112 -82c-21 0 -61 7 -84 16l14 55c17 -5 42 -10 62 -10c31 0 47 4 47 22c0 23 -11 22 -35 22c-10 0 -26 -1 -42 -2l-20 17l15 69c-119 10 -173 67 -173 167v202c0 111 68 169 217 169c57 0 116 -7 171 -18l-15 -122c-57 9 -104 14 -156 14
c-49 0 -69 -18 -69 -59v-170c0 -41 20 -59 69 -59c52 0 101 4 156 14l15 -122c-50 -10 -101 -17 -152 -18l-7 -37c73 10 99 -13 99 -68z" />
    <glyph glyph-name="dcaron.smcp" horiz-adv-x="560" 
d="M309 0h-239v520h239c160 0 201 -79 201 -184v-152c0 -105 -41 -184 -201 -184zM365 338c0 39 -18 57 -61 57h-86v-270h86c43 0 61 18 61 57v156zM371 721l39 -62c-47 -32 -82 -58 -128 -94c-46 36 -81 62 -128 94l39 62c36 -16 56 -26 89 -45c33 19 53 29 89 45z" />
    <glyph glyph-name="dcroat.smcp" horiz-adv-x="566" 
d="M30 211v99h46v210h239c160 0 201 -79 201 -184v-152c0 -105 -41 -184 -201 -184h-239v211h-46zM371 338c0 39 -18 57 -61 57h-86v-85h72v-99h-72v-86h86c43 0 61 18 61 57v156z" />
    <glyph glyph-name="eacute.smcp" horiz-adv-x="501" 
d="M70 0v520h376v-118h-228v-79h210v-118h-210v-87h228v-118h-376zM237 565l-51 78c48 30 87 56 136 92l54 -84c-56 -36 -91 -58 -139 -86z" />
    <glyph glyph-name="ebreve.smcp" horiz-adv-x="501" 
d="M70 0v520h376v-118h-228v-79h210v-118h-210v-87h228v-118h-376zM351 721l67 -32c-9 -62 -61 -123 -154 -123s-145 61 -154 123l67 32c11 -40 39 -73 87 -73s76 33 87 73z" />
    <glyph glyph-name="ecaron.smcp" horiz-adv-x="501" 
d="M70 0v520h376v-118h-228v-79h210v-118h-210v-87h228v-118h-376zM359 721l39 -62c-47 -32 -82 -58 -128 -94c-46 36 -81 62 -128 94l39 62c36 -16 56 -26 89 -45c33 19 53 29 89 45z" />
    <glyph glyph-name="ecircumflex.smcp" horiz-adv-x="501" 
d="M70 0v520h376v-118h-228v-79h210v-118h-210v-87h228v-118h-376zM391 630l-39 -62c-36 16 -56 26 -89 45c-33 -19 -53 -29 -89 -45l-39 62c47 32 82 58 128 94c46 -36 81 -62 128 -94z" />
    <glyph glyph-name="edieresis.smcp" horiz-adv-x="501" 
d="M70 0v520h376v-118h-228v-79h210v-118h-210v-87h228v-118h-376zM219 578h-111v112h111v-112zM414 578h-111v112h111v-112z" />
    <glyph glyph-name="edotaccent.smcp" horiz-adv-x="501" 
d="M70 0v520h376v-118h-228v-79h210v-118h-210v-87h228v-118h-376zM338 588h-144v153h144v-153z" />
    <glyph glyph-name="egrave.smcp" horiz-adv-x="501" 
d="M70 0v520h376v-118h-228v-79h210v-118h-210v-87h228v-118h-376zM334 643l-51 -78c-48 28 -83 50 -139 86l54 84c49 -36 88 -62 136 -92z" />
    <glyph glyph-name="emacron.smcp" horiz-adv-x="501" 
d="M70 0v520h376v-118h-228v-79h210v-118h-210v-87h228v-118h-376zM392 583h-254v92h254v-92z" />
    <glyph glyph-name="eng.smcp" horiz-adv-x="629" 
d="M383 0l-173 317v-317h-140v520h176l173 -318v318h140v-533c0 -80 -34 -111 -182 -194l-60 92c90 55 103 70 103 101v14h-37z" />
    <glyph glyph-name="eogonek.smcp" horiz-adv-x="501" 
d="M70 0v520h376v-118h-228v-79h210v-118h-210v-87h228v-118h-28c-32 -26 -78 -60 -78 -95c0 -21 11 -30 34 -30c10 0 23 1 35 4l9 -75c-20 -8 -43 -11 -66 -11c-64 0 -108 31 -108 92c0 49 43 87 98 115h-272z" />
    <glyph glyph-name="eth.smcp" horiz-adv-x="566" 
d="M30 211v99h46v210h239c160 0 201 -79 201 -184v-152c0 -105 -41 -184 -201 -184h-239v211h-46zM371 338c0 39 -18 57 -61 57h-86v-85h72v-99h-72v-86h86c43 0 61 18 61 57v156z" />
    <glyph glyph-name="gbreve.smcp" horiz-adv-x="544" 
d="M273 -10c-152 0 -218 59 -218 164v213c0 110 73 163 218 163c65 0 130 -6 197 -18l-14 -124c-70 8 -139 14 -183 14c-47 0 -70 -14 -70 -58v-167c0 -38 16 -61 70 -61c28 0 53 2 77 5v141h134v-244c-66 -18 -140 -28 -211 -28zM374 721l67 -32c-9 -62 -61 -123 -154 -123
s-145 61 -154 123l67 32c11 -40 39 -73 87 -73s76 33 87 73z" />
    <glyph glyph-name="gcircumflex.smcp" horiz-adv-x="544" 
d="M273 -10c-152 0 -218 59 -218 164v213c0 110 73 163 218 163c65 0 130 -6 197 -18l-14 -124c-70 8 -139 14 -183 14c-47 0 -70 -14 -70 -58v-167c0 -38 16 -61 70 -61c28 0 53 2 77 5v141h134v-244c-66 -18 -140 -28 -211 -28zM417 630l-39 -62c-36 16 -56 26 -89 45
c-33 -19 -53 -29 -89 -45l-39 62c47 32 82 58 128 94c46 -36 81 -62 128 -94z" />
    <glyph glyph-name="gcommaaccent.smcp" horiz-adv-x="544" 
d="M273 -10c-152 0 -218 59 -218 164v213c0 110 73 163 218 163c65 0 130 -6 197 -18l-14 -124c-70 8 -139 14 -183 14c-47 0 -70 -14 -70 -58v-167c0 -38 16 -61 70 -61c28 0 53 2 77 5v141h134v-244c-66 -18 -140 -28 -211 -28zM353 -197l-67 -106l-54 33l42 81h-42v140
h121v-148z" />
    <glyph glyph-name="gdotaccent.smcp" horiz-adv-x="544" 
d="M273 -10c-152 0 -218 59 -218 164v213c0 110 73 163 218 163c65 0 130 -6 197 -18l-14 -124c-70 8 -139 14 -183 14c-47 0 -70 -14 -70 -58v-167c0 -38 16 -61 70 -61c28 0 53 2 77 5v141h134v-244c-66 -18 -140 -28 -211 -28zM364 588h-144v153h144v-153z" />
    <glyph glyph-name="hbar.smcp" horiz-adv-x="613" 
d="M24 387v63h51v70h148v-70h167v70h148v-70h51v-63h-51v-387h-148v197h-167v-197h-148v387h-51zM223 325h167v62h-167v-62z" />
    <glyph glyph-name="hcircumflex.smcp" horiz-adv-x="603" 
d="M385 0v197h-167v-197h-148v520h148v-195h167v195h148v-520h-148zM429 630l-39 -62c-36 16 -56 26 -89 45c-33 -19 -53 -29 -89 -45l-39 62c47 32 82 58 128 94c46 -36 81 -62 128 -94z" />
    <glyph glyph-name="iacute.smcp" horiz-adv-x="298" 
d="M75 0v520h148v-520h-148zM144 565l-51 78c48 30 87 56 136 92l54 -84c-56 -36 -91 -58 -139 -86z" />
    <glyph glyph-name="ibreve.smcp" horiz-adv-x="298" 
d="M236 721l67 -32c-9 -62 -61 -123 -154 -123s-145 61 -154 123l67 32c11 -40 39 -73 87 -73s76 33 87 73zM75 0v520h148v-520h-148z" />
    <glyph glyph-name="icircumflex.smcp" horiz-adv-x="298" 
d="M75 0v520h148v-520h-148zM277 630l-39 -62c-36 16 -56 26 -89 45c-33 -19 -53 -29 -89 -45l-39 62c47 32 82 58 128 94c46 -36 81 -62 128 -94z" />
    <glyph glyph-name="idieresis.smcp" horiz-adv-x="298" 
d="M75 0v520h148v-520h-148zM107 578h-111v112h111v-112zM302 578h-111v112h111v-112z" />
    <glyph glyph-name="idotaccent.smcp" horiz-adv-x="298" 
d="M75 0v520h148v-520h-148zM221 588h-144v153h144v-153z" />
    <glyph glyph-name="igrave.smcp" horiz-adv-x="298" 
d="M75 0v520h148v-520h-148zM213 643l-51 -78c-48 28 -83 50 -139 86l54 84c49 -36 88 -62 136 -92z" />
    <glyph glyph-name="imacron.smcp" horiz-adv-x="298" 
d="M276 583h-254v92h254v-92zM75 0v520h148v-520h-148z" />
    <glyph glyph-name="iogonek.smcp" horiz-adv-x="298" 
d="M198 -122l8 -74c-26 -9 -50 -11 -73 -11c-64 0 -111 31 -111 92c0 40 17 76 53 115v520h148v-520h-77c-27 -48 -34 -73 -34 -97c0 -18 7 -31 33 -31c17 0 41 3 53 6z" />
    <glyph glyph-name="itilde.smcp" horiz-adv-x="298" 
d="M210 571c-29 0 -47 7 -67 21c-18 13 -29 22 -46 22c-23 0 -38 -27 -50 -45l-58 45c23 45 59 87 105 87c24 0 41 -5 65 -21c23 -15 37 -23 51 -23c22 0 32 14 38 41l68 -31c-17 -60 -54 -96 -106 -96zM75 0v520h148v-520h-148z" />
    <glyph glyph-name="ij.smcp" horiz-adv-x="581" 
d="M75 0v520h148v-520h-148zM380 -187l-92 96c74 74 80 87 80 109v502h148v-513c0 -55 -23 -90 -136 -194z" />
    <glyph glyph-name="jcircumflex.smcp" horiz-adv-x="283" 
d="M82 -187l-92 96c74 74 80 87 80 109v502h148v-513c0 -55 -23 -90 -136 -194zM271 630l-39 -62c-36 16 -56 26 -89 45c-33 -19 -53 -29 -89 -45l-39 62c47 32 82 58 128 94c46 -36 81 -62 128 -94z" />
    <glyph glyph-name="kcommaaccent.smcp" horiz-adv-x="580" 
d="M393 0l-165 266l157 254h167l-162 -254l170 -266h-167zM70 0v520h148v-520h-148zM364 -197l-67 -106l-54 33l42 81h-42v140h121v-148z" />
    <glyph glyph-name="lacute.smcp" horiz-adv-x="471" 
d="M70 0v520h148v-392h218v-128h-366zM145 565l-51 78c48 30 87 56 136 92l54 -84c-56 -36 -91 -58 -139 -86z" />
    <glyph glyph-name="lcaron.smcp" horiz-adv-x="471" 
d="M70 0v520h148v-392h218v-128h-366zM421 411l-63 -95l-40 28l41 74h-48v102h110v-109z" />
    <glyph glyph-name="lcommaaccent.smcp" horiz-adv-x="471" 
d="M70 0v520h148v-392h218v-128h-366zM322 -197l-67 -106l-54 33l42 81h-42v140h121v-148z" />
    <glyph glyph-name="ldot.smcp" horiz-adv-x="471" 
d="M411 215h-134v143h134v-143zM70 0v520h148v-392h218v-128h-366z" />
    <glyph glyph-name="lslash.smcp" horiz-adv-x="491" 
d="M91 0v182l-57 -23l-34 86l91 36v239h148v-178l124 51l33 -88l-157 -63v-114h217v-128h-365z" />
    <glyph glyph-name="nacute.smcp" horiz-adv-x="629" 
d="M383 0l-173 317v-317h-140v520h176l173 -318v318h140v-520h-176zM301 565l-51 78c48 30 87 56 136 92l54 -84c-56 -36 -91 -58 -139 -86z" />
    <glyph glyph-name="ncaron.smcp" horiz-adv-x="629" 
d="M383 0l-173 317v-317h-140v520h176l173 -318v318h140v-520h-176zM412 721l39 -62c-47 -32 -82 -58 -128 -94c-46 36 -81 62 -128 94l39 62c36 -16 56 -26 89 -45c33 19 53 29 89 45z" />
    <glyph glyph-name="ncommaaccent.smcp" horiz-adv-x="629" 
d="M383 0l-173 317v-317h-140v520h176l173 -318v318h140v-520h-176zM372 -197l-67 -106l-54 33l42 81h-42v140h121v-148z" />
    <glyph glyph-name="ntilde.smcp" horiz-adv-x="629" 
d="M383 0l-173 317v-317h-140v520h176l173 -318v318h140v-520h-176zM378 571c-29 0 -47 7 -67 21c-18 13 -29 22 -46 22c-23 0 -38 -27 -50 -45l-58 45c23 45 59 87 105 87c24 0 41 -5 65 -21c23 -15 37 -23 51 -23c22 0 32 14 38 41l68 -31c-17 -60 -54 -96 -106 -96z" />
    <glyph glyph-name="oacute.smcp" horiz-adv-x="568" 
d="M284 -10c-163 0 -229 79 -229 169v202c0 90 66 169 229 169s229 -79 229 -169v-202c0 -90 -66 -169 -229 -169zM365 343c0 37 -25 59 -81 59s-81 -22 -81 -59v-166c0 -37 25 -59 81 -59s81 22 81 59v166zM275 565l-51 78c48 30 87 56 136 92l54 -84
c-56 -36 -91 -58 -139 -86z" />
    <glyph glyph-name="obreve.smcp" horiz-adv-x="568" 
d="M284 -10c-163 0 -229 79 -229 169v202c0 90 66 169 229 169s229 -79 229 -169v-202c0 -90 -66 -169 -229 -169zM365 343c0 37 -25 59 -81 59s-81 -22 -81 -59v-166c0 -37 25 -59 81 -59s81 22 81 59v166zM370 721l67 -32c-9 -62 -61 -123 -154 -123s-145 61 -154 123
l67 32c11 -40 39 -73 87 -73s76 33 87 73z" />
    <glyph glyph-name="ocircumflex.smcp" horiz-adv-x="568" 
d="M284 -10c-163 0 -229 79 -229 169v202c0 90 66 169 229 169s229 -79 229 -169v-202c0 -90 -66 -169 -229 -169zM365 343c0 37 -25 59 -81 59s-81 -22 -81 -59v-166c0 -37 25 -59 81 -59s81 22 81 59v166zM412 630l-39 -62c-36 16 -56 26 -89 45c-33 -19 -53 -29 -89 -45
l-39 62c47 32 82 58 128 94c46 -36 81 -62 128 -94z" />
    <glyph glyph-name="odieresis.smcp" horiz-adv-x="568" 
d="M284 -10c-163 0 -229 79 -229 169v202c0 90 66 169 229 169s229 -79 229 -169v-202c0 -90 -66 -169 -229 -169zM365 343c0 37 -25 59 -81 59s-81 -22 -81 -59v-166c0 -37 25 -59 81 -59s81 22 81 59v166zM242 578h-111v112h111v-112zM437 578h-111v112h111v-112z" />
    <glyph glyph-name="ograve.smcp" horiz-adv-x="568" 
d="M284 -10c-163 0 -229 79 -229 169v202c0 90 66 169 229 169s229 -79 229 -169v-202c0 -90 -66 -169 -229 -169zM365 343c0 37 -25 59 -81 59s-81 -22 -81 -59v-166c0 -37 25 -59 81 -59s81 22 81 59v166zM341 643l-51 -78c-48 28 -83 50 -139 86l54 84
c49 -36 88 -62 136 -92z" />
    <glyph glyph-name="ohungarumlaut.smcp" horiz-adv-x="568" 
d="M284 -10c-163 0 -229 79 -229 169v202c0 90 66 169 229 169s229 -79 229 -169v-202c0 -90 -66 -169 -229 -169zM365 343c0 37 -25 59 -81 59s-81 -22 -81 -59v-166c0 -37 25 -59 81 -59s81 22 81 59v166zM203 565l-64 64c42 38 75 72 118 121l70 -71
c-50 -51 -75 -75 -124 -114zM393 565l-64 64c42 38 75 72 118 121l70 -71c-50 -51 -75 -75 -124 -114z" />
    <glyph glyph-name="omacron.smcp" horiz-adv-x="568" 
d="M284 -10c-163 0 -229 79 -229 169v202c0 90 66 169 229 169s229 -79 229 -169v-202c0 -90 -66 -169 -229 -169zM365 343c0 37 -25 59 -81 59s-81 -22 -81 -59v-166c0 -37 25 -59 81 -59s81 22 81 59v166zM411 583h-254v92h254v-92z" />
    <glyph glyph-name="oslashacute.smcp" horiz-adv-x="568" 
d="M284 -10c-51 0 -92 8 -126 21l-46 -71l-44 28l44 69c-40 33 -57 76 -57 123v200c0 91 66 170 229 170c51 0 93 -8 127 -22l46 72l44 -28l-44 -71c39 -32 56 -75 56 -121v-200c0 -91 -66 -170 -229 -170zM284 402c-56 0 -81 -22 -81 -59v-163l134 211c-14 8 -32 11 -53 11
zM365 336l-134 -208c15 -7 32 -10 53 -10c56 0 81 22 81 59v159zM269 565l-51 78c48 30 87 56 136 92l54 -84c-56 -36 -91 -58 -139 -86z" />
    <glyph glyph-name="otilde.smcp" horiz-adv-x="568" 
d="M284 -10c-163 0 -229 79 -229 169v202c0 90 66 169 229 169s229 -79 229 -169v-202c0 -90 -66 -169 -229 -169zM365 343c0 37 -25 59 -81 59s-81 -22 -81 -59v-166c0 -37 25 -59 81 -59s81 22 81 59v166zM344 571c-29 0 -47 7 -67 21c-18 13 -29 22 -46 22
c-23 0 -38 -27 -50 -45l-58 45c23 45 59 87 105 87c24 0 41 -5 65 -21c23 -15 37 -23 51 -23c22 0 32 14 38 41l68 -31c-17 -60 -54 -96 -106 -96z" />
    <glyph glyph-name="racute.smcp" horiz-adv-x="576" 
d="M396 0l-92 139h-86v-139h-148v520h248c145 0 191 -56 191 -155v-70c0 -60 -17 -93 -62 -125l114 -170h-165zM365 358c0 29 -14 43 -51 43h-96v-146h96c37 0 51 15 51 45v58zM269 565l-51 78c48 30 87 56 136 92l54 -84c-56 -36 -91 -58 -139 -86z" />
    <glyph glyph-name="rcaron.smcp" horiz-adv-x="576" 
d="M396 0l-92 139h-86v-139h-148v520h248c145 0 191 -56 191 -155v-70c0 -60 -17 -93 -62 -125l114 -170h-165zM365 358c0 29 -14 43 -51 43h-96v-146h96c37 0 51 15 51 45v58zM371 721l39 -62c-47 -32 -82 -58 -128 -94c-46 36 -81 62 -128 94l39 62c36 -16 56 -26 89 -45
c33 19 53 29 89 45z" />
    <glyph glyph-name="rcommaaccent.smcp" horiz-adv-x="576" 
d="M396 0l-92 139h-86v-139h-148v520h248c145 0 191 -56 191 -155v-70c0 -60 -17 -93 -62 -125l114 -170h-165zM365 358c0 29 -14 43 -51 43h-96v-146h96c37 0 51 15 51 45v58zM365 -197l-67 -106l-54 33l42 81h-42v140h121v-148z" />
    <glyph glyph-name="sacute.smcp" horiz-adv-x="494" 
d="M233 -10c-60 0 -132 12 -188 36l24 110c45 -13 111 -25 166 -25s66 11 66 41c0 33 -6 41 -100 56c-136 22 -150 75 -150 170c0 114 69 152 206 152c50 0 128 -8 178 -22l-17 -117c-58 12 -113 18 -160 18c-48 0 -59 -7 -59 -36c0 -35 5 -40 94 -56
c146 -26 156 -60 156 -158c0 -112 -40 -169 -216 -169zM230 565l-51 78c48 30 87 56 136 92l54 -84c-56 -36 -91 -58 -139 -86z" />
    <glyph glyph-name="scaron.smcp" horiz-adv-x="494" 
d="M233 -10c-60 0 -132 12 -188 36l24 110c45 -13 111 -25 166 -25s66 11 66 41c0 33 -6 41 -100 56c-136 22 -150 75 -150 170c0 114 69 152 206 152c50 0 128 -8 178 -22l-17 -117c-58 12 -113 18 -160 18c-48 0 -59 -7 -59 -36c0 -35 5 -40 94 -56
c146 -26 156 -60 156 -158c0 -112 -40 -169 -216 -169zM345 721l39 -62c-47 -32 -82 -58 -128 -94c-46 36 -81 62 -128 94l39 62c36 -16 56 -26 89 -45c33 19 53 29 89 45z" />
    <glyph glyph-name="scedilla.smcp" horiz-adv-x="494" 
d="M358 -115c0 -50 -28 -82 -112 -82c-21 0 -61 7 -84 16l14 55c17 -5 42 -10 62 -10c31 0 47 4 47 22c0 23 -11 22 -35 22c-10 0 -26 -1 -42 -2l-20 17l14 68c-53 4 -110 15 -157 35l24 110c45 -13 111 -25 166 -25s66 11 66 41c0 33 -6 41 -100 56
c-136 22 -150 75 -150 170c0 114 69 152 206 152c50 0 128 -8 178 -22l-17 -117c-58 12 -113 18 -160 18c-48 0 -59 -7 -59 -36c0 -35 5 -40 94 -56c146 -26 156 -60 156 -158c0 -105 -35 -161 -183 -168l-7 -38c73 10 99 -13 99 -68z" />
    <glyph glyph-name="scircumflex.smcp" horiz-adv-x="494" 
d="M233 -10c-60 0 -132 12 -188 36l24 110c45 -13 111 -25 166 -25s66 11 66 41c0 33 -6 41 -100 56c-136 22 -150 75 -150 170c0 114 69 152 206 152c50 0 128 -8 178 -22l-17 -117c-58 12 -113 18 -160 18c-48 0 -59 -7 -59 -36c0 -35 5 -40 94 -56
c146 -26 156 -60 156 -158c0 -112 -40 -169 -216 -169zM384 630l-39 -62c-36 16 -56 26 -89 45c-33 -19 -53 -29 -89 -45l-39 62c47 32 82 58 128 94c46 -36 81 -62 128 -94z" />
    <glyph glyph-name="scommaaccent.smcp" horiz-adv-x="494" 
d="M233 -10c-60 0 -132 12 -188 36l24 110c45 -13 111 -25 166 -25s66 11 66 41c0 33 -6 41 -100 56c-136 22 -150 75 -150 170c0 114 69 152 206 152c50 0 128 -8 178 -22l-17 -117c-58 12 -113 18 -160 18c-48 0 -59 -7 -59 -36c0 -35 5 -40 94 -56
c146 -26 156 -60 156 -158c0 -112 -40 -169 -216 -169zM321 -197l-67 -106l-54 33l42 81h-42v140h121v-148z" />
    <glyph glyph-name="tbar.smcp" horiz-adv-x="484" 
d="M54 197v68h114v127h-151v128h450v-128h-151v-127h114v-68h-114v-197h-148v197h-114z" />
    <glyph glyph-name="tcaron.smcp" horiz-adv-x="484" 
d="M316 392v-392h-148v392h-151v128h450v-128h-151zM331 721l39 -62c-47 -32 -82 -58 -128 -94c-46 36 -81 62 -128 94l39 62c36 -16 56 -26 89 -45c33 19 53 29 89 45z" />
    <glyph glyph-name="tcommaaccent.smcp" horiz-adv-x="484" 
d="M316 392v-392h-148v392h-151v128h450v-128h-151zM301 -197l-67 -106l-54 33l42 81h-42v140h121v-148z" />
    <glyph glyph-name="thorn.smcp" horiz-adv-x="534" 
d="M311 69h-93v-69h-148v520h148v-64h100c146 0 191 -56 191 -155v-76c0 -101 -54 -156 -198 -156zM363 294c0 29 -14 43 -51 43h-94v-150h94c37 0 51 15 51 45v62z" />
    <glyph glyph-name="uacute.smcp" horiz-adv-x="582" 
d="M291 -10c-177 0 -226 83 -226 164v366h148v-349c0 -35 22 -53 78 -53c55 0 78 18 78 53v349h148v-366c0 -81 -49 -164 -226 -164zM273 565l-51 78c48 30 87 56 136 92l54 -84c-56 -36 -91 -58 -139 -86z" />
    <glyph glyph-name="ubreve.smcp" horiz-adv-x="582" 
d="M291 -10c-177 0 -226 83 -226 164v366h148v-349c0 -35 22 -53 78 -53c55 0 78 18 78 53v349h148v-366c0 -81 -49 -164 -226 -164zM376 721l67 -32c-9 -62 -61 -123 -154 -123s-145 61 -154 123l67 32c11 -40 39 -73 87 -73s76 33 87 73z" />
    <glyph glyph-name="ucircumflex.smcp" horiz-adv-x="582" 
d="M291 -10c-177 0 -226 83 -226 164v366h148v-349c0 -35 22 -53 78 -53c55 0 78 18 78 53v349h148v-366c0 -81 -49 -164 -226 -164zM419 630l-39 -62c-36 16 -56 26 -89 45c-33 -19 -53 -29 -89 -45l-39 62c47 32 82 58 128 94c46 -36 81 -62 128 -94z" />
    <glyph glyph-name="udieresis.smcp" horiz-adv-x="582" 
d="M291 -10c-177 0 -226 83 -226 164v366h148v-349c0 -35 22 -53 78 -53c55 0 78 18 78 53v349h148v-366c0 -81 -49 -164 -226 -164zM249 578h-111v112h111v-112zM444 578h-111v112h111v-112z" />
    <glyph glyph-name="ugrave.smcp" horiz-adv-x="582" 
d="M291 -10c-177 0 -226 83 -226 164v366h148v-349c0 -35 22 -53 78 -53c55 0 78 18 78 53v349h148v-366c0 -81 -49 -164 -226 -164zM353 643l-51 -78c-48 28 -83 50 -139 86l54 84c49 -36 88 -62 136 -92z" />
    <glyph glyph-name="uhungarumlaut.smcp" horiz-adv-x="582" 
d="M291 -10c-177 0 -226 83 -226 164v366h148v-349c0 -35 22 -53 78 -53c55 0 78 18 78 53v349h148v-366c0 -81 -49 -164 -226 -164zM198 565l-64 64c42 38 75 72 118 121l70 -71c-50 -51 -75 -75 -124 -114zM388 565l-64 64c42 38 75 72 118 121l70 -71
c-50 -51 -75 -75 -124 -114z" />
    <glyph glyph-name="umacron.smcp" horiz-adv-x="582" 
d="M291 -10c-177 0 -226 83 -226 164v366h148v-349c0 -35 22 -53 78 -53c55 0 78 18 78 53v349h148v-366c0 -81 -49 -164 -226 -164zM418 583h-254v92h254v-92z" />
    <glyph glyph-name="uogonek.smcp" horiz-adv-x="582" 
d="M376 -121l9 -75c-20 -8 -43 -11 -66 -11c-64 0 -108 31 -108 92c0 44 33 78 79 105c-176 0 -225 83 -225 164v366h148v-349c0 -35 22 -53 78 -53c55 0 78 18 78 53v349h148v-366c0 -61 -28 -124 -118 -151c-63 -29 -92 -72 -92 -98c0 -21 11 -30 34 -30c10 0 23 1 35 4z
" />
    <glyph glyph-name="uring.smcp" horiz-adv-x="582" 
d="M291 -10c-177 0 -226 83 -226 164v366h148v-349c0 -35 22 -53 78 -53c55 0 78 18 78 53v349h148v-366c0 -81 -49 -164 -226 -164zM386 647c0 -51 -32 -91 -95 -91s-95 36 -95 91c0 51 33 91 95 91c63 0 95 -40 95 -91zM326 647c0 24 -12 38 -35 38s-35 -14 -35 -38
s12 -38 35 -38s35 14 35 38z" />
    <glyph glyph-name="utilde.smcp" horiz-adv-x="582" 
d="M291 -10c-177 0 -226 83 -226 164v366h148v-349c0 -35 22 -53 78 -53c55 0 78 18 78 53v349h148v-366c0 -81 -49 -164 -226 -164zM354 571c-29 0 -47 7 -67 21c-18 13 -29 22 -46 22c-23 0 -38 -27 -50 -45l-58 45c23 45 59 87 105 87c24 0 41 -5 65 -21
c23 -15 37 -23 51 -23c22 0 32 14 38 41l68 -31c-17 -60 -54 -96 -106 -96z" />
    <glyph glyph-name="wacute.smcp" horiz-adv-x="816" 
d="M665 0h-168l-89 346l-89 -346h-168l-141 520h141l86 -332l96 332h150l96 -332l86 332h141zM414 565l-51 78c48 30 87 56 136 92l54 -84c-56 -36 -91 -58 -139 -86z" />
    <glyph glyph-name="wcircumflex.smcp" horiz-adv-x="816" 
d="M665 0h-168l-89 346l-89 -346h-168l-141 520h141l86 -332l96 332h150l96 -332l86 332h141zM536 630l-39 -62c-36 16 -56 26 -89 45c-33 -19 -53 -29 -89 -45l-39 62c47 32 82 58 128 94c46 -36 81 -62 128 -94z" />
    <glyph glyph-name="wdieresis.smcp" horiz-adv-x="816" 
d="M665 0h-168l-89 346l-89 -346h-168l-141 520h141l86 -332l96 332h150l96 -332l86 332h141zM366 578h-111v112h111v-112zM561 578h-111v112h111v-112z" />
    <glyph glyph-name="wgrave.smcp" horiz-adv-x="816" 
d="M665 0h-168l-89 346l-89 -346h-168l-141 520h141l86 -332l96 332h150l96 -332l86 332h141zM477 643l-51 -78c-48 28 -83 50 -139 86l54 84c49 -36 88 -62 136 -92z" />
    <glyph glyph-name="yacute.smcp" horiz-adv-x="508" 
d="M328 148v-148h-148v148l-180 372h150l104 -234l104 234h150zM248 565l-51 78c48 30 87 56 136 92l54 -84c-56 -36 -91 -58 -139 -86z" />
    <glyph glyph-name="ycircumflex.smcp" horiz-adv-x="508" 
d="M328 148v-148h-148v148l-180 372h150l104 -234l104 234h150zM382 630l-39 -62c-36 16 -56 26 -89 45c-33 -19 -53 -29 -89 -45l-39 62c47 32 82 58 128 94c46 -36 81 -62 128 -94z" />
    <glyph glyph-name="ydieresis.smcp" horiz-adv-x="508" 
d="M328 148v-148h-148v148l-180 372h150l104 -234l104 234h150zM212 578h-111v112h111v-112zM407 578h-111v112h111v-112z" />
    <glyph glyph-name="ygrave.smcp" horiz-adv-x="508" 
d="M328 148v-148h-148v148l-180 372h150l104 -234l104 234h150zM310 643l-51 -78c-48 28 -83 50 -139 86l54 84c49 -36 88 -62 136 -92z" />
    <glyph glyph-name="zacute.smcp" horiz-adv-x="530" 
d="M60 0v104l238 303h-232v113h405v-105l-236 -302h240v-113h-415zM246 565l-51 78c48 30 87 56 136 92l54 -84c-56 -36 -91 -58 -139 -86z" />
    <glyph glyph-name="zcaron.smcp" horiz-adv-x="530" 
d="M60 0v104l238 303h-232v113h405v-105l-236 -302h240v-113h-415zM369 721l39 -62c-47 -32 -82 -58 -128 -94c-46 36 -81 62 -128 94l39 62c36 -16 56 -26 89 -45c33 19 53 29 89 45z" />
    <glyph glyph-name="zdotaccent.smcp" horiz-adv-x="530" 
d="M60 0v104l238 303h-232v113h405v-105l-236 -302h240v-113h-415zM349 588h-144v153h144v-153z" />
    <glyph glyph-name="ornm01.ornm" horiz-adv-x="913" 
d="M373 0l-333 333l333 333l74 -75l-209 -204h615v-108h-615l209 -204z" />
    <glyph glyph-name="ornm02.ornm" horiz-adv-x="913" 
d="M873 333l-333 -333l-74 75l209 204h-615v108h615l-209 204l74 75z" />
    <glyph glyph-name="ornm03.ornm" horiz-adv-x="753" 
d="M85 195v471h471v-102h-293l435 -435l-76 -76l-435 435v-293h-102z" />
    <glyph glyph-name="ornm04.ornm" horiz-adv-x="753" 
d="M668 666v-471h-102v293l-435 -435l-76 76l435 435h-293v102h471z" />
    <glyph glyph-name="ornm05.ornm" horiz-adv-x="753" 
d="M85 0v471h102v-293l435 435l76 -76l-435 -435h293v-102h-471z" />
    <glyph glyph-name="ornm06.ornm" horiz-adv-x="753" 
d="M668 471v-471h-471v102h293l-435 435l76 76l435 -435v293h102z" />
    <glyph glyph-name="ornm07.ornm" horiz-adv-x="756" 
d="M45 343l333 333l333 -333l-75 -74l-204 209v-675h-108v675l-204 -209z" />
    <glyph glyph-name="ornm08.ornm" horiz-adv-x="756" 
d="M378 -197l-333 333l75 74l204 -209v665h108v-665l204 209l75 -74z" />
    <glyph glyph-name="ornm09.ornm" horiz-adv-x="933" 
d="M359 277v112h514v-112h-514zM373 0l-333 333l333 333l74 -75l-258 -258l258 -258z" />
    <glyph glyph-name="ornm10.ornm" horiz-adv-x="933" 
d="M574 389v-112h-514v112h514zM893 333l-333 -333l-74 75l258 258l-258 258l74 75z" />
    <glyph glyph-name="ornm11.ornm" horiz-adv-x="768" 
d="M271 401l79 79l363 -363l-79 -79zM85 196v470h471v-105h-366v-365h-105z" />
    <glyph glyph-name="ornm12.ornm" horiz-adv-x="768" 
d="M418 480l79 -79l-363 -363l-79 79zM683 666v-471h-105v366h-365v105h470z" />
    <glyph glyph-name="ornm13.ornm" horiz-adv-x="768" 
d="M350 186l-79 79l363 363l79 -79zM85 0v470h105v-365h366v-105h-471z" />
    <glyph glyph-name="ornm14.ornm" horiz-adv-x="768" 
d="M497 265l-79 -79l-363 363l79 79zM683 471v-471h-470v105h365v366h105z" />
    <glyph glyph-name="ornm15.ornm" horiz-adv-x="756" 
d="M322 357h112v-554h-112v554zM45 343l333 333l333 -333l-75 -74l-258 258l-258 -258z" />
    <glyph glyph-name="ornm16.ornm" horiz-adv-x="756" 
d="M434 122h-112v544h112v-544zM378 -197l-333 333l75 74l258 -258l258 258l75 -74z" />
    <glyph glyph-name="ornm17.ornm" horiz-adv-x="695" 
d="M277 86l-247 247l247 247l74 -75l-123 -118h407v-108h-407l123 -118z" />
    <glyph glyph-name="ornm18.ornm" horiz-adv-x="695" 
d="M665 333l-247 -247l-74 75l123 118h-407v108h407l-123 118l74 75z" />
    <glyph glyph-name="ornm19.ornm" horiz-adv-x="596" 
d="M75 317v349h350v-102h-171l287 -288l-76 -76l-288 287v-170h-102z" />
    <glyph glyph-name="ornm20.ornm" horiz-adv-x="596" 
d="M521 666v-349h-102v170l-288 -287l-76 76l287 288h-171v102h350z" />
    <glyph glyph-name="ornm21.ornm" horiz-adv-x="596" 
d="M75 0v349h102v-170l288 287l76 -76l-287 -288h171v-102h-350z" />
    <glyph glyph-name="ornm22.ornm" horiz-adv-x="596" 
d="M521 349v-349h-350v102h171l-287 288l76 76l288 -287v170h102z" />
    <glyph glyph-name="ornm23.ornm" horiz-adv-x="584" 
d="M45 429l247 247l247 -247l-75 -74l-118 123v-478h-108v478l-118 -123z" />
    <glyph glyph-name="ornm24.ornm" horiz-adv-x="584" 
d="M292 -10l-247 247l75 74l118 -123v478h108v-478l118 123l75 -74z" />
    <glyph glyph-name="ornm25.ornm" horiz-adv-x="714" 
d="M292 277v112h362v-112h-362zM277 86l-247 247l247 247l74 -75l-172 -172l172 -172z" />
    <glyph glyph-name="ornm26.ornm" horiz-adv-x="714" 
d="M422 389v-112h-362v112h362zM684 333l-247 -247l-74 75l172 172l-172 172l74 75z" />
    <glyph glyph-name="ornm27.ornm" horiz-adv-x="611" 
d="M221 441l79 79l256 -256l-79 -79zM75 316v350h349v-106h-243v-244h-106z" />
    <glyph glyph-name="ornm28.ornm" horiz-adv-x="611" 
d="M311 520l79 -79l-256 -256l-79 79zM536 666v-350h-106v244h-243v106h349z" />
    <glyph glyph-name="ornm29.ornm" horiz-adv-x="611" 
d="M300 146l-79 79l256 256l79 -79zM75 0v350h106v-244h243v-106h-349z" />
    <glyph glyph-name="ornm30.ornm" horiz-adv-x="611" 
d="M390 225l-79 -79l-256 256l79 79zM536 350v-350h-349v106h243v244h106z" />
    <glyph glyph-name="ornm31.ornm" horiz-adv-x="584" 
d="M236 414h112v-414h-112v414zM45 429l247 247l247 -247l-75 -74l-172 172l-172 -172z" />
    <glyph glyph-name="ornm32.ornm" horiz-adv-x="584" 
d="M348 252h-112v414h112v-414zM292 -10l-247 247l75 74l172 -172l172 172l75 -74z" />
    <glyph glyph-name="ornm33.ornm" horiz-adv-x="766" 
d="M156 333l224 -223l66 68l-111 107h272v97h-272l111 107l-66 68zM40 333c0 189 154 343 343 343s343 -154 343 -343s-154 -343 -343 -343s-343 154 -343 343z" />
    <glyph glyph-name="ornm34.ornm" horiz-adv-x="766" 
d="M386 110l224 223l-224 224l-66 -68l111 -107h-272v-97h272l-111 -107zM726 333c0 -189 -154 -343 -343 -343s-343 154 -343 343s154 343 343 343s343 -154 343 -343z" />
    <glyph glyph-name="ornm35.ornm" horiz-adv-x="766" 
d="M223 494v-314h92v154l193 -192l68 68l-192 190h155v94h-316zM726 333c0 -189 -154 -343 -343 -343s-343 154 -343 343s154 343 343 343s343 -154 343 -343z" />
    <glyph glyph-name="ornm36.ornm" horiz-adv-x="766" 
d="M543 180v314h-316v-94h155l-192 -190l68 -68l193 192v-154h92zM40 333c0 189 154 343 343 343s343 -154 343 -343s-154 -343 -343 -343s-343 154 -343 343z" />
    <glyph glyph-name="ornm37.ornm" horiz-adv-x="766" 
d="M223 486v-314h316v94h-155l192 190l-68 68l-193 -192v154h-92zM726 333c0 -189 -154 -343 -343 -343s-343 154 -343 343s154 343 343 343s343 -154 343 -343z" />
    <glyph glyph-name="ornm38.ornm" horiz-adv-x="766" 
d="M543 172v314h-92v-154l-193 192l-68 -68l192 -190h-155v-94h316zM40 333c0 189 154 343 343 343s343 -154 343 -343s-154 -343 -343 -343s-343 154 -343 343z" />
    <glyph glyph-name="ornm39.ornm" horiz-adv-x="766" 
d="M383 571l-223 -224l68 -66l107 111v-272h97v272l107 -111l68 66zM383 676c189 0 343 -154 343 -343s-154 -343 -343 -343s-343 154 -343 343s154 343 343 343z" />
    <glyph glyph-name="ornm40.ornm" horiz-adv-x="766" 
d="M160 319l223 -224l224 224l-68 66l-107 -111v272h-97v-272l-107 111zM383 -10c-189 0 -343 154 -343 343s154 343 343 343s343 -154 343 -343s-154 -343 -343 -343z" />
    <glyph glyph-name="ornm41.ornm" horiz-adv-x="766" 
d="M40 333c0 189 154 343 343 343s343 -154 343 -343s-154 -343 -343 -343s-343 154 -343 343zM411 383v-100h205v100h-205zM154 333l224 -224l67 67l-156 157l156 155l-67 68z" />
    <glyph glyph-name="ornm42.ornm" horiz-adv-x="766" 
d="M726 333c0 -189 -154 -343 -343 -343s-343 154 -343 343s154 343 343 343s343 -154 343 -343zM355 283v100h-205v-100h205zM388 109l224 224l-224 223l-67 -68l156 -155l-156 -157z" />
    <glyph glyph-name="ornm43.ornm" horiz-adv-x="766" 
d="M448 349l-71 -71l145 -145l71 71zM231 495v-317h96v221h219l1 96h-316zM726 333c0 -189 -154 -343 -343 -343s-343 154 -343 343s154 343 343 343s343 -154 343 -343z" />
    <glyph glyph-name="ornm44.ornm" horiz-adv-x="766" 
d="M389 278l-71 71l-145 -145l71 -71zM535 178v317h-316l1 -96h219v-221h96zM40 333c0 189 154 343 343 343s343 -154 343 -343s-154 -343 -343 -343s-343 154 -343 343z" />
    <glyph glyph-name="ornm45.ornm" horiz-adv-x="766" 
d="M377 388l71 -71l145 145l-71 71zM231 488v-317h316l-1 96h-219v221h-96zM726 333c0 -189 -154 -343 -343 -343s-343 154 -343 343s154 343 343 343s343 -154 343 -343z" />
    <glyph glyph-name="ornm46.ornm" horiz-adv-x="766" 
d="M318 317l71 71l-145 145l-71 -71zM535 171v317h-96v-221h-219l-1 -96h316zM40 333c0 189 154 343 343 343s343 -154 343 -343s-154 -343 -343 -343s-343 154 -343 343z" />
    <glyph glyph-name="ornm47.ornm" horiz-adv-x="766" 
d="M383 676c189 0 343 -154 343 -343s-154 -343 -343 -343s-343 154 -343 343s154 343 343 343zM433 314h-100v-205h100v205zM383 571l-224 -224l67 -67l157 156l155 -156l68 67z" />
    <glyph glyph-name="ornm48.ornm" horiz-adv-x="766" 
d="M383 -10c-189 0 -343 154 -343 343s154 343 343 343s343 -154 343 -343s-154 -343 -343 -343zM333 352h100v205h-100v-205zM159 319l224 -224l223 224l-68 67l-155 -156l-157 156z" />
    <glyph glyph-name="ornm49.ornm" horiz-adv-x="766" 
d="M40 333c0 189 154 343 343 343s343 -154 343 -343s-154 -343 -343 -343s-343 154 -343 343zM503 143l70 70l-120 120l120 120l-71 71l-119 -120l-119 120l-71 -71l119 -120l-119 -120l70 -70l120 120z" />
    <glyph glyph-name="ornm50.ornm" horiz-adv-x="766" 
d="M40 333c0 189 154 343 343 343s343 -154 343 -343s-154 -343 -343 -343s-343 154 -343 343zM502 524l-119 -120l70 -71l120 120zM264 524l-71 -71l119 -120l71 71zM503 143l70 70l-120 120l-70 -70zM193 213l70 -70l120 120l-71 70z" />
    <glyph glyph-name="ornm51.ornm" horiz-adv-x="766" 
d="M40 333c0 189 154 343 343 343s343 -154 343 -343s-154 -343 -343 -343s-343 154 -343 343zM603 284v99h-170v170h-99v-170h-170v-99h170v-170h99v170h170z" />
    <glyph glyph-name="ornm52.ornm" horiz-adv-x="766" 
d="M40 333c0 189 154 343 343 343s343 -154 343 -343s-154 -343 -343 -343s-343 154 -343 343zM334 553v-170h99v170h-99zM164 383v-99h170v99h-170zM603 284v99h-170v-99h170zM334 114h99v170h-99v-170z" />
    <glyph glyph-name="ornm53.ornm" horiz-adv-x="786" 
d="M25 333l686 343v-686z" />
    <glyph glyph-name="ornm54.ornm" horiz-adv-x="786" 
d="M75 676l686 -343l-686 -343v686z" />
    <glyph glyph-name="ornm55.ornm" horiz-adv-x="786" 
d="M653 582l-498 -249l498 -249v498zM25 333l686 343v-686z" />
    <glyph glyph-name="ornm56.ornm" horiz-adv-x="786" 
d="M631 333l-498 249v-498zM75 676l686 -343l-686 -343v686z" />
    <glyph glyph-name="ornm57.ornm" horiz-adv-x="608" 
d="M25 243l508 254v-508z" />
    <glyph glyph-name="ornm58.ornm" horiz-adv-x="608" 
d="M75 497l508 -254l-508 -254v508z" />
    <glyph glyph-name="ornm59.ornm" horiz-adv-x="608" 
d="M475 404l-326 -161l326 -162v323zM25 243l508 254v-508z" />
    <glyph glyph-name="ornm60.ornm" horiz-adv-x="608" 
d="M459 243l-326 161v-323zM75 497l508 -254l-508 -254v508z" />
    <glyph glyph-name="ornm61.ornm" horiz-adv-x="766" 
d="M383 676l338 -676h-676z" />
    <glyph glyph-name="ornm62.ornm" horiz-adv-x="766" 
d="M721 666l-338 -676l-338 676h676z" />
    <glyph glyph-name="ornm63.ornm" horiz-adv-x="766" 
d="M628 57l-245 491l-245 -491h490zM383 676l338 -676h-676z" />
    <glyph glyph-name="ornm64.ornm" horiz-adv-x="766" 
d="M383 118l245 491h-490zM721 666l-338 -676l-338 676h676z" />
    <glyph glyph-name="ornm65.ornm" horiz-adv-x="587" 
d="M293 497l249 -497h-497z" />
    <glyph glyph-name="ornm66.ornm" horiz-adv-x="587" 
d="M542 487l-249 -497l-248 497h497z" />
    <glyph glyph-name="ornm67.ornm" horiz-adv-x="587" 
d="M293 376l-157 -319h316zM45 0l248 497l249 -497h-497z" />
    <glyph glyph-name="ornm68.ornm" horiz-adv-x="587" 
d="M136 430l157 -319l159 319h-316zM293 -10l-248 497h497z" />
    <glyph glyph-name="ornm69.ornm" horiz-adv-x="816" 
d="M75 0v666h666v-666h-666z" />
    <glyph glyph-name="ornm70.ornm" horiz-adv-x="816" 
d="M133 608v-550h550v550h-550zM75 0v666h666v-666h-666z" />
    <glyph glyph-name="ornm71.ornm" horiz-adv-x="637" 
d="M75 0v487h487v-487h-487z" />
    <glyph glyph-name="ornm72.ornm" horiz-adv-x="637" 
d="M75 0v487h487v-487h-487zM131 431v-375h375v375h-375z" />
    <glyph glyph-name="ornm73.ornm" horiz-adv-x="816" 
d="M75 0v666h666v-666h-666zM133 573v-515h514zM683 608h-513l513 -512v512z" />
    <glyph glyph-name="ornm74.ornm" horiz-adv-x="637" 
d="M75 0v487h487v-487h-487zM506 431h-341l341 -341v341zM131 395v-339h339z" />
    </font>
</defs>
</svg>
